<?xml version="1.0" standalone="no"?>
<!DOCTYPE svg PUBLIC "-//W3C//DTD SVG 1.1//EN" "http://www.w3.org/Graphics/SVG/1.1/DTD/svg11.dtd" >
<svg xmlns="http://www.w3.org/2000/svg" xmlns:xlink="http://www.w3.org/1999/xlink" version="1.1">
<metadata>
Created by FontForge 20201107 at Fri May 11 10:06:17 2018
 By 
Copyright (c) 2018 by Adam Ladd. All rights reserved.
</metadata>
<defs>
<font id="QuicheFine-Regular" horiz-adv-x="1214" >
  <font-face 
    font-family="Quiche Fine Regular"
    font-weight="400"
    font-stretch="normal"
    units-per-em="2048"
    panose-1="0 0 5 0 0 0 0 0 0 0"
    ascent="1475"
    descent="-573"
    x-height="1024"
    cap-height="1434"
    bbox="-1503 -573 2722 1917"
    underline-thickness="0"
    underline-position="0"
    unicode-range="U+0020-FB02"
  />
<missing-glyph horiz-adv-x="1024" 
d="M840 1475v-2048h-650v2048h650zM682 1337h-338v-67h133v-76h-135v-68h340v68h-135v76h135v67zM547 1073h-205v-213h340v70h-135v143zM477 1004v-74h-67v74h67zM682 805h-340v-68h135v-75h-135v-68h205v143h135v68zM682 682h-68v-135h-272v-70h340v205zM682 432h-205v-115
h70v48h67v-97h-204v164h-68v-231h340v231zM682 78h-340v-232h340v232zM614 10v-96h-204v96h204zM682 -201h-340v-67h143l-143 -97v-67h340v67h-209l143 97h66v67z" />
    <glyph glyph-name="uniFB01" unicode="fi" horiz-adv-x="1175" 
d="M938 1317q0 -43 -28.5 -71.5t-69.5 -28.5q-45 0 -76 28.5t-31 71.5q0 45 30 73.5t75 28.5q-72 49 -174 49q-125 0 -199 -76.5t-74 -195.5v-172h225v-20h-225v-1004h-182v1004h-131v20h131v104q0 158 116.5 262.5t299.5 104.5q129 0 221 -52t92 -126zM819 989l182 45
v-1034h-182v989z" />
    <glyph glyph-name="uniFB02" unicode="fl" horiz-adv-x="1220" 
d="M868 1452l179 43v-1495h-183v1425q-70 43 -174 43q-139 0 -219 -74.5t-80 -191.5v-178h230v-20h-230v-1004h-182v1004h-131v20h131v109q0 156 123 259t317 103q129 0 219 -43z" />
    <glyph glyph-name="f_f.liga" unicode="ff" horiz-adv-x="1320" 
d="M1169 1495q113 0 189 -51t76 -127q0 -43 -29 -71.5t-72 -28.5q-45 0 -75.5 28.5t-30.5 71.5q0 45 29.5 73.5t74.5 28.5q12 0 17 -2q-51 51 -138 51q-90 0 -145 -61t-55 -158v-225h237v-20h-237v-1004h-183v1004h-436v-1004h-182v1004h-131v20h131v88q0 154 120 258.5
t300 104.5q184 0 272 -95q98 115 268 115zM827 1024v158q0 96 56 174q-66 92 -215 92q-123 0 -200 -76t-77 -192v-156h436z" />
    <glyph glyph-name="f_f_i.liga" unicode="ffi" horiz-adv-x="1794" 
d="M1556 1317q0 -43 -28.5 -71.5t-71.5 -28.5q-45 0 -74.5 28.5t-29.5 71.5q0 45 28.5 72.5t73.5 29.5q-72 49 -172 49q-125 0 -198.5 -76.5t-73.5 -195.5v-172h225v-20h-225v-1004h-183v1004h-436v-1004h-182v1004h-131v20h131v88q0 154 120 258.5t300 104.5q96 0 173 -31
t113 -80q121 131 326 131q129 0 222 -52t93 -126zM827 1024v104q0 115 66 207q-23 51 -85.5 82t-139.5 31q-123 0 -200 -76t-77 -192v-156h436zM1438 989l182 45v-1034h-182v989z" />
    <glyph glyph-name="f_f_l.liga" unicode="ffl" horiz-adv-x="1830" 
d="M1481 1452l176 43v-1495h-182v1425q-70 43 -172 43q-137 0 -215 -72.5t-78 -185.5v-186h229v-20h-229v-1004h-183v1004h-436v-1004h-182v1004h-131v20h131v88q0 154 120 258.5t300 104.5q211 0 289 -115q125 135 348 135q125 0 215 -43zM827 1024v109q0 111 68 200
q-23 51 -86.5 83t-140.5 32q-123 0 -200 -76t-77 -192v-156h436z" />
    <glyph glyph-name=".notdef" horiz-adv-x="1024" 
d="M840 1475v-2048h-650v2048h650zM682 1337h-338v-67h133v-76h-135v-68h340v68h-135v76h135v67zM547 1073h-205v-213h340v70h-135v143zM477 1004v-74h-67v74h67zM682 805h-340v-68h135v-75h-135v-68h205v143h135v68zM682 682h-68v-135h-272v-70h340v205zM682 432h-205v-115
h70v48h67v-97h-204v164h-68v-231h340v231zM682 78h-340v-232h340v232zM614 10v-96h-204v96h204zM682 -201h-340v-67h143l-143 -97v-67h340v67h-209l143 97h66v67z" />
    <glyph glyph-name="glyph1" horiz-adv-x="0" 
 />
    <glyph glyph-name="glyph2" horiz-adv-x="681" 
 />
    <glyph glyph-name="space" unicode=" " horiz-adv-x="550" 
 />
    <glyph glyph-name="exclam" unicode="!" horiz-adv-x="532" 
d="M258 449q-4 203 -30.5 399t-51 321t-24.5 154q0 51 32.5 86t81.5 35q51 0 84 -34t33 -87q0 -29 -24.5 -154t-52 -321.5t-32.5 -398.5h-16zM268 -10q-55 0 -92 35.5t-37 89t37 91.5t92 38q53 0 89 -38t36 -91.5t-36 -89t-89 -35.5z" />
    <glyph glyph-name="quotedbl" unicode="&#x22;" horiz-adv-x="727" 
d="M190 997q-10 115 -51 220.5t-41 132.5q0 45 29 74.5t72 29.5q45 0 73.5 -29.5t28.5 -74.5q0 -27 -42 -131.5t-52 -221.5h-17zM520 997q-10 115 -51 220.5t-41 132.5q0 45 28.5 74.5t71.5 29.5q45 0 74 -29.5t29 -74.5q0 -27 -42 -131.5t-52 -221.5h-17z" />
    <glyph glyph-name="numbersign" unicode="#" horiz-adv-x="1531" 
d="M1456 963h-305l-111 -492h306v-20h-310l-102 -451h-123l102 451h-413l-103 -451h-123l103 451h-303v20h307l111 492h-308v20h312l102 451h123l-103 -451h414l103 451h122l-102 -451h301v-20zM918 471l110 492h-414l-110 -492h414z" />
    <glyph glyph-name="dollar" unicode="$" horiz-adv-x="1198" 
d="M1098 373q0 -174 -133.5 -281.5t-341.5 -111.5v-164h-29v164q-203 4 -344 98t-141 233q0 45 31.5 75t78.5 30q45 0 74 -30t29 -75t-29 -74.5t-74 -29.5q-23 0 -41 6q43 -94 152.5 -151.5t251.5 -57.5h12v625l-27 12q-78 33 -121 53.5t-109.5 61.5t-102 79.5t-63.5 99
t-28 132.5q0 166 128 274.5t323 112.5v164h29v-164q178 -4 298.5 -92t120.5 -217q0 -45 -29.5 -75t-72.5 -30q-47 0 -78 30t-31 75t31 74.5t78 29.5q23 0 39 -8q-37 86 -132 138.5t-218 52.5h-6v-621l43 -18q76 -31 110.5 -47.5t97 -48t93 -59.5t66.5 -69t50.5 -89
t14.5 -107zM285 1135q0 -106 82 -177t227 -135v607q-135 -10 -222 -93t-87 -202zM623 6q145 10 237 91t92 202q0 106 -85 177t-244 140v-610z" />
    <glyph glyph-name="percent" unicode="%" horiz-adv-x="1472" 
d="M379 799q-127 0 -212 94t-85 233.5t85 233.5t212 94q129 0 214 -94t85 -233.5t-85 -233.5t-214 -94zM379 817q76 0 121 83t45 226.5t-45 226.5t-121 83t-120 -83t-44 -226.5t44 -226.5t120 -83zM256 0l922 1434h34l-921 -1434h-35zM1092 -20q-127 0 -212 94t-85 233
t85 233.5t212 94.5q129 0 214 -94.5t85 -233.5t-85 -233t-214 -94zM1091.5 -2q75.5 0 120.5 83t45 226.5t-45 226t-120.5 82.5t-119.5 -82.5t-44 -226t44 -226.5t119.5 -83z" />
    <glyph glyph-name="ampersand" unicode="&#x26;" horiz-adv-x="1427" 
d="M1440 123l16 -14q-16 -57 -77.5 -93t-141.5 -36q-137 0 -295 151q-158 -152 -383 -151q-199 0 -328 113.5t-129 277.5q0 131 94.5 248.5t254.5 185.5q-111 195 -111 325q0 139 94 231.5t238 92.5q123 0 202.5 -68.5t79.5 -168.5q0 -199 -327 -353q43 -76 161 -252
q135 -201 242 -327q96 162 109 395h24q-12 -242 -114 -418q178 -207 286 -207q74 0 105 68zM705 1430q-86 0 -142.5 -66t-56.5 -170q0 -125 108 -309q276 137 277 327q0 96 -51 157t-135 61zM279 420q0 -176 95 -284.5t251 -108.5q168 0 299 120q-121 123 -303 392
q-109 162 -156 241q-86 -51 -136 -147t-50 -213z" />
    <glyph glyph-name="quotesingle" unicode="'" horiz-adv-x="397" 
d="M190 997q-10 115 -51 220.5t-41 132.5q0 45 29 74.5t72 29.5q45 0 73.5 -29.5t28.5 -74.5q0 -27 -42 -131.5t-52 -221.5h-17z" />
    <glyph glyph-name="parenleft" unicode="(" horiz-adv-x="696" 
d="M621 -266q-201 119 -332 368.5t-131 512t131 512t332 368.5l12 -18q-137 -96 -215 -318.5t-78 -544t78 -544t215 -318.5z" />
    <glyph glyph-name="parenright" unicode=")" horiz-adv-x="696" 
d="M76 -266l-13 18q137 96 215 318.5t78 544t-77.5 543.5t-215.5 319l13 18q201 -119 332 -368.5t131 -512t-131 -512t-332 -368.5z" />
    <glyph glyph-name="asterisk" unicode="*" horiz-adv-x="708" 
d="M582 1133q45 -27 20 -70q-10 -18 -31.5 -23.5t-40.5 7.5q-12 6 -62 56t-103 81q2 -55 20 -125t18 -82q0 -25 -15 -41t-35.5 -16t-36 15t-15.5 40q0 16 18.5 85.5t22.5 123.5q-45 -29 -101.5 -81t-64.5 -56q-43 -27 -72 16q-25 43 21 70q16 10 86 30.5t117 42.5
q-53 27 -123 47.5t-80 26.5q-20 10 -26.5 31.5t3.5 38.5q25 45 74 18q14 -8 67.5 -60.5t98.5 -80.5q-2 57 -21.5 127.5t-19.5 85.5q0 25 15.5 40t36 15t35.5 -16.5t15 -40.5q0 -14 -18 -84t-20 -127q47 29 101 82t64 59q47 27 74 -18q10 -16 4 -37t-26 -33q-12 -6 -84 -27.5
t-119 -46.5q47 -25 119 -46t84 -27z" />
    <glyph glyph-name="plus" unicode="+" horiz-adv-x="1126" 
d="M973 625v-21h-398v-399h-24v399h-397v21h397v399h24v-399h398z" />
    <glyph glyph-name="comma" unicode="," horiz-adv-x="440" 
d="M223 242q53 0 92 -40t39 -110q0 -96 -58 -191.5t-142 -142.5l-15 15q63 39 109.5 108.5t54.5 136.5q-33 -29 -80 -28q-53 0 -90 35.5t-37 89t37 90.5t90 37z" />
    <glyph glyph-name="hyphen" unicode="-" horiz-adv-x="878" 
d="M154 539v28h571v-28h-571z" />
    <glyph glyph-name="period" unicode="." horiz-adv-x="444" 
d="M223 -10q-53 0 -90 35.5t-37 89t37 91.5t90 38t90 -38t37 -91.5t-37 -89t-90 -35.5z" />
    <glyph glyph-name="slash" unicode="/" horiz-adv-x="884" 
d="M68 -266l677 1761h33l-678 -1761h-32z" />
    <glyph glyph-name="zero" unicode="0" horiz-adv-x="1472" 
d="M735 -20q-258 0 -430 210.5t-172 526t172 526.5t430 211q260 0 432 -211t172 -526.5t-172 -526t-432 -210.5zM735.5 0q188.5 0 301 194.5t112.5 522t-112.5 522.5t-301 195t-300 -195t-111.5 -522.5t111.5 -522t300 -194.5z" />
    <glyph glyph-name="one" unicode="1" horiz-adv-x="811" 
d="M475 1434h109v-1434h-183v1325q-119 -119 -303 -164l-8 21q102 27 213 98.5t172 153.5z" />
    <glyph glyph-name="two" unicode="2" horiz-adv-x="1189" 
d="M233 127h809v-127h-901v55l391 426q160 172 238 303t78 291q0 158 -82 253t-225 95q-127 0 -223.5 -63.5t-131.5 -163.5q27 14 60 14q45 0 74.5 -30.5t29.5 -77.5t-29.5 -78t-74.5 -31q-49 0 -82 31t-33 78q0 150 129 251t320 101q197 0 327.5 -108.5t130.5 -270.5
q0 -78 -30.5 -151.5t-104.5 -158.5t-128 -138.5t-169 -157.5z" />
    <glyph glyph-name="three" unicode="3" horiz-adv-x="1220" 
d="M690 743q184 -29 299 -133t115 -248q0 -164 -141.5 -273t-358.5 -109q-195 0 -327 89t-132 222q0 47 33 77.5t82 30.5q45 0 75 -30.5t30 -77.5t-30 -78t-75 -31q-31 0 -55 13q37 -88 132 -137.5t224 -49.5q168 0 262.5 98.5t94.5 266.5q0 164 -92.5 262t-247.5 98h-142
v21h142q137 0 219 91t82 242q0 156 -83 247t-237 91q-121 0 -210 -50t-124 -136q25 12 56 12q45 0 74.5 -30.5t29.5 -77.5t-29.5 -78t-74.5 -31q-49 0 -82 31t-33 78q0 133 126 222t314 89q199 0 327 -100.5t128 -253.5q0 -129 -104.5 -228.5t-266.5 -128.5z" />
    <glyph glyph-name="four" unicode="4" horiz-adv-x="1236" 
d="M1171 428v-20h-227v-408h-182v408h-694v30l718 996h158v-1006h227zM92 428h670v928z" />
    <glyph glyph-name="five" unicode="5" horiz-adv-x="1220" 
d="M610 948q219 0 365.5 -138t146.5 -349q0 -209 -146.5 -345t-375.5 -136q-195 0 -326 96t-131 235q0 47 32 78t81 31q47 0 76.5 -31t29.5 -78t-29.5 -77.5t-76.5 -30.5q-31 0 -55 12q35 -96 131 -151.5t225 -55.5q178 0 276.5 122t98.5 329q0 209 -99.5 335t-263.5 126
q-94 0 -183 -37t-144 -97l-27 17l80 631h723l-17 -125h-698l-63 -490q51 55 155 92t215 37z" />
    <glyph glyph-name="six" unicode="6" horiz-adv-x="1294" 
d="M700 913q203 0 344.5 -131t141.5 -327q0 -203 -147.5 -339t-360.5 -136q-240 0 -392.5 178t-152.5 479q0 215 77 401.5t220 301t318 114.5q143 0 243.5 -70.5t100.5 -175.5q0 -47 -32 -77.5t-81 -30.5q-45 0 -76 30.5t-31 77.5t30 78t77 31q20 0 37 -6q-70 117 -242 116
q-199 0 -319.5 -193.5t-130.5 -528.5q41 92 142 150t234 58zM672 0q152 0 237.5 121t85.5 328q0 205 -85 321.5t-238 116.5q-162 0 -253 -118t-91 -323q0 -207 92 -326.5t252 -119.5z" />
    <glyph glyph-name="seven" unicode="7" horiz-adv-x="1138" 
d="M113 1434h958v-48q-217 -283 -354 -662.5t-146 -723.5h-215q16 223 188.5 580.5t438.5 728.5h-870v125z" />
    <glyph glyph-name="eight" unicode="8" horiz-adv-x="1265" 
d="M809 750q154 -70 239 -154t85 -217q0 -176 -144.5 -287.5t-359.5 -111.5q-209 0 -352.5 103t-143.5 263q0 115 78 220.5t201 160.5q-244 135 -244 340q0 168 133 277.5t330 109.5q190 0 316 -101.5t126 -250.5q0 -111 -71.5 -206t-192.5 -146zM313 1139q0 -51 21.5 -95.5
t52.5 -75t87 -63.5t101.5 -54.5t120.5 -51.5q18 -8 52 -22.5t38 -16.5q98 47 156.5 139t58.5 197q0 143 -101 239.5t-255 96.5q-141 0 -236.5 -84t-95.5 -209zM618 2q160 0 264.5 83t104.5 210q0 63 -29.5 114.5t-94 94.5t-119 69.5t-146.5 65.5q-106 45 -166 76
q-102 -51 -164.5 -153.5t-62.5 -211.5q0 -150 117.5 -249t295.5 -99z" />
    <glyph glyph-name="nine" unicode="9" horiz-adv-x="1294" 
d="M616 1454q240 0 392.5 -178t152.5 -479q0 -330 -174 -573.5t-434 -243.5q-147 0 -248.5 70.5t-101.5 174.5q0 47 31.5 78t80.5 31q47 0 77 -31t30 -78t-30 -77.5t-77 -30.5q-18 0 -36 6q70 -117 245 -117q199 0 318 191.5t129 531.5q-41 -92 -142.5 -150.5t-234.5 -58.5
q-205 0 -345 131t-140 328q0 203 147 339t360 136zM631 547q158 0 247 117.5t89 322.5q0 207 -90.5 327t-246 120t-243.5 -121t-88 -328q0 -205 88 -321.5t244 -116.5z" />
    <glyph glyph-name="colon" unicode=":" horiz-adv-x="483" 
d="M241.5 698q-53.5 0 -90 36t-36.5 89.5t36.5 91t90 37.5t90.5 -37.5t37 -91t-37 -89.5t-90.5 -36zM241.5 -10q-53.5 0 -90 35.5t-36.5 89t36.5 91.5t90 38t90.5 -38t37 -91.5t-37 -89t-90.5 -35.5z" />
    <glyph glyph-name="semicolon" unicode=";" horiz-adv-x="479" 
d="M241.5 698q-53.5 0 -90 36t-36.5 89.5t36.5 91t90 37.5t90.5 -37.5t37 -91t-37 -89.5t-90.5 -36zM241.5 242q53.5 0 92.5 -40t39 -110q0 -96 -58.5 -191.5t-142.5 -142.5l-14 15q63 39 108 106.5t53 134.5q-29 -25 -77 -24q-53 0 -90 35.5t-37 89t36.5 90.5t90 37z" />
    <glyph glyph-name="less" unicode="&#x3c;" horiz-adv-x="1001" 
d="M848 1024v-31l-664 -379l664 -378v-31l-694 397v25z" />
    <glyph glyph-name="equal" unicode="=" horiz-adv-x="1126" 
d="M154 768v20h819v-20h-819zM154 440v21h819v-21h-819z" />
    <glyph glyph-name="greater" unicode="&#x3e;" horiz-adv-x="1001" 
d="M154 1024l694 -397v-25l-694 -397v31l663 378l-663 379v31z" />
    <glyph glyph-name="question" unicode="?" horiz-adv-x="987" 
d="M489.5 1454q178.5 0 294 -90t115.5 -229q0 -76 -41 -145.5t-99.5 -123t-117.5 -104.5t-100 -109.5t-41 -117.5v-86h-29v96q0 63 39 136t84 130t84 143t39 174q0 129 -78 213t-197 84q-109 0 -190.5 -48t-114.5 -128q25 12 53 13q45 0 76 -31t31 -78t-30.5 -78t-76.5 -31
q-49 0 -80.5 31t-31.5 78q0 131 116.5 216t295 85zM489 244q53 0 89 -38t36 -91.5t-35.5 -89t-89.5 -35.5q-55 0 -92 35.5t-37 89t37 91.5t92 38z" />
    <glyph glyph-name="at" unicode="@" horiz-adv-x="1863" 
d="M1352 899l-95 -629q-10 -63 16.5 -101t86.5 -38q113 0 183.5 133t70.5 340q0 319 -177 507.5t-472 188.5q-319 0 -513 -217t-194 -571q0 -362 204 -577.5t544 -215.5q141 0 263 36t179 95l16 -18q-59 -57 -192 -95t-279 -38q-365 0 -610.5 233.5t-245.5 583.5
q0 344 236.5 574.5t593.5 230.5q326 0 544 -195.5t218 -498.5q0 -215 -113 -366.5t-285 -151.5q-88 0 -147.5 37.5t-71.5 99.5q-100 -137 -260 -137q-141 0 -238.5 108.5t-97.5 267.5q0 180 121 303t289 123q186 0 252 -155l16 106zM899 147q137 0 211 150v4l59 397
q-23 84 -77 131.5t-129 47.5q-123 0 -205 -115t-82 -293q0 -150 61.5 -236t161.5 -86z" />
    <glyph glyph-name="A" unicode="A" horiz-adv-x="1458" 
d="M1206 0l-188 434h-739l-189 -434h-29l629 1434h80l627 -1434h-191zM289 455h719l-359 825z" />
    <glyph glyph-name="B" unicode="B" horiz-adv-x="1400" 
d="M901 741q186 -23 304 -122t118 -246q0 -160 -126 -266.5t-312 -106.5h-688v1434h626q188 0 313.5 -101.5t125.5 -251.5q0 -127 -98.5 -217t-262.5 -123zM772 1413h-393v-665h362q152 0 241 87t89 238q0 156 -82 248t-217 92zM834 20q135 0 217 95.5t82 255.5
q0 172 -94.5 264t-235.5 92h-424v-707h455z" />
    <glyph glyph-name="C" unicode="C" horiz-adv-x="1527" 
d="M1405 274l25 -12q-66 -125 -220.5 -203.5t-349.5 -78.5q-322 0 -540 209.5t-218 527.5q0 313 215 525t541 212q233 0 394 -108.5t161 -258.5v-2q0 -45 -29.5 -75.5t-76.5 -30.5t-79 30.5t-32 78t32 78t79 30.5q25 0 43 -8q-43 106 -165 171.5t-290 65.5
q-274 0 -438 -192.5t-164 -513.5q0 -324 165 -516.5t437 -192.5q172 0 305 70.5t205 193.5z" />
    <glyph glyph-name="D" unicode="D" horiz-adv-x="1597" 
d="M729 1434q328 0 547 -206t219 -511t-219 -511t-547 -206h-532v1434h532zM702 20q272 0 437.5 190.5t165.5 506t-165 506t-438 190.5h-323v-1393h323z" />
    <glyph glyph-name="E" unicode="E" horiz-adv-x="1288" 
d="M379 20h827v-20h-1009v1434h989v-21h-807v-676h643v-20h-643v-697z" />
    <glyph glyph-name="F" unicode="F" horiz-adv-x="1224" 
d="M1165 1413h-786v-696h622v-21h-622v-696h-182v1434h968v-21z" />
    <glyph glyph-name="G" unicode="G" horiz-adv-x="1617" 
d="M1280 606h178v-606h-20l-117 145q-63 -76 -185 -120.5t-272 -44.5q-324 0 -543 210.5t-219 526t219.5 526.5t552.5 211q231 0 387 -100.5t156 -249.5q0 -47 -29.5 -78t-74.5 -31q-49 0 -81 31t-32 78t32 77.5t81 30.5q25 0 41 -8q-41 102 -160 161.5t-285 59.5
q-285 0 -450.5 -192.5t-165.5 -521.5q0 -319 160.5 -514t431.5 -195q145 0 249.5 56.5t145.5 154.5v393z" />
    <glyph glyph-name="H" unicode="H" horiz-adv-x="1603" 
d="M1225 1434h182v-1434h-182v717h-846v-717h-182v1434h182v-697h846v697z" />
    <glyph glyph-name="I" unicode="I" horiz-adv-x="573" 
d="M197 0v1434h182v-1434h-182z" />
    <glyph glyph-name="J" unicode="J" horiz-adv-x="1202" 
d="M838 1434h182v-977q0 -223 -136 -350t-354 -127q-199 0 -327.5 96t-128.5 243q0 47 31.5 78t80.5 31q47 0 77 -30.5t30 -78.5q0 -45 -30 -75.5t-77 -30.5q-31 0 -59 14q35 -102 137.5 -162.5t239.5 -60.5q160 0 247 103.5t87 281.5v1045z" />
    <glyph glyph-name="K" unicode="K" horiz-adv-x="1398" 
d="M1163 0l-573 766l-211 -188v-578h-182v1434h182v-820l909 820h43l-614 -553l659 -881h-213z" />
    <glyph glyph-name="L" unicode="L" horiz-adv-x="1226" 
d="M379 20h776v-20h-958v1434h182v-1414z" />
    <glyph glyph-name="M" unicode="M" horiz-adv-x="1832" 
d="M1454 1434h182v-1434h-182v1376l-608 -1003h-12l-609 1003v-1376h-28v1434h198l531 -873z" />
    <glyph glyph-name="N" unicode="N" horiz-adv-x="1570" 
d="M1348 1434h28v-1434h-69l-1082 1294v-1294h-28v1434h141l1010 -1213v1213z" />
    <glyph glyph-name="O" unicode="O" horiz-adv-x="1697" 
d="M848 -20q-319 0 -532.5 210.5t-213.5 526t213 526.5t533 211q322 0 534.5 -211t212.5 -526.5t-212.5 -526t-534.5 -210.5zM848 0q252 0 404.5 196.5t152.5 520t-152.5 520.5t-404.5 197q-250 0 -402.5 -197t-152.5 -520.5t152.5 -520t402.5 -196.5z" />
    <glyph glyph-name="P" unicode="P" horiz-adv-x="1388" 
d="M801 1434q223 0 371.5 -127t148.5 -319.5t-148.5 -319.5t-371.5 -127h-422v-541h-182v1434h604zM762 561q168 0 268 117t100 309.5t-100 309t-268 116.5h-383v-852h383z" />
    <glyph glyph-name="Q" unicode="Q" horiz-adv-x="1710" 
d="M1602 -31q43 0 70.5 -28.5t27.5 -71.5q0 -150 -86 -241t-228 -91q-74 0 -155.5 40t-132.5 81t-140 121q-82 74 -128 111.5t-118.5 73.5t-136.5 36q-162 0 -213 -111q20 12 52 13q41 0 69.5 -29t28.5 -72t-28.5 -71.5t-69.5 -28.5q-45 0 -75 28.5t-30 71.5q0 96 74 157.5
t195 68.5q-215 78 -345.5 263t-130.5 427q0 315 213 526t533 211q322 0 534.5 -211t212.5 -526.5t-213 -526t-534 -210.5q-31 0 -47 2q72 -33 237 -142q86 -59 136.5 -90t125 -59.5t142.5 -28.5q92 0 153.5 37t79.5 100q-29 -31 -71 -30q-47 0 -76 27.5t-29 72.5t29 72.5
t74 27.5zM293 716.5q0 -323.5 151.5 -520t403.5 -196.5q254 0 405.5 196.5t151.5 520t-151.5 520.5t-405.5 197q-252 0 -403.5 -197t-151.5 -520.5z" />
    <glyph glyph-name="R" unicode="R" horiz-adv-x="1400" 
d="M1253 156q55 -102 131 -156h-208q-63 45 -107 119l-227 399q-51 84 -125 107h-338v-625h-182v1434h563q223 0 371.5 -117t148.5 -291q0 -160 -129 -271.5t-328 -127.5q174 -31 234 -138zM379 1413v-768h346q164 0 264.5 103.5t100.5 275.5q0 176 -100.5 282.5
t-264.5 106.5h-346z" />
    <glyph glyph-name="S" unicode="S" horiz-adv-x="1251" 
d="M692 795q117 -43 177.5 -72t138 -80t112.5 -116.5t35 -153.5q0 -178 -145.5 -285.5t-374.5 -107.5q-221 0 -372.5 95t-151.5 236q0 45 29.5 73t76.5 28q41 0 69.5 -28t28.5 -73t-28.5 -73.5t-69.5 -28.5q-23 0 -41 6q43 -94 163 -153.5t273 -59.5q172 0 285 82t113 207
q0 63 -30 114.5t-96.5 93.5t-124 68.5t-159.5 67.5q-82 33 -129 53.5t-118.5 62.5t-110.5 81.5t-69 101t-30 133.5q0 170 140.5 278.5t355.5 108.5q195 0 328 -89t133 -220q0 -43 -28 -72t-71 -29q-47 0 -76.5 28t-29.5 73t29.5 73.5t76.5 28.5q20 0 35 -6
q-41 86 -143 138.5t-238 52.5q-158 0 -264 -84t-106 -207q0 -53 24.5 -99.5t58 -79t95 -65.5t107.5 -53t122 -49z" />
    <glyph glyph-name="T" unicode="T" horiz-adv-x="1259" 
d="M1204 1434v-21h-481v-1413h-182v1413h-486v21h1149z" />
    <glyph glyph-name="U" unicode="U" horiz-adv-x="1558" 
d="M807 -20q-276 0 -450.5 161.5t-174.5 425.5v867h183v-899q0 -231 134 -370.5t353 -139.5q227 0 361.5 138t134.5 372v899h28v-902q0 -252 -152.5 -402t-416.5 -150z" />
    <glyph glyph-name="V" unicode="V" horiz-adv-x="1458" 
d="M1368 1434h29l-629 -1434h-80l-627 1434h191l559 -1278z" />
    <glyph glyph-name="W" unicode="W" horiz-adv-x="2277" 
d="M2187 1434h29l-629 -1434h-80l-368 844l-371 -844h-80l-627 1434h191l557 -1278l315 721l-243 557h190l559 -1278z" />
    <glyph glyph-name="X" unicode="X" horiz-adv-x="1370" 
d="M1276 0h-199l-450 659l-463 -659h-35l481 682l-516 752h199l444 -650l459 650h35l-477 -672z" />
    <glyph glyph-name="Y" unicode="Y" horiz-adv-x="1390" 
d="M1298 1434h31l-543 -820v-614h-182v614l-543 820h203l518 -783z" />
    <glyph glyph-name="Z" unicode="Z" horiz-adv-x="1300" 
d="M1202 1434v-33l-913 -1381h911v-20h-1102v33l914 1380h-885v21h1075z" />
    <glyph glyph-name="bracketleft" unicode="[" horiz-adv-x="641" 
d="M578 1454h-230v-1679h230v-21h-392v1721h392v-21z" />
    <glyph glyph-name="backslash" unicode="\" horiz-adv-x="884" 
d="M786 -266l-677 1761h32l678 -1761h-33z" />
    <glyph glyph-name="bracketright" unicode="]" horiz-adv-x="641" 
d="M455 1475v-1721h-392v21h230v1679h-230v21h392z" />
    <glyph glyph-name="asciicircum" unicode="^" horiz-adv-x="1013" 
d="M918 819h-33l-377 580l-377 -580h-33l398 615h24z" />
    <glyph glyph-name="underscore" unicode="_" horiz-adv-x="968" 
d="M96 -193v29h776v-29h-776z" />
    <glyph glyph-name="grave" unicode="`" horiz-adv-x="376" 
d="M352 1200l-352 250h248l129 -250h-25z" />
    <glyph glyph-name="a" unicode="a" horiz-adv-x="1185" 
d="M578 1044q201 0 328.5 -102t127.5 -258v-684h-182v152q-63 -78 -170 -125t-217 -47q-152 0 -257.5 82.5t-105.5 205.5q0 129 122 213t313 84q211 0 315 -67v241q0 125 -86 203t-227 78q-88 0 -165 -33t-118 -86q8 2 25 2q43 0 72.5 -29.5t29.5 -74.5t-29.5 -75t-72.5 -30
q-47 0 -79 30t-32 75q0 104 120 174.5t288 70.5zM539 33q92 0 176 42t137 113v283q-88 63 -260 64q-143 0 -221 -67t-78 -185q0 -111 67.5 -180.5t178.5 -69.5z" />
    <glyph glyph-name="b" unicode="b" horiz-adv-x="1298" 
d="M709 1044q203 0 346 -153.5t143 -378.5t-142.5 -378.5t-346.5 -153.5q-217 0 -351 163v-143h-182v1450l182 45v-633q57 84 151 133t200 49zM664 18q156 0 250 134.5t94 359.5q0 223 -94.5 358.5t-247.5 135.5q-193 0 -308 -187v-629q113 -172 306 -172z" />
    <glyph glyph-name="c" unicode="c" horiz-adv-x="1136" 
d="M1012 174l24 -12q-41 -80 -146.5 -131t-242.5 -51q-238 0 -392.5 153.5t-154.5 378.5q0 227 156 379.5t389 152.5q162 0 271.5 -73.5t109.5 -186.5q0 -45 -28.5 -74.5t-73.5 -29.5q-47 0 -78 29.5t-31 74.5t31 75t78 30q23 0 37 -8q-72 137 -283 137
q-178 0 -282.5 -137.5t-104.5 -368.5t106.5 -368.5t284.5 -137.5q109 0 200 46t130 122z" />
    <glyph glyph-name="d" unicode="d" horiz-adv-x="1298" 
d="M940 1450l182 45v-1495h-182v145q-61 -76 -153.5 -120.5t-196.5 -44.5q-205 0 -347.5 153.5t-142.5 378.5t143.5 378.5t344.5 153.5q109 0 202 -49t150 -133v588zM635 18q193 0 305 175v626q-115 186 -307 187q-154 0 -248 -135.5t-94 -358.5q0 -225 94 -359.5
t250 -134.5z" />
    <glyph glyph-name="e" unicode="e" 
d="M991 354q43 0 73 -29.5t30 -74.5q0 -115 -126 -192.5t-304 -77.5q-246 0 -405 152.5t-159 379.5t154 379.5t375 152.5q213 0 349 -139t136 -348h-823v-27q0 -246 108.5 -384t298.5 -138q109 0 196 38t126 104q-16 -4 -31 -5q-45 0 -75.5 30t-30.5 75t30.5 74.5t77.5 29.5
zM629 1024q-143 0 -234.5 -123t-101.5 -323h639q-4 205 -85 325.5t-218 120.5z" />
    <glyph glyph-name="f" unicode="f" horiz-adv-x="702" 
d="M551 1495q113 0 188.5 -51t75.5 -127q0 -43 -28.5 -71.5t-71.5 -28.5q-45 0 -76 28.5t-31 71.5q0 45 30 73.5t77 28.5q10 0 22 -4q-57 53 -143 53q-90 0 -146.5 -62.5t-56.5 -156.5v-225h238v-20h-238v-1004h-182v1004h-131v20h131v158q0 133 97.5 223t244.5 90z" />
    <glyph glyph-name="g" unicode="g" horiz-adv-x="1290" 
d="M940 989l182 45v-1104q0 -172 -140 -286.5t-357 -114.5q-180 0 -304 76t-124 186q0 45 30.5 74t77.5 29q43 0 72 -29t29 -74t-29 -73.5t-72 -28.5q-23 0 -37 6q41 -66 128 -103.5t194 -37.5q154 0 252 91t98 230v270q-61 -76 -153.5 -120.5t-196.5 -44.5
q-205 0 -347.5 153.5t-142.5 378.5t143.5 378.5t344.5 153.5q109 0 202 -49t150 -133v127zM635 18q193 0 305 175v626q-115 186 -307 187q-154 0 -248 -135.5t-94 -358.5q0 -225 94 -359.5t250 -134.5z" />
    <glyph glyph-name="h" unicode="h" horiz-adv-x="1265" 
d="M748 1044q160 0 263 -99t103 -249v-696h-182v743q0 109 -67.5 181.5t-172.5 72.5q-102 0 -195.5 -61.5t-138.5 -161.5v-774h-182v1450l182 45v-666q55 96 160 155.5t230 59.5z" />
    <glyph glyph-name="i" unicode="i" horiz-adv-x="534" 
d="M270 1214q-51 0 -83.5 33t-32.5 80q0 49 32.5 81t83.5 32q47 0 79 -32t32 -81q0 -47 -32 -80t-79 -33zM176 0v989l182 45v-1034h-182z" />
    <glyph glyph-name="j" unicode="j" horiz-adv-x="542" 
d="M281 1214q-51 0 -84 33t-33 80q0 49 32.5 81t84.5 32q47 0 77.5 -32t30.5 -81q0 -47 -31.5 -80t-76.5 -33zM186 -229v1218l183 45v-1196q0 -133 -97.5 -221t-240.5 -88q-109 0 -181.5 51t-72.5 127q0 43 28.5 71.5t71.5 28.5q45 0 76 -28.5t31 -71.5q0 -45 -30 -73.5
t-77 -28.5q-14 0 -20 2q51 -51 135 -51q88 0 141 60.5t53 154.5z" />
    <glyph glyph-name="k" unicode="k" horiz-adv-x="1064" 
d="M856 0l-410 547l-88 -78v-469h-182v1450l182 45v-991l586 520h43l-412 -365l492 -659h-211z" />
    <glyph glyph-name="l" unicode="l" horiz-adv-x="532" 
d="M176 0v1450l182 45v-1495h-182z" />
    <glyph glyph-name="m" unicode="m" horiz-adv-x="1918" 
d="M1419 1044q150 0 249 -99t99 -249v-696h-182v754q0 102 -63.5 172.5t-157.5 70.5t-180 -65.5t-127 -169.5q6 -31 6 -66v-696h-182v754q0 102 -63.5 172.5t-158.5 70.5q-92 0 -174 -59t-127 -154v-784h-182v989l182 45v-200q51 94 147.5 152t209.5 58q121 0 211 -66.5
t123 -174.5q45 106 147 173.5t223 67.5z" />
    <glyph glyph-name="n" unicode="n" horiz-adv-x="1265" 
d="M748 1044q160 0 263 -99t103 -249v-696h-182v743q0 109 -67.5 181.5t-172.5 72.5q-102 0 -195.5 -61.5t-138.5 -161.5v-774h-182v989l182 45v-205q55 96 160 155.5t230 59.5z" />
    <glyph glyph-name="o" unicode="o" horiz-adv-x="1280" 
d="M639 -20q-229 0 -384 152.5t-155 379.5t155 379.5t384 152.5q231 0 386 -152.5t155 -379.5t-155 -379.5t-386 -152.5zM639 0q160 0 255 138t95 374t-95 374t-255 138q-158 0 -253 -139.5t-95 -372.5t95 -372.5t253 -139.5z" />
    <glyph glyph-name="p" unicode="p" horiz-adv-x="1298" 
d="M709 1044q203 0 346 -153.5t143 -378.5t-142.5 -378.5t-346.5 -153.5q-217 0 -351 163v-594h-182v1440l182 45v-172q57 84 151 133t200 49zM664 18q156 0 250 134.5t94 359.5q0 223 -94.5 358.5t-247.5 135.5q-193 0 -308 -187v-629q113 -172 306 -172z" />
    <glyph glyph-name="q" unicode="q" horiz-adv-x="1298" 
d="M940 989l182 45v-1485h-182v596q-61 -76 -153.5 -120.5t-196.5 -44.5q-205 0 -347.5 153.5t-142.5 378.5t143.5 378.5t344.5 153.5q109 0 202 -49t150 -133v127zM635 18q193 0 305 175v626q-115 186 -307 187q-154 0 -248 -135.5t-94 -358.5q0 -225 94 -359.5t250 -134.5
z" />
    <glyph glyph-name="r" unicode="r" horiz-adv-x="948" 
d="M897 854q0 -45 -29.5 -74.5t-72.5 -29.5q-47 0 -78 29.5t-31 74.5t31 74.5t78 29.5q12 0 16 -2q-53 63 -151.5 63.5t-179.5 -66t-122 -177.5v-776h-182v989l182 45v-203q43 96 124 154.5t181.5 58.5t167 -54t66.5 -136z" />
    <glyph glyph-name="s" unicode="s" horiz-adv-x="980" 
d="M549 596q82 -35 124 -55.5t103.5 -61.5t89 -93t27.5 -118q0 -129 -105.5 -208.5t-285.5 -79.5q-168 0 -285 64.5t-117 160.5q0 43 29 70.5t74 27.5q41 0 67.5 -27.5t26.5 -70.5t-26.5 -71t-67.5 -28q-12 0 -19 3q94 -106 301 -107q123 0 198 53.5t75 137.5q0 78 -70 128
t-217 111q-66 29 -95.5 42t-89 47t-87 63.5t-52 77t-24.5 100.5q0 127 107.5 204.5t277.5 77.5q145 0 245.5 -56t106.5 -140v-6q0 -43 -27.5 -71t-68.5 -28q-45 0 -73.5 28t-28.5 71t28.5 70.5t73.5 27.5h10q-86 82 -252 82q-115 0 -189.5 -53.5t-74.5 -134.5
q0 -80 72 -130.5t219 -107.5z" />
    <glyph glyph-name="t" unicode="t" horiz-adv-x="774" 
d="M723 131l22 -12q-20 -59 -91.5 -99t-159.5 -40q-125 0 -210 73.5t-85 184.5v766h-131v20h131v231l182 50v-281h311v-20h-311v-809q0 -76 49 -128.5t121 -52.5q53 0 104.5 34t67.5 83z" />
    <glyph glyph-name="u" unicode="u" horiz-adv-x="1259" 
d="M901 989l182 45v-1034h-182v195q-55 -96 -157.5 -155.5t-223.5 -59.5q-156 0 -259 99t-103 249v661l182 45v-755q0 -109 65.5 -180.5t169.5 -71.5q96 0 188.5 61.5t137.5 159.5v741z" />
    <glyph glyph-name="v" unicode="v" horiz-adv-x="1038" 
d="M983 1024h29l-449 -1024h-80l-448 1024h188l381 -870z" />
    <glyph glyph-name="w" unicode="w" horiz-adv-x="1658" 
d="M1604 1024h28l-448 -1024h-82l-268 614l-271 -614h-80l-448 1024h188l379 -870l217 493l-166 377h191l381 -870z" />
    <glyph glyph-name="x" unicode="x" horiz-adv-x="991" 
d="M946 0h-198l-312 457l-321 -457h-35l340 481l-373 543h201l305 -446l313 446h35l-332 -471z" />
    <glyph glyph-name="y" unicode="y" horiz-adv-x="1044" 
d="M989 1024h29l-600 -1368q-55 -127 -193 -127q-68 0 -118 43t-50 100q0 45 31 75t78 30q45 0 73.5 -30t28.5 -75t-28.5 -74.5t-73.5 -29.5h-14q35 -23 73 -23q51 0 98.5 29t73.5 86l121 281l-475 1083h190l377 -870z" />
    <glyph glyph-name="z" unicode="z" horiz-adv-x="999" 
d="M911 1024v-33l-628 -971h624v-20h-815v33l629 971h-598v20h788z" />
    <glyph glyph-name="braceleft" unicode="{" horiz-adv-x="684" 
d="M584 1475q-106 4 -166 -50.5t-60 -162.5q0 -76 50.5 -216.5t50.5 -211.5q0 -168 -205 -220q205 -51 205 -219q0 -72 -50.5 -212t-50.5 -214q0 -111 60.5 -165t165.5 -50v-20q-168 -6 -276.5 60.5t-108.5 197.5q0 70 50 212t50 216q0 86 -38 135t-101 49h-51v21h51
q63 0 101 49t38 135q0 74 -50 216t-50 212q0 131 108.5 197.5t276.5 60.5v-20z" />
    <glyph glyph-name="bar" unicode="|" horiz-adv-x="460" 
d="M217 -266v1761h29v-1761h-29z" />
    <glyph glyph-name="braceright" unicode="}" horiz-adv-x="684" 
d="M524 625h51v-21h-51q-66 0 -102.5 -49t-36.5 -135q0 -74 50 -216.5t50 -211.5q0 -131 -108.5 -197.5t-276.5 -60.5v20q104 -4 165 50.5t61 164.5q0 74 -50.5 214.5t-50.5 211.5q0 168 205 219q-205 51 -205 220q0 72 50.5 212t50.5 216q0 109 -59.5 163t-166.5 50v20
q168 6 276.5 -60.5t108.5 -197.5q0 -70 -50 -212t-50 -216q0 -86 36.5 -135t102.5 -49z" />
    <glyph glyph-name="asciitilde" unicode="~" horiz-adv-x="1193" 
d="M815 449q-72 0 -159 50t-171 99t-147 49q-74 0 -119 -47t-45 -127h-20q0 139 61 223t164 84q72 0 159 -50t171 -99t147 -49q74 0 119 47t45 127h20q0 -139 -61.5 -223t-163.5 -84z" />
    <glyph glyph-name="exclamdown" unicode="&#xa1;" horiz-adv-x="491" 
d="M248 780q-55 0 -92 38t-37 91.5t37 89t92 35.5q53 0 89 -35.5t36 -89t-36 -91.5t-89 -38zM246 -420q-49 0 -82 35t-33 86q0 29 24.5 149.5t51 318.5t31.5 406h16q4 -209 31.5 -406.5t52 -318t24.5 -149.5q0 -53 -32.5 -87t-83.5 -34z" />
    <glyph glyph-name="cent" unicode="&#xa2;" horiz-adv-x="1169" 
d="M1020 176l22 -14q-41 -80 -141 -131t-231 -51q-49 0 -101 10l-28 -174h-27l29 178q-176 41 -288 185.5t-112 332.5q0 227 151.5 379.5t375.5 152.5q27 0 41 -2l26 166h27l-27 -168q129 -16 212 -85.5t83 -170.5q0 -41 -26.5 -68.5t-67.5 -27.5q-45 0 -73.5 27.5
t-28.5 68.5q0 43 28.5 71t73.5 28q16 0 33 -6q-27 59 -90.5 96t-147.5 43l-158 -985q61 -23 127 -23q102 0 189.5 46t128.5 122zM330 512q0 -172 58 -294t163 -175l156 973h-2q-172 0 -273.5 -136.5t-101.5 -367.5z" />
    <glyph glyph-name="sterling" unicode="&#xa3;" horiz-adv-x="1153" 
d="M266 119h785v-119h-904v55q96 63 158 179t62 231q0 84 -48 221h-190v21h184l-24 65q-82 225 -82 324q0 158 122 258t306 100q168 0 278.5 -84t110.5 -211q0 -45 -30.5 -74.5t-78.5 -29.5q-45 0 -73.5 29.5t-28.5 74.5t28.5 75t73.5 30q27 0 52 -11q-29 78 -105 124
t-180 46q-131 0 -212 -75.5t-81 -198.5q0 -129 74 -334q29 -84 35 -108h370v-21h-364q27 -92 26 -170q0 -117 -69.5 -221t-194.5 -176z" />
    <glyph glyph-name="currency" unicode="&#xa4;" horiz-adv-x="1140" 
d="M967 635q0 -154 -99 -262l125 -125l-22 -23l-125 125q-111 -100 -271 -100q-162 0 -276 102l-127 -127l-22 23l126 127q-102 106 -102 258q0 154 102 266l-126 127l22 23l129 -129q111 104 274 104q162 0 271 -102l125 127l22 -23l-127 -127q101 -106 101 -264zM575 315
q141 0 224.5 86t83.5 232q0 147 -84 236t-224 89q-141 0 -229 -90t-88 -235q0 -143 87 -230.5t230 -87.5z" />
    <glyph glyph-name="yen" unicode="&#xa5;" horiz-adv-x="1296" 
d="M1210 1434l-462 -809h276v-21h-283v-229h283v-21h-283v-354h-182v354h-283v21h283v229h-283v21h277l-463 809h199l444 -783l447 783h30z" />
    <glyph glyph-name="brokenbar" unicode="&#xa6;" horiz-adv-x="460" 
d="M217 717v778h29v-778h-29zM217 -266v778h29v-778h-29z" />
    <glyph glyph-name="section" unicode="&#xa7;" horiz-adv-x="1091" 
d="M637 293q63 -31 104 -55.5t86 -63.5t66.5 -89t21.5 -112q0 -135 -101 -218t-265 -83q-150 0 -260.5 67.5t-110.5 166.5q0 43 29 70.5t72 27.5t70.5 -27.5t27.5 -70.5t-27.5 -71t-68.5 -28q-18 0 -27 3q39 -51 114.5 -83t159.5 -32q115 0 185.5 63.5t70.5 161.5
q0 47 -21.5 85t-66.5 71t-84 53.5t-106 50.5q-72 33 -117 59.5t-98 70.5t-80 100.5t-27 124.5q0 117 77 194.5t206 106.5q-131 63 -204 133.5t-73 183.5q0 133 101.5 217t257.5 84q133 0 227 -61.5t94 -149.5q0 -43 -27.5 -70.5t-68.5 -27.5q-45 0 -74.5 27.5t-29.5 70.5
t29.5 70.5t74.5 27.5q12 0 19 -2q-72 92 -224 93q-109 0 -179.5 -63.5t-70.5 -160.5q0 -49 21.5 -88t70 -72.5t83 -52t102.5 -49.5q74 -35 120 -60.5t97 -68.5t76.5 -99t25.5 -126q0 -117 -73.5 -192.5t-204.5 -106.5zM313 594q0 -94 71 -154.5t214 -128.5h2q86 23 135 82.5
t49 143.5q0 51 -21.5 93t-67.5 77.5t-83 56t-106 53.5q-2 0 -2 2q-88 -23 -139.5 -82t-51.5 -143z" />
    <glyph glyph-name="dieresis" unicode="&#xa8;" horiz-adv-x="598" 
d="M104.5 1194q-45.5 0 -75 27.5t-29.5 70.5q0 45 30.5 75t75.5 30q43 0 72 -30t29 -73q0 -45 -28.5 -72.5t-74 -27.5zM496 1194q-45 0 -75 27.5t-30 72.5q0 43 31 73t76 30q43 0 71.5 -30t28.5 -73q0 -45 -28.5 -72.5t-73.5 -27.5z" />
    <glyph glyph-name="copyright" unicode="&#xa9;" horiz-adv-x="1730" 
d="M868 1454q315 0 525.5 -210t210.5 -525q0 -317 -210 -528t-525.5 -211t-527.5 210.5t-212 528.5q0 315 211 525t528 210zM868 2q301 0 503 205t202 512q0 305 -202 509t-503 204q-303 0 -505.5 -204t-202.5 -509q0 -307 202.5 -512t505.5 -205zM936 350q82 0 148.5 34
t97.5 89l20 -12q-29 -61 -109.5 -100t-183.5 -39q-182 0 -299.5 116.5t-117.5 286.5q0 172 118.5 287.5t294.5 115.5q123 0 208 -57t85 -139q0 -35 -21.5 -57.5t-56.5 -22.5q-37 0 -59.5 22.5t-22.5 57.5q0 33 22.5 55.5t59.5 22.5q14 0 21 -2q-53 90 -199 90
q-139 0 -221 -101.5t-82 -271.5t81 -272.5t216 -102.5z" />
    <glyph glyph-name="ordfeminine" unicode="&#xaa;" horiz-adv-x="753" 
d="M383 1454q119 0 195.5 -61.5t76.5 -153.5v-408h-123v76q-88 -88 -221 -88q-90 0 -151.5 49.5t-61.5 118.5q0 78 74 128t188 50q98 0 172 -32v135q0 76 -45 120t-127 44q-96 0 -145 -56q29 0 47.5 -19.5t18.5 -50t-19.5 -50t-48.5 -19.5q-33 0 -52.5 19.5t-19.5 50.5
q0 63 70 105t172 42zM367 862q102 0 165 76v170q-51 31 -133 31q-80 0 -125 -38t-45 -101.5t38.5 -100.5t99.5 -37z" />
    <glyph glyph-name="guillemotleft" unicode="&#xab;" horiz-adv-x="974" 
d="M229 549q76 -68 146.5 -165t103.5 -187l-14 -13q-59 90 -179 192.5t-239 162.5v20q121 59 241 161.5t177 194.5l14 -14q-33 -88 -103.5 -186t-146.5 -166zM643 549q76 -68 146.5 -165t103.5 -187l-14 -13q-59 90 -179 192.5t-239 162.5v20q121 59 240.5 161.5
t177.5 194.5l14 -14q-33 -88 -103.5 -186t-146.5 -166z" />
    <glyph glyph-name="registered" unicode="&#xae;" horiz-adv-x="882" 
d="M442.5 1454q147.5 0 245.5 -98.5t98 -243.5q0 -147 -98 -246.5t-245.5 -99.5t-246 99.5t-98.5 246.5q0 145 98.5 243.5t246 98.5zM442.5 784q135.5 0 226.5 93.5t91 234.5q0 139 -91 231.5t-226.5 92.5t-226.5 -92.5t-91 -231.5q0 -141 91 -234.5t226.5 -93.5zM602 1196
q0 -35 -24.5 -61.5t-65.5 -36.5l111 -152h-91l-104 148h-39v-148h-78v350h166q53 0 89 -28.5t36 -71.5zM389 1280v-170h60q33 0 51 22.5t18 61.5t-18.5 62.5t-50.5 23.5h-60z" />
    <glyph glyph-name="macron" unicode="&#xaf;" horiz-adv-x="493" 
d="M0 1257v86h494v-86h-494z" />
    <glyph glyph-name="degree" unicode="&#xb0;" horiz-adv-x="665" 
d="M333.5 985q-100.5 0 -168 66.5t-67.5 169.5q0 100 67.5 166.5t168 66.5t168 -66.5t67.5 -166.5q0 -102 -67.5 -169t-168 -67zM334 1004q90 0 150.5 61t60.5 156q0 92 -60.5 153.5t-150.5 61.5t-150.5 -61.5t-60.5 -153.5q0 -94 60.5 -155.5t150.5 -61.5z" />
    <glyph glyph-name="plusminus" unicode="&#xb1;" horiz-adv-x="1126" 
d="M575 625h398v-21h-398v-399h-24v399h-397v21h397v399h24v-399zM154 0v20h819v-20h-819z" />
    <glyph glyph-name="uni00B2" unicode="&#xb2;" horiz-adv-x="940" 
d="M285 877h465v-99h-553v33l221 262q86 100 129 178t43 168q0 92 -46 147.5t-130 55.5q-129 0 -174 -113q14 6 34 7q33 0 55.5 -21.5t22.5 -58.5q0 -33 -22.5 -56.5t-55.5 -23.5q-37 0 -60.5 22.5t-23.5 57.5q0 90 78 152.5t197 62.5q121 0 202 -65.5t81 -162.5
q0 -88 -66 -168.5t-199 -199.5z" />
    <glyph glyph-name="uni00B3" unicode="&#xb3;" horiz-adv-x="966" 
d="M543 1225q106 -20 169.5 -83t63.5 -147q0 -100 -85 -164.5t-220 -64.5q-123 0 -202 53t-79 137q0 35 24 57.5t60 22.5q33 0 55.5 -23.5t22.5 -56.5q0 -37 -22.5 -58t-55.5 -21q-12 0 -28 4q49 -86 174 -86q96 0 150.5 58t54.5 157q0 92 -50.5 149.5t-132.5 57.5h-84v16
h84q72 0 116 52t44 136q0 92 -48 146.5t-134 54.5q-117 0 -164 -86q20 4 31 4q33 0 55.5 -21.5t22.5 -58.5q0 -33 -23 -56.5t-55 -23.5q-37 0 -60.5 22.5t-23.5 57.5q0 82 75.5 136.5t192.5 54.5q123 0 202 -59.5t79 -153.5q0 -76 -58.5 -134.5t-150.5 -78.5z" />
    <glyph glyph-name="acute" unicode="&#xb4;" horiz-adv-x="376" 
d="M25 1200h-25l127 250h250z" />
    <glyph glyph-name="paragraph" unicode="&#xb6;" horiz-adv-x="1308" 
d="M1130 1434v-21h-145v-1741h-29v1741h-217v-1741h-28v828h-64q-201 0 -335 133t-134 333.5t134 334t335 133.5h483z" />
    <glyph glyph-name="periodcentered" unicode="&#xb7;" horiz-adv-x="559" 
d="M280.5 430q-53.5 0 -90 36t-36.5 89t36.5 90t90 37t89.5 -37t36 -90t-36 -89t-89.5 -36z" />
    <glyph glyph-name="cedilla" unicode="&#xb8;" horiz-adv-x="382" 
d="M207 -113q76 0 126 -45t50 -114q0 -72 -60.5 -119t-150.5 -47q-111 0 -172 67l14 19q49 -59 129 -60q51 0 85 40t34 102q0 57 -28.5 94t-69.5 37q-45 0 -70 -43l-16 4l100 172h29l-76 -123q33 16 76 16z" />
    <glyph glyph-name="uni00B9" unicode="&#xb9;" horiz-adv-x="708" 
d="M422 1638h98v-860h-153v776q-66 -61 -168 -84l-9 17q61 16 128 59t104 92z" />
    <glyph glyph-name="ordmasculine" unicode="&#xba;" horiz-adv-x="866" 
d="M434.5 819q-143.5 0 -240 91t-96.5 226.5t96.5 226.5t240 91t239.5 -91t96 -226.5t-96 -226.5t-239.5 -91zM434 840q92 0 147.5 80.5t55.5 216t-55.5 216.5t-147.5 81q-94 0 -149.5 -81t-55.5 -216.5t55.5 -216t149.5 -80.5z" />
    <glyph glyph-name="guillemotright" unicode="&#xbb;" horiz-adv-x="974" 
d="M514 559v-20q-119 -59 -239.5 -161t-180.5 -194l-12 13q33 90 103.5 187t146.5 165q-76 68 -146.5 166t-103.5 186l12 14q59 -92 180 -194.5t240 -161.5zM508 915q59 -92 180 -194.5t240 -161.5v-20q-119 -59 -240 -161t-180 -194l-12 13q33 90 103.5 187t145.5 165
q-76 68 -146.5 166t-102.5 186z" />
    <glyph glyph-name="onequarter" unicode="&#xbc;" horiz-adv-x="1869" 
d="M520 573h-153v777q-66 -61 -168 -84l-9 16q61 16 128 59t104 93h98v-861zM1358 1434h35l-922 -1434h-35zM1677 260v-16h-127v-244h-151v244h-402v18l424 598h129v-600h127zM1024 260h375v533z" />
    <glyph glyph-name="onehalf" unicode="&#xbd;" horiz-adv-x="1951" 
d="M520 573h-153v777q-66 -61 -168 -84l-9 16q61 16 128 59t104 93h98v-861zM1358 1434h35l-922 -1434h-35zM1296 98h465v-98h-553v33l222 262q86 100 129 178t43 168q0 92 -46.5 147.5t-130.5 55.5q-129 0 -174 -113q14 6 35 6q33 0 55.5 -21.5t22.5 -58.5q0 -33 -22.5 -56
t-55.5 -23q-37 0 -60.5 22.5t-23.5 56.5q0 90 78 152.5t197 62.5q121 0 201.5 -65.5t80.5 -161.5q0 -88 -65.5 -169t-198.5 -200z" />
    <glyph glyph-name="threequarters" unicode="&#xbe;" horiz-adv-x="2017" 
d="M776 791q0 -100 -85 -165t-220 -65q-123 0 -202 53.5t-79 137.5q0 35 24 57t60 22q33 0 55.5 -23.5t22.5 -55.5q0 -37 -22.5 -58.5t-55.5 -21.5q-12 0 -28 4q49 -86 174 -86q96 0 150.5 58.5t54.5 156.5q0 92 -50.5 149.5t-132.5 57.5h-84v16h84q72 0 116 52.5t44 136.5
q0 92 -48 146t-134 54q-117 0 -164 -86q20 4 31 4q33 0 55.5 -21.5t22.5 -58.5q0 -33 -23 -56t-55 -23q-37 0 -60.5 22.5t-23.5 56.5q0 82 75.5 136.5t192.5 54.5q123 0 202 -59.5t79 -153.5q0 -76 -58.5 -134.5t-150.5 -78.5q106 -20 169.5 -82.5t63.5 -146.5zM1505 1434
h35l-922 -1434h-34zM1825 260v-16h-127v-244h-152v244h-401v18l424 598h129v-600h127zM1171 260h375v533z" />
    <glyph glyph-name="questiondown" unicode="&#xbf;" horiz-adv-x="946" 
d="M477 780q-53 0 -89 38t-36 91.5t36 89t89 35.5t91 -35.5t38 -89t-38 -91.5t-91 -38zM889 -129q0 -131 -117 -216t-295 -85t-293.5 90t-115.5 229q0 76 41 145.5t99 123t116.5 104.5t99.5 109.5t41 117.5v86h29v-96q0 -63 -38 -136t-84 -131t-84 -144t-38 -174
q0 -127 80 -211t200 -84q109 0 189 48t110 130q-20 -14 -53 -15q-47 0 -76.5 31t-29.5 78t29.5 78t76.5 31q49 0 81 -31t32 -78z" />
    <glyph glyph-name="Agrave" unicode="&#xc0;" horiz-adv-x="1458" 
d="M809 1589h-25l-352 250h248zM1206 0l-188 434h-739l-189 -434h-29l629 1434h80l627 -1434h-191zM289 455h719l-359 825z" />
    <glyph glyph-name="Aacute" unicode="&#xc1;" horiz-adv-x="1458" 
d="M1030 1839l-352 -250h-25l127 250h250zM1206 0l-188 434h-739l-189 -434h-29l629 1434h80l627 -1434h-191zM289 455h719l-359 825z" />
    <glyph glyph-name="Acircumflex" unicode="&#xc2;" horiz-adv-x="1458" 
d="M731 1722l-272 -137l-8 12l258 258h45l258 -258l-8 -12zM1206 0l-188 434h-739l-189 -434h-29l629 1434h80l627 -1434h-191zM289 455h719l-359 825z" />
    <glyph glyph-name="Atilde" unicode="&#xc3;" horiz-adv-x="1458" 
d="M561 1731q-43 0 -77.5 -34t-39.5 -89h-22q0 102 52 167.5t134 65.5q70 0 166 -80q63 -53 123 -53q45 0 80 34t39 89h22q0 -102 -53 -168t-135 -66q-74 0 -168 84q-60 50 -121 50zM1206 0l-188 434h-739l-189 -434h-29l629 1434h80l627 -1434h-191zM289 455h719l-359 825z
" />
    <glyph glyph-name="Adieresis" unicode="&#xc4;" horiz-adv-x="1458" 
d="M534.5 1583q-45.5 0 -75 27.5t-29.5 70.5q0 45 31 75t76 30q43 0 71.5 -30t28.5 -73q0 -45 -28.5 -72.5t-74 -27.5zM926 1583q-45 0 -75 27.5t-30 72.5q0 43 31 73t76 30q43 0 71.5 -30t28.5 -73q0 -45 -28.5 -72.5t-73.5 -27.5zM1206 0l-188 434h-739l-189 -434h-29
l629 1434h80l627 -1434h-191zM289 455h719l-359 825z" />
    <glyph glyph-name="Aring" unicode="&#xc5;" horiz-adv-x="1458" 
d="M733 1554q-72 0 -119 45.5t-47 112.5q0 70 47.5 116t118.5 46q70 0 115 -46t45 -116q0 -68 -45 -113t-115 -45zM733 1855q-63 0 -102 -39.5t-39 -103t39 -101.5t102 -38q59 0 97 38t38 101.5t-38 103t-97 39.5zM1206 0l-188 434h-739l-189 -434h-29l629 1434h80
l627 -1434h-191zM289 455h719l-359 825z" />
    <glyph glyph-name="AE" unicode="&#xc6;" horiz-adv-x="1871" 
d="M1028 20h762v-20h-944v451h-561l-262 -451h-33l833 1434h946v-21h-741v-676h578v-20h-578v-697zM295 471h551v948z" />
    <glyph glyph-name="Ccedilla" unicode="&#xc7;" horiz-adv-x="1527" 
d="M1430 262q-66 -123 -219.5 -201.5t-344.5 -80.5l-67 -109q33 16 75 16q76 0 126.5 -45t50.5 -114q0 -72 -60.5 -119t-150.5 -47q-111 0 -172 67l14 19q49 -59 129 -60q51 0 85 40t34 102q0 57 -29 94t-70 37q-45 0 -69 -43l-17 4l93 158q-315 8 -525.5 217t-210.5 520
q0 313 215 525t541 212q233 0 394 -108.5t161 -258.5v-2q0 -45 -29.5 -75.5t-76.5 -30.5t-79 30.5t-32 78t32 78t79 30.5q25 0 43 -8q-43 106 -165 171.5t-290 65.5q-274 0 -438 -192.5t-164 -513.5q0 -324 165 -516.5t437 -192.5q172 0 305 71t205 193z" />
    <glyph glyph-name="Egrave" unicode="&#xc8;" horiz-adv-x="1288" 
d="M803 1589h-25l-352 250h248zM379 20h827v-20h-1009v1434h989v-21h-807v-676h643v-20h-643v-697z" />
    <glyph glyph-name="Eacute" unicode="&#xc9;" horiz-adv-x="1288" 
d="M1024 1839l-352 -250h-25l127 250h250zM379 20h827v-20h-1009v1434h989v-21h-807v-676h643v-20h-643v-697z" />
    <glyph glyph-name="Ecircumflex" unicode="&#xca;" horiz-adv-x="1288" 
d="M725 1722l-272 -137l-9 12l258 258h46l258 -258l-9 -12zM379 20h827v-20h-1009v1434h989v-21h-807v-676h643v-20h-643v-697z" />
    <glyph glyph-name="Edieresis" unicode="&#xcb;" horiz-adv-x="1288" 
d="M528 1583q-45 0 -74.5 27.5t-29.5 70.5q0 45 30.5 75t75.5 30q43 0 72 -30t29 -73q0 -45 -29 -72.5t-74 -27.5zM919.5 1583q-45.5 0 -75 27.5t-29.5 72.5q0 43 31 73t76 30q43 0 71.5 -30t28.5 -73q0 -45 -28.5 -72.5t-74 -27.5zM379 20h827v-20h-1009v1434h989v-21h-807
v-676h643v-20h-643v-697z" />
    <glyph glyph-name="Igrave" unicode="&#xcc;" horiz-adv-x="573" 
d="M342 1589l-352 250h248l129 -250h-25zM197 0v1434h182v-1434h-182z" />
    <glyph glyph-name="Iacute" unicode="&#xcd;" horiz-adv-x="573" 
d="M233 1589h-24l127 250h250zM197 0v1434h182v-1434h-182z" />
    <glyph glyph-name="Icircumflex" unicode="&#xce;" horiz-adv-x="573" 
d="M309 1855l258 -258l-8 -12l-272 137l-273 -137l-8 12l258 258h45zM197 0v1434h182v-1434h-182z" />
    <glyph glyph-name="Idieresis" unicode="&#xcf;" horiz-adv-x="573" 
d="M92 1583q-45 0 -74.5 27.5t-29.5 70.5q0 45 30.5 75t75.5 30q43 0 72 -30t29 -73q0 -45 -29 -72.5t-74 -27.5zM483 1583q-45 0 -74.5 27.5t-29.5 72.5q0 43 30.5 73t75.5 30q43 0 72 -30t29 -73q0 -45 -29 -72.5t-74 -27.5zM197 0v1434h182v-1434h-182z" />
    <glyph glyph-name="Eth" unicode="&#xd0;" horiz-adv-x="1597" 
d="M729 1434q328 0 547 -206t219 -511t-219 -511t-547 -206h-532v707h-140v20h140v707h532zM702 20q272 0 437.5 190.5t165.5 506t-165 506t-438 190.5h-323v-686h239v-20h-239v-687h323z" />
    <glyph glyph-name="Ntilde" unicode="&#xd1;" horiz-adv-x="1570" 
d="M641 1731q-43 0 -78 -34t-39 -89h-22q0 102 52 167.5t134 65.5q70 0 166 -80q63 -53 123 -53q45 0 80 34t39 89h22q0 -102 -53 -168t-135 -66q-74 0 -168 84q-60 50 -121 50zM1348 1434h28v-1434h-69l-1082 1294v-1294h-28v1434h141l1010 -1213v1213z" />
    <glyph glyph-name="Ograve" unicode="&#xd2;" horiz-adv-x="1697" 
d="M903 1589l-352 250h248l129 -250h-25zM848 -20q-319 0 -532.5 210.5t-213.5 526t213 526.5t533 211q322 0 534.5 -211t212.5 -526.5t-212.5 -526t-534.5 -210.5zM848 0q252 0 404.5 196.5t152.5 520t-152.5 520.5t-404.5 197q-250 0 -402.5 -197t-152.5 -520.5
t152.5 -520t402.5 -196.5z" />
    <glyph glyph-name="Oacute" unicode="&#xd3;" horiz-adv-x="1697" 
d="M797 1589h-25l127 250h250zM848 -20q-319 0 -532.5 210.5t-213.5 526t213 526.5t533 211q322 0 534.5 -211t212.5 -526.5t-212.5 -526t-534.5 -210.5zM848 0q252 0 404.5 196.5t152.5 520t-152.5 520.5t-404.5 197q-250 0 -402.5 -197t-152.5 -520.5t152.5 -520
t402.5 -196.5z" />
    <glyph glyph-name="Ocircumflex" unicode="&#xd4;" horiz-adv-x="1697" 
d="M850 1722l-272 -137l-9 12l258 258h45l258 -258l-8 -12zM848 1454q322 0 534.5 -211t212.5 -526.5t-213 -526t-534 -210.5q-319 0 -532.5 210.5t-213.5 526t213.5 526.5t532.5 211zM848 0q252 0 404.5 196.5t152.5 520t-152.5 520.5t-404.5 197q-250 0 -402.5 -197
t-152.5 -520.5t152.5 -520t402.5 -196.5z" />
    <glyph glyph-name="Otilde" unicode="&#xd5;" horiz-adv-x="1697" 
d="M969 1597q-74 0 -168 84q-59 49 -121 50q-43 0 -78 -34t-39 -89h-22q0 102 52 167.5t134 65.5q70 0 166 -80q63 -53 123 -53q45 0 79.5 34t39.5 89h22q0 -102 -53 -168t-135 -66zM848 -20q-319 0 -532.5 210.5t-213.5 526t213 526.5t533 211q322 0 534.5 -211
t212.5 -526.5t-212.5 -526t-534.5 -210.5zM848 0q252 0 404.5 196.5t152.5 520t-152.5 520.5t-404.5 197q-250 0 -402.5 -197t-152.5 -520.5t152.5 -520t402.5 -196.5z" />
    <glyph glyph-name="Odieresis" unicode="&#xd6;" horiz-adv-x="1697" 
d="M653 1583q-45 0 -74.5 27.5t-29.5 70.5q0 45 30.5 75t75.5 30q43 0 72 -30t29 -73q0 -45 -29 -72.5t-74 -27.5zM1044.5 1583q-45.5 0 -75 27.5t-29.5 72.5q0 43 30.5 73t76.5 30q43 0 71.5 -30t28.5 -73q0 -45 -28.5 -72.5t-74 -27.5zM848 -20q-319 0 -532.5 210.5
t-213.5 526t213 526.5t533 211q322 0 534.5 -211t212.5 -526.5t-212.5 -526t-534.5 -210.5zM848 0q252 0 404.5 196.5t152.5 520t-152.5 520.5t-404.5 197q-250 0 -402.5 -197t-152.5 -520.5t152.5 -520t402.5 -196.5z" />
    <glyph glyph-name="multiply" unicode="&#xd7;" horiz-adv-x="901" 
d="M748 897l-283 -283l283 -282l-15 -15l-282 283l-283 -283l-14 15l280 282l-280 281l14 16l283 -282l280 282z" />
    <glyph glyph-name="Oslash" unicode="&#xd8;" horiz-adv-x="1697" 
d="M1319 1298q129 -102 202.5 -252.5t73.5 -328.5q0 -315 -213 -526t-534 -211q-256 0 -449 141l-110 -141h-33l123 155q-131 100 -204 252t-73 330q0 315 213 526t533 211q254 0 450 -139l109 139h33zM293 717q0 -313 143 -508l809 1038q-152 186 -397 187
q-250 0 -402.5 -196.5t-152.5 -520.5zM848 0q252 0 404.5 196.5t152.5 520.5q0 317 -143 508l-809 -1037q149 -188 395 -188z" />
    <glyph glyph-name="Ugrave" unicode="&#xd9;" horiz-adv-x="1558" 
d="M860 1589l-352 250h248l129 -250h-25zM807 -20q-276 0 -450.5 161.5t-174.5 425.5v867h183v-899q0 -231 134 -370.5t353 -139.5q227 0 361.5 138t134.5 372v899h28v-902q0 -252 -152.5 -402t-416.5 -150z" />
    <glyph glyph-name="Uacute" unicode="&#xda;" horiz-adv-x="1558" 
d="M754 1589h-25l127 250h250zM807 -20q-276 0 -450.5 161.5t-174.5 425.5v867h183v-899q0 -231 134 -370.5t353 -139.5q227 0 361.5 138t134.5 372v899h28v-902q0 -252 -152.5 -402t-416.5 -150z" />
    <glyph glyph-name="Ucircumflex" unicode="&#xdb;" horiz-adv-x="1558" 
d="M807 1722l-272 -137l-9 12l258 258h45l258 -258l-8 -12zM1348 1434h28v-902q0 -252 -152.5 -402t-416.5 -150q-276 0 -450.5 161.5t-174.5 425.5v867h183v-899q0 -231 134 -370.5t353 -139.5q227 0 361.5 138t134.5 372v899z" />
    <glyph glyph-name="Udieresis" unicode="&#xdc;" horiz-adv-x="1558" 
d="M610 1583q-45 0 -74.5 27.5t-29.5 70.5q0 45 30.5 75t75.5 30q43 0 72 -30t29 -73q0 -45 -29 -72.5t-74 -27.5zM1001.5 1583q-45.5 0 -75 27.5t-29.5 72.5q0 43 30.5 73t76.5 30q43 0 71.5 -30t28.5 -73q0 -45 -28.5 -72.5t-74 -27.5zM807 -20q-276 0 -450.5 161.5
t-174.5 425.5v867h183v-899q0 -231 134 -370.5t353 -139.5q227 0 361.5 138t134.5 372v899h28v-902q0 -252 -152.5 -402t-416.5 -150z" />
    <glyph glyph-name="Yacute" unicode="&#xdd;" horiz-adv-x="1390" 
d="M995 1839l-352 -250h-25l127 250h250zM1298 1434h31l-543 -820v-614h-182v614l-543 820h203l518 -783z" />
    <glyph glyph-name="Thorn" unicode="&#xde;" horiz-adv-x="1341" 
d="M784 1143q209 0 349.5 -119t140.5 -297t-140.5 -297t-349.5 -119h-405v-311h-182v1434h182v-291h405zM741 332q156 0 249 108.5t93 286.5t-93 286.5t-249 108.5h-362v-790h362z" />
    <glyph glyph-name="germandbls" unicode="&#xdf;" horiz-adv-x="1185" 
d="M889 596q51 -27 89 -50.5t80 -62.5t65.5 -92t23.5 -117q0 -131 -95.5 -212.5t-250.5 -81.5q-141 0 -236.5 65.5t-95.5 159.5q0 43 28.5 70.5t73.5 27.5q41 0 68 -27.5t27 -70.5t-27 -71t-68 -28q-14 0 -22 3q74 -106 237 -107q98 0 159 55.5t61 145.5q0 80 -54.5 132
t-152.5 105q-51 27 -80 43.5t-71 47t-64.5 58t-39 68.5t-16.5 88q0 37 10.5 68t36 60.5t40 43t57.5 45t51 37.5q61 49 88 101.5t27 134.5q0 104 -63.5 171t-168.5 67q-117 0 -188.5 -88.5t-71.5 -231.5v-1153h-182v1075q0 180 122 300t302 120q143 0 237.5 -74.5
t94.5 -189.5q0 -51 -24 -96t-47.5 -69t-66.5 -60q-39 -33 -58 -53.5t-38.5 -56.5t-19.5 -73q0 -39 15 -71.5t51 -61t68 -47t89 -47.5z" />
    <glyph glyph-name="agrave" unicode="&#xe0;" horiz-adv-x="1185" 
d="M678 1200h-25l-352 250h248zM578 1044q201 0 328.5 -102t127.5 -258v-684h-182v152q-63 -78 -170 -125t-217 -47q-152 0 -257.5 82.5t-105.5 205.5q0 129 122 213t313 84q211 0 315 -67v241q0 125 -86 203t-227 78q-88 0 -165 -33t-118 -86q8 2 25 2q43 0 72.5 -29.5
t29.5 -74.5t-29.5 -75t-72.5 -30q-47 0 -79 30t-32 75q0 104 120 174.5t288 70.5zM539 33q92 0 176 42t137 113v283q-88 63 -260 64q-143 0 -221 -67t-78 -185q0 -111 67.5 -180.5t178.5 -69.5z" />
    <glyph glyph-name="aacute" unicode="&#xe1;" horiz-adv-x="1185" 
d="M897 1450l-352 -250h-25l127 250h250zM578 1044q201 0 328.5 -102t127.5 -258v-684h-182v152q-63 -78 -170 -125t-217 -47q-152 0 -257.5 82.5t-105.5 205.5q0 129 122 213t313 84q211 0 315 -67v241q0 125 -86 203t-227 78q-88 0 -165 -33t-118 -86q8 2 25 2
q43 0 72.5 -29.5t29.5 -74.5t-29.5 -75t-72.5 -30q-47 0 -79 30t-32 75q0 104 120 174.5t288 70.5zM539 33q92 0 176 42t137 113v283q-88 63 -260 64q-143 0 -221 -67t-78 -185q0 -111 67.5 -180.5t178.5 -69.5z" />
    <glyph glyph-name="acircumflex" unicode="&#xe2;" horiz-adv-x="1185" 
d="M598 1333l-272 -137l-9 12l258 258h46l258 -258l-9 -12zM578 1044q201 0 328.5 -102t127.5 -258v-684h-182v152q-63 -78 -170 -125t-217 -47q-152 0 -257.5 82.5t-105.5 205.5q0 129 122 213t313 84q211 0 315 -67v241q0 125 -86 203t-227 78q-88 0 -165 -33t-118 -86
q8 2 25 2q43 0 72.5 -29.5t29.5 -74.5t-29.5 -75t-72.5 -30q-47 0 -79 30t-32 75q0 104 120 174.5t288 70.5zM539 33q92 0 176 42t137 113v283q-88 63 -260 64q-143 0 -221 -67t-78 -185q0 -111 67.5 -180.5t178.5 -69.5z" />
    <glyph glyph-name="atilde" unicode="&#xe3;" horiz-adv-x="1185" 
d="M428 1341q-43 0 -78 -33.5t-39 -88.5h-22q0 102 52 167.5t134 65.5q70 0 166 -80q63 -53 123 -53q45 0 80 33.5t39 89.5h22q0 -102 -53 -168t-135 -66q-74 0 -168 84q-60 49 -121 49zM578 1044q201 0 328.5 -102t127.5 -258v-684h-182v152q-63 -78 -170 -125t-217 -47
q-152 0 -257.5 82.5t-105.5 205.5q0 129 122 213t313 84q211 0 315 -67v241q0 125 -86 203t-227 78q-88 0 -165 -33t-118 -86q8 2 25 2q43 0 72.5 -29.5t29.5 -74.5t-29.5 -75t-72.5 -30q-47 0 -79 30t-32 75q0 104 120 174.5t288 70.5zM539 33q92 0 176 42t137 113v283
q-88 63 -260 64q-143 0 -221 -67t-78 -185q0 -111 67.5 -180.5t178.5 -69.5z" />
    <glyph glyph-name="adieresis" unicode="&#xe4;" horiz-adv-x="1185" 
d="M403.5 1194q-45.5 0 -75 27.5t-29.5 70.5q0 45 30.5 75t76.5 30q43 0 71.5 -30t28.5 -73q0 -45 -28.5 -72.5t-74 -27.5zM795 1194q-45 0 -75 27.5t-30 72.5q0 43 31 73t76 30q43 0 71.5 -30t28.5 -73q0 -45 -28.5 -72.5t-73.5 -27.5zM578 1044q201 0 328.5 -102
t127.5 -258v-684h-182v152q-63 -78 -170 -125t-217 -47q-152 0 -257.5 82.5t-105.5 205.5q0 129 122 213t313 84q211 0 315 -67v241q0 125 -86 203t-227 78q-88 0 -165 -33t-118 -86q8 2 25 2q43 0 72.5 -29.5t29.5 -74.5t-29.5 -75t-72.5 -30q-47 0 -79 30t-32 75
q0 104 120 174.5t288 70.5zM539 33q92 0 176 42t137 113v283q-88 63 -260 64q-143 0 -221 -67t-78 -185q0 -111 67.5 -180.5t178.5 -69.5z" />
    <glyph glyph-name="aring" unicode="&#xe5;" horiz-adv-x="1185" 
d="M600 1165q-72 0 -119 45t-47 113q0 70 47 116t119 46q70 0 115 -46t45 -116q0 -68 -45 -113t-115 -45zM600 1466q-63 0 -102 -40t-39 -103t39 -101t102 -38q59 0 97 38t38 101t-38 103t-97 40zM578 1044q201 0 328.5 -102t127.5 -258v-684h-182v152q-63 -78 -170 -125
t-217 -47q-152 0 -257.5 82.5t-105.5 205.5q0 129 122 213t313 84q211 0 315 -67v241q0 125 -86 203t-227 78q-88 0 -165 -33t-118 -86q8 2 25 2q43 0 72.5 -29.5t29.5 -74.5t-29.5 -75t-72.5 -30q-47 0 -79 30t-32 75q0 104 120 174.5t288 70.5zM539 33q92 0 176 42
t137 113v283q-88 63 -260 64q-143 0 -221 -67t-78 -185q0 -111 67.5 -180.5t178.5 -69.5z" />
    <glyph glyph-name="ae" unicode="&#xe6;" horiz-adv-x="1966" 
d="M1745 354q43 0 71.5 -29.5t28.5 -74.5q0 -115 -125 -192.5t-303 -77.5q-160 0 -285.5 66.5t-197.5 178.5q-61 -106 -188.5 -175.5t-266.5 -69.5q-156 0 -266.5 82.5t-110.5 205.5q0 129 122 213t313 84q211 0 315 -67v237q0 125 -84 205t-221 80q-94 0 -172 -33t-119 -86
q8 2 25 2q43 0 72.5 -29.5t29.5 -74.5t-29.5 -75t-72.5 -30q-47 0 -79 30t-32 75q0 104 118 174.5t285 70.5q135 0 241 -53t161 -141q162 195 409 194q209 0 346.5 -140t137.5 -347h-826v-25q0 -246 111 -385t303 -139q106 0 192.5 39t127.5 105q-14 -6 -35 -7q-45 0 -76 30
t-31 75t32 74.5t79 29.5zM1378 1024q-141 0 -232 -124t-102 -322h639q-4 205 -85 325.5t-220 120.5zM555 35q113 0 211 58.5t152 156.5q-57 102 -64 217q-88 68 -262 68q-143 0 -221 -68t-78 -182q0 -113 71.5 -181.5t190.5 -68.5z" />
    <glyph glyph-name="ccedilla" unicode="&#xe7;" horiz-adv-x="1136" 
d="M647 -20h-20l-68 -109q33 16 76 16q76 0 126 -45t50 -114q0 -72 -60.5 -119t-150.5 -47q-111 0 -172 67l14 19q49 -59 129 -60q51 0 85 40t34 102q0 57 -28.5 94t-69.5 37q-45 0 -70 -43l-16 4l92 160q-219 16 -358.5 166.5t-139.5 363.5q0 227 156 379.5t389 152.5
q162 0 271.5 -73.5t109.5 -186.5q0 -45 -28.5 -74.5t-73.5 -29.5q-47 0 -78 29.5t-31 74.5t31 75t78 30q23 0 37 -8q-72 137 -283 137q-178 0 -282.5 -137.5t-104.5 -368.5t106.5 -368.5t284.5 -137.5q109 0 200 46t130 122l24 -12q-41 -80 -146.5 -131t-242.5 -51z" />
    <glyph glyph-name="egrave" unicode="&#xe8;" 
d="M696 1200h-24l-353 250h248zM991 354q43 0 73 -29.5t30 -74.5q0 -115 -126 -192.5t-304 -77.5q-246 0 -405 152.5t-159 379.5t154 379.5t375 152.5q213 0 349 -139t136 -348h-823v-27q0 -246 108.5 -384t298.5 -138q109 0 196 38t126 104q-16 -4 -31 -5q-45 0 -75.5 30
t-30.5 75t30.5 74.5t77.5 29.5zM629 1024q-143 0 -234.5 -123t-101.5 -323h639q-4 205 -85 325.5t-218 120.5z" />
    <glyph glyph-name="eacute" unicode="&#xe9;" 
d="M918 1450l-353 -250h-24l127 250h250zM991 354q43 0 73 -29.5t30 -74.5q0 -115 -126 -192.5t-304 -77.5q-246 0 -405 152.5t-159 379.5t154 379.5t375 152.5q213 0 349 -139t136 -348h-823v-27q0 -246 108.5 -384t298.5 -138q109 0 196 38t126 104q-16 -4 -31 -5
q-45 0 -75.5 30t-30.5 75t30.5 74.5t77.5 29.5zM629 1024q-143 0 -234.5 -123t-101.5 -323h639q-4 205 -85 325.5t-218 120.5z" />
    <glyph glyph-name="ecircumflex" unicode="&#xea;" 
d="M618 1333l-272 -137l-8 12l258 258h45l258 -258l-8 -12zM991 354q43 0 73 -29.5t30 -74.5q0 -115 -126 -192.5t-304 -77.5q-246 0 -405 152.5t-159 379.5t154 379.5t375 152.5q213 0 349 -139t136 -348h-823v-27q0 -246 108.5 -384t298.5 -138q109 0 196 38t126 104
q-16 -4 -31 -5q-45 0 -75.5 30t-30.5 75t30.5 74.5t77.5 29.5zM629 1024q-143 0 -234.5 -123t-101.5 -323h639q-4 205 -85 325.5t-218 120.5z" />
    <glyph glyph-name="edieresis" unicode="&#xeb;" 
d="M422 1194q-45 0 -75 27.5t-30 70.5q0 45 31 75t76 30q43 0 71.5 -30t28.5 -73q0 -45 -28.5 -72.5t-73.5 -27.5zM813 1194q-45 0 -74.5 27.5t-29.5 72.5q0 43 30.5 73t75.5 30q43 0 71.5 -30t28.5 -73q0 -45 -28.5 -72.5t-73.5 -27.5zM991 354q43 0 73 -29.5t30 -74.5
q0 -115 -126 -192.5t-304 -77.5q-246 0 -405 152.5t-159 379.5t154 379.5t375 152.5q213 0 349 -139t136 -348h-823v-27q0 -246 108.5 -384t298.5 -138q109 0 196 38t126 104q-16 -4 -31 -5q-45 0 -75.5 30t-30.5 75t30.5 74.5t77.5 29.5zM629 1024q-143 0 -234.5 -123
t-101.5 -323h639q-4 205 -85 325.5t-218 120.5z" />
    <glyph glyph-name="igrave" unicode="&#xec;" horiz-adv-x="532" 
d="M322 1200l-353 250h248l129 -250h-24zM176 0v989l182 45v-1034h-182z" />
    <glyph glyph-name="iacute" unicode="&#xed;" horiz-adv-x="532" 
d="M213 1200h-25l127 250h250zM176 0v989l182 45v-1034h-182z" />
    <glyph glyph-name="icircumflex" unicode="&#xee;" horiz-adv-x="532" 
d="M289 1466l258 -258l-8 -12l-273 137l-272 -137l-8 12l258 258h45zM176 0v989l182 45v-1034h-182z" />
    <glyph glyph-name="idieresis" unicode="&#xef;" horiz-adv-x="532" 
d="M72 1194q-45 0 -75 27.5t-30 70.5q0 45 31 75t76 30q43 0 71.5 -30t28.5 -73q0 -45 -28.5 -72.5t-73.5 -27.5zM463 1194q-45 0 -75 27.5t-30 72.5q0 43 31 73t76 30q43 0 71.5 -30t28.5 -73q0 -45 -28.5 -72.5t-73.5 -27.5zM176 0v989l182 45v-1034h-182z" />
    <glyph glyph-name="eth" unicode="&#xf0;" horiz-adv-x="1280" 
d="M854 1346q156 -117 241 -305.5t85 -413.5q0 -309 -149.5 -478t-389.5 -169q-231 0 -386 152.5t-155 379.5t155 379.5t384 152.5q186 0 317 -110q-55 238 -172 375l-213 -117l-12 20l209 115q-117 123 -297 152l6 16q205 -25 357 -133l170 92l12 -20zM637 0
q162 0 257 141.5t95 376.5q0 231 -95 368.5t-255 137.5q-158 0 -253 -139.5t-95 -372.5q0 -236 95 -374t251 -138z" />
    <glyph glyph-name="ntilde" unicode="&#xf1;" horiz-adv-x="1265" 
d="M477 1341q-43 0 -77.5 -33.5t-39.5 -88.5h-22q0 102 52 167.5t134 65.5q70 0 166 -80q63 -53 123 -53q45 0 80 33.5t39 89.5h22q0 -102 -53 -168t-135 -66q-74 0 -168 84q-60 49 -121 49zM748 1044q160 0 263 -99t103 -249v-696h-182v743q0 109 -67.5 181.5t-172.5 72.5
q-102 0 -195.5 -61.5t-138.5 -161.5v-774h-182v989l182 45v-205q55 96 160 155.5t230 59.5z" />
    <glyph glyph-name="ograve" unicode="&#xf2;" horiz-adv-x="1280" 
d="M694 1200l-352 250h248l129 -250h-25zM639 -20q-229 0 -384 152.5t-155 379.5t155 379.5t384 152.5q231 0 386 -152.5t155 -379.5t-155 -379.5t-386 -152.5zM639 0q160 0 255 138t95 374t-95 374t-255 138q-158 0 -253 -139.5t-95 -372.5t95 -372.5t253 -139.5z" />
    <glyph glyph-name="oacute" unicode="&#xf3;" horiz-adv-x="1280" 
d="M588 1200h-25l127 250h250zM639 -20q-229 0 -384 152.5t-155 379.5t155 379.5t384 152.5q231 0 386 -152.5t155 -379.5t-155 -379.5t-386 -152.5zM639 0q160 0 255 138t95 374t-95 374t-255 138q-158 0 -253 -139.5t-95 -372.5t95 -372.5t253 -139.5z" />
    <glyph glyph-name="ocircumflex" unicode="&#xf4;" horiz-adv-x="1280" 
d="M641 1333l-272 -137l-9 12l258 258h46l258 -258l-9 -12zM639 1044q231 0 386 -152.5t155 -379.5t-155 -379.5t-386 -152.5q-229 0 -384 152.5t-155 379.5t155 379.5t384 152.5zM639 0q160 0 255 138t95 374t-95 374t-255 138q-158 0 -253 -139.5t-95 -372.5t95 -372.5
t253 -139.5z" />
    <glyph glyph-name="otilde" unicode="&#xf5;" horiz-adv-x="1280" 
d="M760 1208q-74 0 -168 84q-59 49 -121 49q-43 0 -78 -33.5t-39 -88.5h-22q0 102 52 167.5t134 65.5q70 0 166 -80q63 -53 123 -53q45 0 80 33.5t39 89.5h22q0 -102 -53 -168t-135 -66zM639 -20q-229 0 -384 152.5t-155 379.5t155 379.5t384 152.5q231 0 386 -152.5
t155 -379.5t-155 -379.5t-386 -152.5zM639 0q160 0 255 138t95 374t-95 374t-255 138q-158 0 -253 -139.5t-95 -372.5t95 -372.5t253 -139.5z" />
    <glyph glyph-name="odieresis" unicode="&#xf6;" horiz-adv-x="1280" 
d="M444 1194q-45 0 -74.5 27.5t-29.5 70.5q0 45 30.5 75t75.5 30q43 0 72 -30t29 -73q0 -45 -29 -72.5t-74 -27.5zM836 1194q-45 0 -75 27.5t-30 72.5q0 43 31 73t76 30q43 0 71.5 -30t28.5 -73q0 -45 -28.5 -72.5t-73.5 -27.5zM639 -20q-229 0 -384 152.5t-155 379.5
t155 379.5t384 152.5q231 0 386 -152.5t155 -379.5t-155 -379.5t-386 -152.5zM639 0q160 0 255 138t95 374t-95 374t-255 138q-158 0 -253 -139.5t-95 -372.5t95 -372.5t253 -139.5z" />
    <glyph glyph-name="divide" unicode="&#xf7;" horiz-adv-x="1126" 
d="M567 801q-45 0 -72.5 27.5t-27.5 68.5t27.5 68.5t72.5 27.5q41 0 68 -27.5t27 -68.5t-27 -68.5t-68 -27.5zM154 604v21h819v-21h-819zM567 236q-45 0 -72.5 27.5t-27.5 68.5t27.5 68.5t72.5 27.5q41 0 68 -27.5t27 -68.5t-27 -68.5t-68 -27.5z" />
    <glyph glyph-name="oslash" unicode="&#xf8;" horiz-adv-x="1280" 
d="M981 930q199 -156 199 -418q0 -227 -155 -379.5t-386 -152.5q-182 0 -322 100l-77 -100h-33l90 114q-197 156 -197 418q0 227 155 379.5t384 152.5q180 0 322 -98l77 98h33zM291 512q0 -203 71 -334l541 692q-96 154 -264 154q-158 0 -253 -139.5t-95 -372.5zM639 0
q160 0 255 138t95 374q0 199 -71 336l-543 -694q96 -154 264 -154z" />
    <glyph glyph-name="ugrave" unicode="&#xf9;" horiz-adv-x="1259" 
d="M702 1200h-24l-352 250h247zM901 989l182 45v-1034h-182v195q-55 -96 -157.5 -155.5t-223.5 -59.5q-156 0 -259 99t-103 249v661l182 45v-755q0 -109 65.5 -180.5t169.5 -71.5q96 0 188.5 61.5t137.5 159.5v741z" />
    <glyph glyph-name="uacute" unicode="&#xfa;" horiz-adv-x="1259" 
d="M922 1450l-353 -250h-24l127 250h250zM901 989l182 45v-1034h-182v195q-55 -96 -157.5 -155.5t-223.5 -59.5q-156 0 -259 99t-103 249v661l182 45v-755q0 -109 65.5 -180.5t169.5 -71.5q96 0 188.5 61.5t137.5 159.5v741z" />
    <glyph glyph-name="ucircumflex" unicode="&#xfb;" horiz-adv-x="1259" 
d="M625 1333l-273 -137l-8 12l258 258h45l258 -258l-8 -12zM901 989l182 45v-1034h-182v195q-55 -96 -157.5 -155.5t-223.5 -59.5q-156 0 -259 99t-103 249v661l182 45v-755q0 -109 65.5 -180.5t169.5 -71.5q96 0 188.5 61.5t137.5 159.5v741z" />
    <glyph glyph-name="udieresis" unicode="&#xfc;" horiz-adv-x="1259" 
d="M428 1194q-45 0 -74.5 27.5t-29.5 70.5q0 45 30.5 75t75.5 30q43 0 71.5 -30t28.5 -73q0 -45 -28.5 -72.5t-73.5 -27.5zM819 1194q-45 0 -74.5 27.5t-29.5 72.5q0 43 30.5 73t75.5 30q43 0 72 -30t29 -73q0 -45 -29 -72.5t-74 -27.5zM901 989l182 45v-1034h-182v195
q-55 -96 -157.5 -155.5t-223.5 -59.5q-156 0 -259 99t-103 249v661l182 45v-755q0 -109 65.5 -180.5t169.5 -71.5q96 0 188.5 61.5t137.5 159.5v741z" />
    <glyph glyph-name="yacute" unicode="&#xfd;" horiz-adv-x="1044" 
d="M844 1450l-352 -250h-25l127 250h250zM989 1024h29l-600 -1368q-55 -127 -193 -127q-68 0 -118 43t-50 100q0 45 31 75t78 30q45 0 73.5 -30t28.5 -75t-28.5 -74.5t-73.5 -29.5h-14q35 -23 73 -23q51 0 98.5 29t73.5 86l121 281l-475 1083h190l377 -870z" />
    <glyph glyph-name="thorn" unicode="&#xfe;" horiz-adv-x="1298" 
d="M709 1044q203 0 346 -153.5t143 -378.5t-142.5 -378.5t-346.5 -153.5q-217 0 -351 163v-594h-182v1901l182 45v-633q57 84 151 133t200 49zM664 18q156 0 250 134.5t94 359.5q0 223 -94.5 358.5t-247.5 135.5q-193 0 -308 -187v-629q113 -172 306 -172z" />
    <glyph glyph-name="ydieresis" unicode="&#xff;" horiz-adv-x="1044" 
d="M350 1194q-45 0 -74.5 27.5t-29.5 70.5q0 45 30.5 75t75.5 30q43 0 72 -30t29 -73q0 -45 -29 -72.5t-74 -27.5zM741 1194q-45 0 -74.5 27.5t-29.5 72.5q0 43 30.5 73t75.5 30q43 0 72 -30t29 -73q0 -45 -29 -72.5t-74 -27.5zM989 1024h29l-600 -1368q-55 -127 -193 -127
q-68 0 -118 43t-50 100q0 45 31 75t78 30q45 0 73.5 -30t28.5 -75t-28.5 -74.5t-73.5 -29.5h-14q35 -23 73 -23q51 0 98.5 29t73.5 86l121 281l-475 1083h190l377 -870z" />
    <glyph glyph-name="Amacron" unicode="&#x100;" horiz-adv-x="1458" 
d="M977 1733v-86h-494v86h494zM1206 0l-188 434h-739l-189 -434h-29l629 1434h80l627 -1434h-191zM289 455h719l-359 825z" />
    <glyph glyph-name="amacron" unicode="&#x101;" horiz-adv-x="1185" 
d="M844 1343v-86h-494v86h494zM578 1044q201 0 328.5 -102t127.5 -258v-684h-182v152q-63 -78 -170 -125t-217 -47q-152 0 -257.5 82.5t-105.5 205.5q0 129 122 213t313 84q211 0 315 -67v241q0 125 -86 203t-227 78q-88 0 -165 -33t-118 -86q8 2 25 2q43 0 72.5 -29.5
t29.5 -74.5t-29.5 -75t-72.5 -30q-47 0 -79 30t-32 75q0 104 120 174.5t288 70.5zM539 33q92 0 176 42t137 113v283q-88 63 -260 64q-143 0 -221 -67t-78 -185q0 -111 67.5 -180.5t178.5 -69.5z" />
    <glyph glyph-name="Abreve" unicode="&#x102;" horiz-adv-x="1458" 
d="M731.5 1577q-104.5 0 -184.5 72.5t-96 185.5h24q8 -57 80 -94t176.5 -37t176 37t79.5 94h25q-18 -113 -97 -185.5t-183.5 -72.5zM1206 0l-188 434h-739l-189 -434h-29l629 1434h80l627 -1434h-191zM289 455h719l-359 825z" />
    <glyph glyph-name="abreve" unicode="&#x103;" horiz-adv-x="1185" 
d="M598 1188q-104 0 -184 72.5t-97 185.5h25q8 -57 80 -94t176 -37t176 37t80 94h25q-18 -113 -97.5 -185.5t-183.5 -72.5zM578 1044q201 0 328.5 -102t127.5 -258v-684h-182v152q-63 -78 -170 -125t-217 -47q-152 0 -257.5 82.5t-105.5 205.5q0 129 122 213t313 84
q211 0 315 -67v241q0 125 -86 203t-227 78q-88 0 -165 -33t-118 -86q8 2 25 2q43 0 72.5 -29.5t29.5 -74.5t-29.5 -75t-72.5 -30q-47 0 -79 30t-32 75q0 104 120 174.5t288 70.5zM539 33q92 0 176 42t137 113v283q-88 63 -260 64q-143 0 -221 -67t-78 -185
q0 -111 67.5 -180.5t178.5 -69.5z" />
    <glyph glyph-name="Aogonek" unicode="&#x104;" horiz-adv-x="1458" 
d="M1417 -356l17 -15q-57 -68 -172 -67q-84 0 -141.5 46t-57.5 113q0 74 85 153t216 126h-158l-188 434h-739l-189 -434h-29l629 1434h80l627 -1434h-2q-94 -53 -150.5 -124t-56.5 -140q0 -63 33.5 -102.5t89.5 -39.5q63 1 106 50zM289 455h719l-359 825z" />
    <glyph glyph-name="aogonek" unicode="&#x105;" horiz-adv-x="1185" 
d="M1055 -356l16 -15q-57 -68 -172 -67q-84 0 -141.5 46t-57.5 113q0 74 85 153t216 126h-149v152q-63 -78 -170 -125t-217 -47q-152 0 -257.5 82.5t-105.5 205.5q0 129 122 213t313 84q211 0 315 -67v241q0 125 -86 203t-227 78q-88 0 -165 -33t-118 -86q8 2 25 2
q43 0 72.5 -29.5t29.5 -74.5t-29.5 -75t-72.5 -30q-47 0 -79 30t-32 75q0 104 120 174.5t288 70.5q201 0 328.5 -102t127.5 -258v-684h-2q-94 -53 -150.5 -124t-56.5 -140q0 -63 34 -102.5t89 -39.5q64 1 107 50zM539 33q92 0 176 42t137 113v283q-88 63 -260 64
q-143 0 -221 -67t-78 -185q0 -111 67.5 -180.5t178.5 -69.5z" />
    <glyph glyph-name="Cacute" unicode="&#x106;" horiz-adv-x="1527" 
d="M1157 1839l-352 -250h-25l127 250h250zM1405 274l25 -12q-66 -125 -220.5 -203.5t-349.5 -78.5q-322 0 -540 209.5t-218 527.5q0 313 215 525t541 212q233 0 394 -108.5t161 -258.5v-2q0 -45 -29.5 -75.5t-76.5 -30.5t-79 30.5t-32 78t32 78t79 30.5q25 0 43 -8
q-43 106 -165 171.5t-290 65.5q-274 0 -438 -192.5t-164 -513.5q0 -324 165 -516.5t437 -192.5q172 0 305 70.5t205 193.5z" />
    <glyph glyph-name="cacute" unicode="&#x107;" horiz-adv-x="1136" 
d="M909 1450l-352 -250h-25l127 250h250zM1012 174l24 -12q-41 -80 -146.5 -131t-242.5 -51q-238 0 -392.5 153.5t-154.5 378.5q0 227 156 379.5t389 152.5q162 0 271.5 -73.5t109.5 -186.5q0 -45 -28.5 -74.5t-73.5 -29.5q-47 0 -78 29.5t-31 74.5t31 75t78 30q23 0 37 -8
q-72 137 -283 137q-178 0 -282.5 -137.5t-104.5 -368.5t106.5 -368.5t284.5 -137.5q109 0 200 46t130 122z" />
    <glyph glyph-name="Ccircumflex" unicode="&#x108;" horiz-adv-x="1527" 
d="M858 1722l-272 -137l-8 12l258 258h45l258 -258l-9 -12zM1405 274l25 -12q-66 -125 -220.5 -203.5t-349.5 -78.5q-322 0 -540 209.5t-218 527.5q0 313 215 525t541 212q233 0 394 -108.5t161 -258.5v-2q0 -45 -29.5 -75.5t-76.5 -30.5t-79 30.5t-32 78t32 78t79 30.5
q25 0 43 -8q-43 106 -165 171.5t-290 65.5q-274 0 -438 -192.5t-164 -513.5q0 -324 165 -516.5t437 -192.5q172 0 305 70.5t205 193.5z" />
    <glyph glyph-name="ccircumflex" unicode="&#x109;" horiz-adv-x="1136" 
d="M610 1333l-272 -137l-8 12l258 258h45l258 -258l-8 -12zM1012 174l24 -12q-41 -80 -146.5 -131t-242.5 -51q-238 0 -392.5 153.5t-154.5 378.5q0 227 156 379.5t389 152.5q162 0 271.5 -73.5t109.5 -186.5q0 -45 -28.5 -74.5t-73.5 -29.5q-47 0 -78 29.5t-31 74.5t31 75
t78 30q23 0 37 -8q-72 137 -283 137q-178 0 -282.5 -137.5t-104.5 -368.5t106.5 -368.5t284.5 -137.5q109 0 200 46t130 122z" />
    <glyph glyph-name="Cdotaccent" unicode="&#x10a;" horiz-adv-x="1527" 
d="M856 1577q-45 0 -78 29.5t-33 76.5q0 45 33 77t80 32q45 0 76 -30.5t31 -78t-31 -77t-78 -29.5zM1405 274l25 -12q-66 -125 -220.5 -203.5t-349.5 -78.5q-322 0 -540 209.5t-218 527.5q0 313 215 525t541 212q233 0 394 -108.5t161 -258.5v-2q0 -45 -29.5 -75.5
t-76.5 -30.5t-79 30.5t-32 78t32 78t79 30.5q25 0 43 -8q-43 106 -165 171.5t-290 65.5q-274 0 -438 -192.5t-164 -513.5q0 -324 165 -516.5t437 -192.5q172 0 305 70.5t205 193.5z" />
    <glyph glyph-name="cdotaccent" unicode="&#x10b;" horiz-adv-x="1136" 
d="M608 1188q-45 0 -77.5 29.5t-32.5 76.5q0 45 32.5 77t79.5 32q45 0 76 -31t31 -78t-31 -76.5t-78 -29.5zM1012 174l24 -12q-41 -80 -146.5 -131t-242.5 -51q-238 0 -392.5 153.5t-154.5 378.5q0 227 156 379.5t389 152.5q162 0 271.5 -73.5t109.5 -186.5
q0 -45 -28.5 -74.5t-73.5 -29.5q-47 0 -78 29.5t-31 74.5t31 75t78 30q23 0 37 -8q-72 137 -283 137q-178 0 -282.5 -137.5t-104.5 -368.5t106.5 -368.5t284.5 -137.5q109 0 200 46t130 122z" />
    <glyph glyph-name="Ccaron" unicode="&#x10c;" horiz-adv-x="1527" 
d="M881 1579h-45l-258 258l8 12l272 -135l272 135l9 -12zM1405 274l25 -12q-66 -125 -220.5 -203.5t-349.5 -78.5q-322 0 -540 209.5t-218 527.5q0 313 215 525t541 212q233 0 394 -108.5t161 -258.5v-2q0 -45 -29.5 -75.5t-76.5 -30.5t-79 30.5t-32 78t32 78t79 30.5
q25 0 43 -8q-43 106 -165 171.5t-290 65.5q-274 0 -438 -192.5t-164 -513.5q0 -324 165 -516.5t437 -192.5q172 0 305 70.5t205 193.5z" />
    <glyph glyph-name="ccaron" unicode="&#x10d;" horiz-adv-x="1136" 
d="M633 1190h-45l-258 258l8 12l272 -135l273 135l8 -12zM1012 174l24 -12q-41 -80 -146.5 -131t-242.5 -51q-238 0 -392.5 153.5t-154.5 378.5q0 227 156 379.5t389 152.5q162 0 271.5 -73.5t109.5 -186.5q0 -45 -28.5 -74.5t-73.5 -29.5q-47 0 -78 29.5t-31 74.5t31 75
t78 30q23 0 37 -8q-72 137 -283 137q-178 0 -282.5 -137.5t-104.5 -368.5t106.5 -368.5t284.5 -137.5q109 0 200 46t130 122z" />
    <glyph glyph-name="Dcaron" unicode="&#x10e;" horiz-adv-x="1597" 
d="M811 1579h-45l-258 258l8 12l272 -135l273 135l8 -12zM729 1434q328 0 547 -206t219 -511t-219 -511t-547 -206h-532v1434h532zM702 20q272 0 437.5 190.5t165.5 506t-165 506t-438 190.5h-323v-1393h323z" />
    <glyph glyph-name="dcaron" unicode="&#x10f;" horiz-adv-x="1464" 
d="M940 862v588l182 45v-1495h-182v145q-61 -76 -153.5 -120.5t-196.5 -44.5q-205 0 -347.5 153.5t-142.5 378.5t143.5 378.5t344.5 153.5q109 0 202 -49t150 -133zM1292 1475h178l-192 -289h-27zM635 18q193 0 305 175v626q-115 186 -307 187q-154 0 -248 -136.5
t-94 -357.5q0 -223 95 -358.5t249 -135.5z" />
    <glyph glyph-name="Dcroat" unicode="&#x110;" horiz-adv-x="1597" 
d="M729 1434q328 0 547 -206t219 -511t-219 -511t-547 -206h-532v707h-140v20h140v707h532zM702 20q272 0 437.5 190.5t165.5 506t-165 506t-438 190.5h-323v-686h239v-20h-239v-687h323z" />
    <glyph glyph-name="dcroat" unicode="&#x111;" horiz-adv-x="1298" 
d="M1253 1260v-21h-131v-1239h-182v145q-61 -76 -153.5 -120.5t-196.5 -44.5q-205 0 -347.5 153.5t-142.5 378.5t143.5 378.5t344.5 153.5q109 0 202 -49t150 -133v377h-248v21h248v190l182 45v-235h131zM635 18q193 0 305 175v626q-115 186 -307 187q-154 0 -248 -135.5
t-94 -358.5q0 -225 94 -359.5t250 -134.5z" />
    <glyph glyph-name="Emacron" unicode="&#x112;" horiz-adv-x="1288" 
d="M971 1733v-86h-494v86h494zM379 20h827v-20h-1009v1434h989v-21h-807v-676h643v-20h-643v-697z" />
    <glyph glyph-name="emacron" unicode="&#x113;" 
d="M864 1343v-86h-493v86h493zM991 354q43 0 73 -29.5t30 -74.5q0 -115 -126 -192.5t-304 -77.5q-246 0 -405 152.5t-159 379.5t154 379.5t375 152.5q213 0 349 -139t136 -348h-823v-27q0 -246 108.5 -384t298.5 -138q109 0 196 38t126 104q-16 -4 -31 -5q-45 0 -75.5 30
t-30.5 75t30.5 74.5t77.5 29.5zM629 1024q-143 0 -234.5 -123t-101.5 -323h639q-4 205 -85 325.5t-218 120.5z" />
    <glyph glyph-name="Ebreve" unicode="&#x114;" horiz-adv-x="1288" 
d="M725 1577q-104 0 -184 72.5t-97 185.5h25q8 -57 80 -94t176 -37t176 37t80 94h25q-18 -113 -97.5 -185.5t-183.5 -72.5zM379 20h827v-20h-1009v1434h989v-21h-807v-676h643v-20h-643v-697z" />
    <glyph glyph-name="ebreve" unicode="&#x115;" 
d="M618.5 1188q-104.5 0 -184.5 72.5t-96 185.5h24q8 -57 80 -94t176.5 -37t176 37t79.5 94h25q-18 -113 -97 -185.5t-183.5 -72.5zM991 354q43 0 73 -29.5t30 -74.5q0 -115 -126 -192.5t-304 -77.5q-246 0 -405 152.5t-159 379.5t154 379.5t375 152.5q213 0 349 -139
t136 -348h-823v-27q0 -246 108.5 -384t298.5 -138q109 0 196 38t126 104q-16 -4 -31 -5q-45 0 -75.5 30t-30.5 75t30.5 74.5t77.5 29.5zM629 1024q-143 0 -234.5 -123t-101.5 -323h639q-4 205 -85 325.5t-218 120.5z" />
    <glyph glyph-name="Edotaccent" unicode="&#x116;" horiz-adv-x="1288" 
d="M723 1577q-45 0 -78 29.5t-33 76.5q0 45 33 77t80 32q45 0 75.5 -30.5t30.5 -78t-30.5 -77t-77.5 -29.5zM379 20h827v-20h-1009v1434h989v-21h-807v-676h643v-20h-643v-697z" />
    <glyph glyph-name="edotaccent" unicode="&#x117;" 
d="M616 1188q-45 0 -77.5 29.5t-32.5 76.5q0 45 32.5 77t79.5 32q45 0 76 -31t31 -78t-31 -76.5t-78 -29.5zM991 354q43 0 73 -29.5t30 -74.5q0 -115 -126 -192.5t-304 -77.5q-246 0 -405 152.5t-159 379.5t154 379.5t375 152.5q213 0 349 -139t136 -348h-823v-27
q0 -246 108.5 -384t298.5 -138q109 0 196 38t126 104q-16 -4 -31 -5q-45 0 -75.5 30t-30.5 75t30.5 74.5t77.5 29.5zM629 1024q-143 0 -234.5 -123t-101.5 -323h639q-4 205 -85 325.5t-218 120.5z" />
    <glyph glyph-name="Eogonek" unicode="&#x118;" horiz-adv-x="1288" 
d="M1229 -356l16 -15q-57 -68 -172 -67q-84 0 -141.5 46t-57.5 113q0 74 85 153t217 126h-979v1434h989v-21h-807v-676h643v-20h-643v-697h827v-20q-94 -53 -150.5 -124t-56.5 -140q0 -63 34 -102.5t89 -39.5q64 1 107 50z" />
    <glyph glyph-name="eogonek" unicode="&#x119;" 
d="M991 354q43 0 73 -29.5t30 -74.5q0 -86 -75 -153.5t-198 -98.5q-94 -53 -148.5 -123t-54.5 -139q0 -63 34 -102.5t89 -39.5q63 0 107 50l16 -15q-57 -68 -172 -67q-84 0 -141 46t-57 113q0 70 73.5 143t190.5 122q-45 -6 -94 -6q-246 0 -405 152.5t-159 379.5t154 379.5
t375 152.5q213 0 349 -139t136 -348h-823v-27q0 -246 108.5 -384t298.5 -138q109 0 196 38t126 104q-16 -4 -31 -5q-45 0 -75.5 30t-30.5 75t30.5 74.5t77.5 29.5zM629 1024q-143 0 -234.5 -123t-101.5 -323h639q-4 205 -85 325.5t-218 120.5z" />
    <glyph glyph-name="Ecaron" unicode="&#x11a;" horiz-adv-x="1288" 
d="M748 1579h-46l-258 258l9 12l272 -135l272 135l9 -12zM379 20h827v-20h-1009v1434h989v-21h-807v-676h643v-20h-643v-697z" />
    <glyph glyph-name="ecaron" unicode="&#x11b;" 
d="M641 1190h-45l-258 258l8 12l272 -135l273 135l8 -12zM991 354q43 0 73 -29.5t30 -74.5q0 -115 -126 -192.5t-304 -77.5q-246 0 -405 152.5t-159 379.5t154 379.5t375 152.5q213 0 349 -139t136 -348h-823v-27q0 -246 108.5 -384t298.5 -138q109 0 196 38t126 104
q-16 -4 -31 -5q-45 0 -75.5 30t-30.5 75t30.5 74.5t77.5 29.5zM629 1024q-143 0 -234.5 -123t-101.5 -323h639q-4 205 -85 325.5t-218 120.5z" />
    <glyph glyph-name="Gcircumflex" unicode="&#x11c;" horiz-adv-x="1617" 
d="M862 1722l-272 -137l-8 12l258 258h45l258 -258l-8 -12zM1280 606h178v-606h-20l-117 145q-63 -76 -185 -120.5t-272 -44.5q-324 0 -543 210.5t-219 526t219.5 526.5t552.5 211q231 0 387 -100.5t156 -249.5q0 -47 -29.5 -78t-74.5 -31q-49 0 -81 31t-32 78t32 77.5
t81 30.5q25 0 41 -8q-41 102 -160 161.5t-285 59.5q-285 0 -450.5 -192.5t-165.5 -521.5q0 -319 160.5 -514t431.5 -195q145 0 249.5 56.5t145.5 154.5v393z" />
    <glyph glyph-name="gcircumflex" unicode="&#x11d;" horiz-adv-x="1290" 
d="M641 1333l-272 -137l-9 12l258 258h46l258 -258l-9 -12zM940 989l182 45v-1104q0 -172 -140 -286.5t-357 -114.5q-180 0 -304 76t-124 186q0 45 30.5 74t77.5 29q43 0 72 -29t29 -74t-29 -73.5t-72 -28.5q-23 0 -37 6q41 -66 128 -103.5t194 -37.5q154 0 252 91t98 230
v270q-61 -76 -153.5 -120.5t-196.5 -44.5q-205 0 -347.5 153.5t-142.5 378.5t143.5 378.5t344.5 153.5q109 0 202 -49t150 -133v127zM635 18q193 0 305 175v626q-115 186 -307 187q-154 0 -248 -135.5t-94 -358.5q0 -225 94 -359.5t250 -134.5z" />
    <glyph glyph-name="Gbreve" unicode="&#x11e;" horiz-adv-x="1617" 
d="M862.5 1577q-104.5 0 -184.5 72.5t-96 185.5h24q8 -57 80 -94t176.5 -37t176 37t79.5 94h25q-18 -113 -97 -185.5t-183.5 -72.5zM1280 606h178v-606h-20l-117 145q-63 -76 -185 -120.5t-272 -44.5q-324 0 -543 210.5t-219 526t219.5 526.5t552.5 211q231 0 387 -100.5
t156 -249.5q0 -47 -29.5 -78t-74.5 -31q-49 0 -81 31t-32 78t32 77.5t81 30.5q25 0 41 -8q-41 102 -160 161.5t-285 59.5q-285 0 -450.5 -192.5t-165.5 -521.5q0 -319 160.5 -514t431.5 -195q145 0 249.5 56.5t145.5 154.5v393z" />
    <glyph glyph-name="gbreve" unicode="&#x11f;" horiz-adv-x="1290" 
d="M641 1188q-104 0 -184 72.5t-97 185.5h25q8 -57 80 -94t176 -37t176 37t80 94h25q-18 -113 -97.5 -185.5t-183.5 -72.5zM940 989l182 45v-1104q0 -172 -140 -286.5t-357 -114.5q-180 0 -304 76t-124 186q0 45 30.5 74t77.5 29q43 0 72 -29t29 -74t-29 -73.5t-72 -28.5
q-23 0 -37 6q41 -66 128 -103.5t194 -37.5q154 0 252 91t98 230v270q-61 -76 -153.5 -120.5t-196.5 -44.5q-205 0 -347.5 153.5t-142.5 378.5t143.5 378.5t344.5 153.5q109 0 202 -49t150 -133v127zM635 18q193 0 305 175v626q-115 186 -307 187q-154 0 -248 -135.5
t-94 -358.5q0 -225 94 -359.5t250 -134.5z" />
    <glyph glyph-name="Gdotaccent" unicode="&#x120;" horiz-adv-x="1617" 
d="M860 1577q-45 0 -77.5 29.5t-32.5 76.5q0 45 32.5 77t79.5 32q45 0 76 -30.5t31 -78t-31 -77t-78 -29.5zM1280 606h178v-606h-20l-117 145q-63 -76 -185 -120.5t-272 -44.5q-324 0 -543 210.5t-219 526t219.5 526.5t552.5 211q231 0 387 -100.5t156 -249.5
q0 -47 -29.5 -78t-74.5 -31q-49 0 -81 31t-32 78t32 77.5t81 30.5q25 0 41 -8q-41 102 -160 161.5t-285 59.5q-285 0 -450.5 -192.5t-165.5 -521.5q0 -319 160.5 -514t431.5 -195q145 0 249.5 56.5t145.5 154.5v393z" />
    <glyph glyph-name="gdotaccent" unicode="&#x121;" horiz-adv-x="1290" 
d="M641 1188q-45 0 -78 29.5t-33 76.5q0 45 33 77t80 32q45 0 76 -31t31 -78t-31 -76.5t-78 -29.5zM940 989l182 45v-1104q0 -172 -140 -286.5t-357 -114.5q-180 0 -304 76t-124 186q0 45 30.5 74t77.5 29q43 0 72 -29t29 -74t-29 -73.5t-72 -28.5q-23 0 -37 6
q41 -66 128 -103.5t194 -37.5q154 0 252 91t98 230v270q-61 -76 -153.5 -120.5t-196.5 -44.5q-205 0 -347.5 153.5t-142.5 378.5t143.5 378.5t344.5 153.5q109 0 202 -49t150 -133v127zM635 18q193 0 305 175v626q-115 186 -307 187q-154 0 -248 -135.5t-94 -358.5
q0 -225 94 -359.5t250 -134.5z" />
    <glyph glyph-name="uni0122" unicode="&#x122;" horiz-adv-x="1617" 
d="M1280 606h178v-606h-20l-117 145q-63 -76 -185 -120.5t-272 -44.5q-324 0 -543 210.5t-219 526t219.5 526.5t552.5 211q231 0 387 -100.5t156 -249.5q0 -47 -29.5 -78t-74.5 -31q-49 0 -81 31t-32 78t32 77.5t81 30.5q25 0 41 -8q-41 102 -160 161.5t-285 59.5
q-285 0 -450.5 -192.5t-165.5 -521.5q0 -319 160.5 -514t431.5 -195q145 0 249.5 56.5t145.5 154.5v393zM860 -145q49 0 82 -33t33 -86q0 -72 -50.5 -146.5t-117.5 -109.5l-10 16q49 27 82.5 74t42.5 96q-23 -23 -66 -22q-45 0 -75.5 31.5t-30.5 78.5q0 43 31.5 72t78.5 29z
" />
    <glyph glyph-name="uni0123" unicode="&#x123;" horiz-adv-x="1290" 
d="M643 1165q-49 0 -82 34t-33 87q0 70 49.5 145.5t116.5 110.5l11 -16q-104 -61 -123 -170q25 20 65 20q45 0 76 -30.5t31 -77.5q0 -43 -32 -73t-79 -30zM940 989l182 45v-1104q0 -172 -140 -286.5t-357 -114.5q-180 0 -304 76t-124 186q0 45 30.5 74t77.5 29q43 0 72 -29
t29 -74t-29 -73.5t-72 -28.5q-23 0 -37 6q41 -66 128 -103.5t194 -37.5q154 0 252 91t98 230v270q-61 -76 -153.5 -120.5t-196.5 -44.5q-205 0 -347.5 153.5t-142.5 378.5t143.5 378.5t344.5 153.5q109 0 202 -49t150 -133v127zM635 18q193 0 305 175v626q-115 186 -307 187
q-154 0 -248 -135.5t-94 -358.5q0 -225 94 -359.5t250 -134.5z" />
    <glyph glyph-name="Hcircumflex" unicode="&#x124;" horiz-adv-x="1603" 
d="M803 1722l-273 -137l-8 12l258 258h45l258 -258l-8 -12zM1225 1434h182v-1434h-182v717h-846v-717h-182v1434h182v-697h846v697z" />
    <glyph glyph-name="hcircumflex" unicode="&#x125;" horiz-adv-x="1265" 
d="M545 1647l-273 137l-272 -137l-8 12l258 258h45l258 -258zM748 1044q160 0 263 -99t103 -249v-696h-182v743q0 109 -67.5 181.5t-172.5 72.5q-102 0 -195.5 -61.5t-138.5 -161.5v-774h-182v1450l182 45v-666q55 96 160 155.5t230 59.5z" />
    <glyph glyph-name="Hbar" unicode="&#x126;" horiz-adv-x="1603" 
d="M1552 1075v-20h-145v-1055h-182v717h-846v-717h-182v1055h-148v20h148v359h182v-359h846v359h182v-359h145zM1225 737v318h-846v-318h846z" />
    <glyph glyph-name="hbar" unicode="&#x127;" horiz-adv-x="1265" 
d="M748 1044q160 0 263 -99t103 -249v-696h-182v743q0 109 -67.5 181.5t-172.5 72.5q-102 0 -195.5 -61.5t-138.5 -161.5v-774h-182v1239h-135v21h135v190l182 45v-235h244v-21h-244v-410q55 96 160 155.5t230 59.5z" />
    <glyph glyph-name="Itilde" unicode="&#x128;" horiz-adv-x="573" 
d="M406 1597q-74 0 -168 84q-59 49 -121 50q-43 0 -78 -34t-39 -89h-23q0 102 52.5 167.5t134.5 65.5q70 0 166 -80q63 -53 123 -53q45 0 79.5 34t38.5 89h23q0 -102 -53 -168t-135 -66zM197 0v1434h182v-1434h-182z" />
    <glyph glyph-name="itilde" unicode="&#x129;" horiz-adv-x="532" 
d="M385 1208q-74 0 -168 84q-59 49 -121 49q-43 0 -77.5 -33.5t-38.5 -88.5h-23q0 102 52 167.5t134 65.5q70 0 166 -80q63 -53 123 -53q45 0 80 33.5t39 89.5h22q0 -102 -53 -168t-135 -66zM176 0v989l182 45v-1034h-182z" />
    <glyph glyph-name="Imacron" unicode="&#x12a;" horiz-adv-x="573" 
d="M39 1647v86h493v-86h-493zM197 0v1434h182v-1434h-182z" />
    <glyph glyph-name="imacron" unicode="&#x12b;" horiz-adv-x="532" 
d="M18 1257v86h494v-86h-494zM176 0v989l182 45v-1034h-182z" />
    <glyph glyph-name="Ibreve" unicode="&#x12c;" horiz-adv-x="573" 
d="M286.5 1577q-104.5 0 -184 72.5t-96.5 185.5h25q8 -57 79.5 -94t176 -37t176.5 37t80 94h24q-18 -113 -97 -185.5t-183.5 -72.5zM197 0v1434h182v-1434h-182z" />
    <glyph glyph-name="ibreve" unicode="&#x12d;" horiz-adv-x="532" 
d="M266.5 1188q-104.5 0 -184.5 72.5t-96 185.5h24q8 -57 80 -94t176.5 -37t176 37t79.5 94h25q-18 -113 -97 -185.5t-183.5 -72.5zM176 0v989l182 45v-1034h-182z" />
    <glyph glyph-name="Iogonek" unicode="&#x12e;" horiz-adv-x="573" 
d="M399 -356l17 -15q-57 -68 -172 -67q-84 0 -141.5 46t-57.5 113q0 74 85 153t216 126h-149v1434h182v-1434h-2q-94 -53 -150.5 -124t-56.5 -140q0 -63 34 -102.5t89 -39.5q63 1 106 50z" />
    <glyph glyph-name="iogonek" unicode="&#x12f;" horiz-adv-x="532" 
d="M266 1188q-45 0 -77.5 29.5t-32.5 76.5q0 45 32.5 77t79.5 32q45 0 76 -31t31 -78t-31 -76.5t-78 -29.5zM379 -356l16 -15q-57 -68 -172 -67q-84 0 -141 46t-57 113q0 74 85 153t216 126h-150v989l182 45v-1034h-2q-94 -53 -150 -124t-56 -140q0 -63 33.5 -102.5
t88.5 -39.5q64 1 107 50z" />
    <glyph glyph-name="Idotaccent" unicode="&#x130;" horiz-adv-x="573" 
d="M287 1577q-45 0 -78 29.5t-33 76.5q0 45 33 77t80 32q45 0 75.5 -30.5t30.5 -78t-30.5 -77t-77.5 -29.5zM197 0v1434h182v-1434h-182z" />
    <glyph glyph-name="dotlessi" unicode="&#x131;" horiz-adv-x="532" 
d="M176 0v989l182 45v-1034h-182z" />
    <glyph glyph-name="IJ" unicode="&#x132;" horiz-adv-x="1777" 
d="M197 0v1434h182v-1434h-182zM1411 1434h182v-977q0 -223 -136 -350t-353 -127q-199 0 -328 96t-129 243q0 47 32 78t81 31q47 0 76.5 -30.5t29.5 -78.5q0 -45 -29.5 -75.5t-76.5 -30.5q-31 0 -60 14q35 -102 137.5 -162.5t239.5 -60.5q160 0 247 103.5t87 281.5v1045z
" />
    <glyph glyph-name="ij" unicode="&#x133;" horiz-adv-x="1077" 
d="M270 1214q-51 0 -83.5 33t-32.5 80q0 49 32.5 81t83.5 32q47 0 79 -32t32 -81q0 -47 -32 -80t-79 -33zM815 1214q-51 0 -84 33t-33 80q0 49 33 81t84 32q47 0 78 -32t31 -81q0 -47 -32 -80t-77 -33zM358 1034v-1034h-182v989zM721 -229v1218l182 45v-1196
q0 -133 -97 -221t-241 -88q-109 0 -181.5 51t-72.5 127q0 43 29 71.5t72 28.5q45 0 75.5 -28.5t30.5 -71.5q0 -45 -29.5 -73.5t-76.5 -28.5q-14 0 -21 2q51 -51 135 -51q88 0 141.5 60.5t53.5 154.5z" />
    <glyph glyph-name="Jcircumflex" unicode="&#x134;" horiz-adv-x="1202" 
d="M954 1855l258 -258l-8 -12l-272 137l-273 -137l-8 12l258 258h45zM838 389v1045h182v-977q0 -223 -136 -350t-354 -127q-199 0 -327.5 96t-128.5 243q0 47 31.5 78t80.5 31q47 0 77 -30.5t30 -78.5q0 -45 -30 -75.5t-77 -30.5q-31 0 -59 14q35 -102 137.5 -162.5
t239.5 -60.5q160 0 247 103.5t87 281.5z" />
    <glyph glyph-name="jcircumflex" unicode="&#x135;" horiz-adv-x="536" 
d="M297 1466l258 -258l-8 -12l-273 137l-272 -137l-8 12l258 258h45zM186 -229v1218l183 45v-1196q0 -133 -97.5 -221t-240.5 -88q-109 0 -181.5 51t-72.5 127q0 43 28.5 71.5t71.5 28.5q45 0 76 -28.5t31 -71.5q0 -45 -30 -73.5t-77 -28.5q-14 0 -20 2q51 -51 135 -51
q88 0 141 60.5t53 154.5z" />
    <glyph glyph-name="uni0136" unicode="&#x136;" horiz-adv-x="1398" 
d="M717 881l659 -881h-213l-573 766l-211 -188v-578h-182v1434h182v-820l909 820h43zM782 -145q49 0 82 -33t33 -86q0 -72 -50 -146.5t-118 -109.5l-10 16q49 27 83 74t42 96q-23 -23 -66 -22q-45 0 -75.5 31.5t-30.5 78.5q0 43 31.5 72t78.5 29z" />
    <glyph glyph-name="uni0137" unicode="&#x137;" horiz-adv-x="1064" 
d="M575 659l492 -659h-211l-410 547l-88 -78v-469h-182v1450l182 45v-991l586 520h43zM612 -145q49 0 82 -33t33 -86q0 -72 -50 -146.5t-118 -109.5l-10 16q49 27 83 74t42 96q-23 -23 -66 -22q-45 0 -75.5 31.5t-30.5 78.5q0 43 31.5 72t78.5 29z" />
    <glyph glyph-name="kgreenlandic" unicode="&#x138;" horiz-adv-x="1064" 
d="M856 0l-412 494l-86 -84v-410h-182v989l182 45v-588l586 578h43l-422 -412l502 -612h-211z" />
    <glyph glyph-name="Lacute" unicode="&#x139;" horiz-adv-x="1226" 
d="M592 1839l-352 -250h-25l127 250h250zM379 20h776v-20h-958v1434h182v-1414z" />
    <glyph glyph-name="lacute" unicode="&#x13a;" horiz-adv-x="532" 
d="M213 1651h-25l127 250h250zM176 0v1450l182 45v-1495h-182z" />
    <glyph glyph-name="uni013B" unicode="&#x13b;" horiz-adv-x="1226" 
d="M379 20h776v-20h-958v1434h182v-1414zM680 -145q49 0 82 -33t33 -86q0 -72 -50.5 -146.5t-117.5 -109.5l-11 16q49 27 83 74t42 96q-23 -23 -65 -22q-45 0 -76 31.5t-31 78.5q0 43 32 72t79 29z" />
    <glyph glyph-name="uni013C" unicode="&#x13c;" horiz-adv-x="532" 
d="M358 1495v-1495h-182v1450zM264 -145q49 0 82 -33t33 -86q0 -72 -50 -146.5t-118 -109.5l-10 16q49 27 82.5 74t42.5 96q-23 -23 -66 -22q-45 0 -75.5 31.5t-30.5 78.5q0 43 31.5 72t78.5 29z" />
    <glyph glyph-name="Lcaron" unicode="&#x13d;" horiz-adv-x="1226" 
d="M379 20h776v-20h-958v1434h182v-1414zM788 1434l-192 -289h-27l41 289h178z" />
    <glyph glyph-name="lcaron" unicode="&#x13e;" horiz-adv-x="698" 
d="M176 0v1450l182 45v-1495h-182zM487 1186l41 289h179l-193 -289h-27z" />
    <glyph glyph-name="Ldot" unicode="&#x13f;" horiz-adv-x="1226" 
d="M379 20h776v-20h-958v1434h182v-1414zM780 600q-49 0 -83.5 34t-34.5 83q0 51 34.5 85t83.5 34q51 0 85 -34t34 -85t-34 -84t-85 -33z" />
    <glyph glyph-name="ldot" unicode="&#x140;" horiz-adv-x="749" 
d="M176 0v1450l182 45v-1495h-182zM590 621q-51 0 -86 32.5t-35 83.5t35 85t86 34q49 0 83 -34t34 -85t-34 -83.5t-83 -32.5z" />
    <glyph glyph-name="Lslash" unicode="&#x141;" horiz-adv-x="1245" 
d="M397 20h777v-20h-959v606l-149 -82l-13 21l162 88v801h182v-703l211 115l13 -21l-224 -120v-685z" />
    <glyph glyph-name="lslash" unicode="&#x142;" horiz-adv-x="641" 
d="M596 879l-184 -101v-778h-183v680l-174 -94l-12 20l186 101v743l183 45v-688l172 92z" />
    <glyph glyph-name="Nacute" unicode="&#x143;" horiz-adv-x="1570" 
d="M1110 1839l-352 -250h-25l127 250h250zM1348 1434h28v-1434h-69l-1082 1294v-1294h-28v1434h141l1010 -1213v1213z" />
    <glyph glyph-name="nacute" unicode="&#x144;" horiz-adv-x="1265" 
d="M946 1450l-352 -250h-25l127 250h250zM748 1044q160 0 263 -99t103 -249v-696h-182v743q0 109 -67.5 181.5t-172.5 72.5q-102 0 -195.5 -61.5t-138.5 -161.5v-774h-182v989l182 45v-205q55 96 160 155.5t230 59.5z" />
    <glyph glyph-name="uni0145" unicode="&#x145;" horiz-adv-x="1570" 
d="M1348 1434h28v-1434h-69l-1082 1294v-1294h-28v1434h141l1010 -1213v1213zM809 -145q49 0 82 -33t33 -86q0 -72 -50.5 -146.5t-117.5 -109.5l-11 16q49 27 83 74t42 96q-23 -23 -65 -22q-45 0 -76 31.5t-31 78.5q0 43 32 72t79 29z" />
    <glyph glyph-name="uni0146" unicode="&#x146;" horiz-adv-x="1265" 
d="M748 1044q160 0 263 -99t103 -249v-696h-182v743q0 109 -67.5 181.5t-172.5 72.5q-102 0 -195.5 -61.5t-138.5 -161.5v-774h-182v989l182 45v-205q55 96 160 155.5t230 59.5zM645 -145q49 0 82 -33t33 -86q0 -72 -50.5 -146.5t-117.5 -109.5l-10 16q49 27 82.5 74
t42.5 96q-23 -23 -66 -22q-45 0 -75.5 31.5t-30.5 78.5q0 43 31.5 72t78.5 29z" />
    <glyph glyph-name="Ncaron" unicode="&#x147;" horiz-adv-x="1570" 
d="M834 1579h-46l-258 258l9 12l272 -135l272 135l9 -12zM1348 1434h28v-1434h-69l-1082 1294v-1294h-28v1434h141l1010 -1213v1213z" />
    <glyph glyph-name="ncaron" unicode="&#x148;" horiz-adv-x="1265" 
d="M670 1190h-45l-258 258l8 12l272 -135l273 135l8 -12zM748 1044q160 0 263 -99t103 -249v-696h-182v743q0 109 -67.5 181.5t-172.5 72.5q-102 0 -195.5 -61.5t-138.5 -161.5v-774h-182v989l182 45v-205q55 96 160 155.5t230 59.5z" />
    <glyph glyph-name="Eng" unicode="&#x14a;" horiz-adv-x="1570" 
d="M1348 1434h28v-1538q0 -119 -68.5 -192t-183.5 -73q-125 0 -184 80l14 17q55 -72 156 -72q84 0 135 56.5t51 148.5v151l-1071 1282v-1294h-28v1434h141l1010 -1213v1213z" />
    <glyph glyph-name="eng" unicode="&#x14b;" horiz-adv-x="1265" 
d="M748 1044q160 0 263 -99t103 -249v-772q0 -123 -91 -208t-220 -85q-143 0 -209 80l14 17q57 -66 154 -66q76 0 123 53.5t47 137.5v890q0 109 -67.5 181.5t-172.5 72.5q-102 0 -195.5 -61.5t-138.5 -161.5v-774h-182v989l182 45v-205q55 96 160 155.5t230 59.5z" />
    <glyph glyph-name="Omacron" unicode="&#x14c;" horiz-adv-x="1697" 
d="M602 1647v86h494v-86h-494zM848 -20q-319 0 -532.5 210.5t-213.5 526t213 526.5t533 211q322 0 534.5 -211t212.5 -526.5t-212.5 -526t-534.5 -210.5zM848 0q252 0 404.5 196.5t152.5 520t-152.5 520.5t-404.5 197q-250 0 -402.5 -197t-152.5 -520.5t152.5 -520
t402.5 -196.5z" />
    <glyph glyph-name="omacron" unicode="&#x14d;" horiz-adv-x="1280" 
d="M393 1257v86h494v-86h-494zM639 -20q-229 0 -384 152.5t-155 379.5t155 379.5t384 152.5q231 0 386 -152.5t155 -379.5t-155 -379.5t-386 -152.5zM639 0q160 0 255 138t95 374t-95 374t-255 138q-158 0 -253 -139.5t-95 -372.5t95 -372.5t253 -139.5z" />
    <glyph glyph-name="Obreve" unicode="&#x14e;" horiz-adv-x="1697" 
d="M849.5 1577q-104.5 0 -184 72.5t-96.5 185.5h25q8 -57 79.5 -94t176 -37t176.5 37t80 94h24q-18 -113 -97 -185.5t-183.5 -72.5zM848 -20q-319 0 -532.5 210.5t-213.5 526t213 526.5t533 211q322 0 534.5 -211t212.5 -526.5t-212.5 -526t-534.5 -210.5zM848 0
q252 0 404.5 196.5t152.5 520t-152.5 520.5t-404.5 197q-250 0 -402.5 -197t-152.5 -520.5t152.5 -520t402.5 -196.5z" />
    <glyph glyph-name="obreve" unicode="&#x14f;" horiz-adv-x="1280" 
d="M641 1188q-104 0 -184 72.5t-97 185.5h25q8 -57 80 -94t176 -37t176 37t80 94h25q-18 -113 -97.5 -185.5t-183.5 -72.5zM639 -20q-229 0 -384 152.5t-155 379.5t155 379.5t384 152.5q231 0 386 -152.5t155 -379.5t-155 -379.5t-386 -152.5zM639 0q160 0 255 138t95 374
t-95 374t-255 138q-158 0 -253 -139.5t-95 -372.5t95 -372.5t253 -139.5z" />
    <glyph glyph-name="Ohungarumlaut" unicode="&#x150;" horiz-adv-x="1697" 
d="M614 1589l131 250h209l-313 -250h-27zM952 1589l133 250h207l-313 -250h-27zM848 -20q-319 0 -532.5 210.5t-213.5 526t213 526.5t533 211q322 0 534.5 -211t212.5 -526.5t-212.5 -526t-534.5 -210.5zM848 0q252 0 404.5 196.5t152.5 520t-152.5 520.5t-404.5 197
q-250 0 -402.5 -197t-152.5 -520.5t152.5 -520t402.5 -196.5z" />
    <glyph glyph-name="ohungarumlaut" unicode="&#x151;" horiz-adv-x="1280" 
d="M406 1200l131 250h208l-313 -250h-26zM743 1200l134 250h206l-313 -250h-27zM639 -20q-229 0 -384 152.5t-155 379.5t155 379.5t384 152.5q231 0 386 -152.5t155 -379.5t-155 -379.5t-386 -152.5zM639 0q160 0 255 138t95 374t-95 374t-255 138q-158 0 -253 -139.5
t-95 -372.5t95 -372.5t253 -139.5z" />
    <glyph glyph-name="OE" unicode="&#x152;" horiz-adv-x="2318" 
d="M1454 20h782v-20h-964q-147 -20 -340 -20q-362 0 -596 209.5t-234 527t233.5 527.5t596.5 210q193 0 340 -20h944v-21h-762v-676h598v-20h-598v-697zM940 0q211 0 332 72v1290q-113 72 -332 72q-297 0 -472 -196t-175 -521.5t176 -521t471 -195.5z" />
    <glyph glyph-name="oe" unicode="&#x153;" horiz-adv-x="2105" 
d="M1882 354q45 0 74 -31.5t29 -72.5q0 -115 -126 -192.5t-300 -77.5q-156 0 -280 67.5t-194 183.5q-68 -117 -185.5 -184t-262.5 -67q-227 0 -382 152.5t-155 379.5t155 379.5t382 152.5q145 0 262 -66.5t186 -182.5q68 117 182.5 183t254.5 66q211 0 347 -140t136 -347
h-825v-25q0 -246 108.5 -385t298.5 -139q111 0 199 38t127 106q-16 -6 -35 -7q-43 0 -73.5 30t-30.5 75t30.5 74.5t77.5 29.5zM639 0q160 0 255 138t95 374t-95 374t-255 138q-158 0 -253 -139.5t-95 -372.5t95 -372.5t253 -139.5zM1518 1024q-141 0 -233.5 -124
t-102.5 -322h641q-4 205 -85 325.5t-220 120.5z" />
    <glyph glyph-name="Racute" unicode="&#x154;" horiz-adv-x="1400" 
d="M1018 1839l-352 -250h-25l127 250h250zM1253 156q55 -102 131 -156h-208q-63 45 -107 119l-227 399q-51 84 -125 107h-338v-625h-182v1434h563q223 0 371.5 -117t148.5 -291q0 -160 -129 -271.5t-328 -127.5q174 -31 234 -138zM379 1413v-768h346q164 0 264.5 103.5
t100.5 275.5q0 176 -100.5 282.5t-264.5 106.5h-346z" />
    <glyph glyph-name="racute" unicode="&#x155;" horiz-adv-x="948" 
d="M838 1450l-353 -250h-24l127 250h250zM897 854q0 -45 -29.5 -74.5t-72.5 -29.5q-47 0 -78 29.5t-31 74.5t31 74.5t78 29.5q12 0 16 -2q-53 63 -151.5 63.5t-179.5 -66t-122 -177.5v-776h-182v989l182 45v-203q43 96 124 154.5t181.5 58.5t167 -54t66.5 -136z" />
    <glyph glyph-name="uni0156" unicode="&#x156;" horiz-adv-x="1400" 
d="M1253 156q55 -102 131 -156h-208q-63 45 -107 119l-227 399q-51 84 -125 107h-338v-625h-182v1434h563q223 0 371.5 -117t148.5 -291q0 -160 -129 -271.5t-328 -127.5q174 -31 234 -138zM379 1413v-768h346q164 0 264.5 103.5t100.5 275.5q0 176 -100.5 282.5
t-264.5 106.5h-346zM768 -145q49 0 82 -33t33 -86q0 -72 -50.5 -146.5t-117.5 -109.5l-10 16q49 27 82.5 74t41.5 96q-23 -23 -65 -22q-45 0 -76 31.5t-31 78.5q0 43 32 72t79 29z" />
    <glyph glyph-name="uni0157" unicode="&#x157;" horiz-adv-x="948" 
d="M897 854q0 -45 -29.5 -74.5t-72.5 -29.5q-47 0 -78 29.5t-31 74.5t31 74.5t78 29.5q12 0 16 -2q-53 63 -151.5 63.5t-179.5 -66t-122 -177.5v-776h-182v989l182 45v-203q43 96 124 154.5t181.5 58.5t167 -54t66.5 -136zM268 -145q49 0 82 -33t33 -86q0 -72 -50 -146.5
t-118 -109.5l-10 16q49 27 83 74t42 96q-23 -23 -66 -22q-45 0 -75.5 31.5t-30.5 78.5q0 43 31.5 72t78.5 29z" />
    <glyph glyph-name="Rcaron" unicode="&#x158;" horiz-adv-x="1400" 
d="M741 1579h-45l-258 258l8 12l273 -135l272 135l8 -12zM1253 156q55 -102 131 -156h-208q-63 45 -107 119l-227 399q-51 84 -125 107h-338v-625h-182v1434h563q223 0 371.5 -117t148.5 -291q0 -160 -129 -271.5t-328 -127.5q174 -31 234 -138zM379 1413v-768h346
q164 0 264.5 103.5t100.5 275.5q0 176 -100.5 282.5t-264.5 106.5h-346z" />
    <glyph glyph-name="rcaron" unicode="&#x159;" horiz-adv-x="948" 
d="M561 1190h-45l-258 258l8 12l273 -135l272 135l8 -12zM897 854q0 -45 -29.5 -74.5t-72.5 -29.5q-47 0 -78 29.5t-31 74.5t31 74.5t78 29.5q12 0 16 -2q-53 63 -151.5 63.5t-179.5 -66t-122 -177.5v-776h-182v989l182 45v-203q43 96 124 154.5t181.5 58.5t167 -54
t66.5 -136z" />
    <glyph glyph-name="Sacute" unicode="&#x15a;" horiz-adv-x="1251" 
d="M934 1839l-352 -250h-25l127 250h250zM692 795q117 -43 177.5 -72t138 -80t112.5 -116.5t35 -153.5q0 -178 -145.5 -285.5t-374.5 -107.5q-221 0 -372.5 95t-151.5 236q0 45 29.5 73t76.5 28q41 0 69.5 -28t28.5 -73t-28.5 -73.5t-69.5 -28.5q-23 0 -41 6
q43 -94 163 -153.5t273 -59.5q172 0 285 82t113 207q0 63 -30 114.5t-96.5 93.5t-124 68.5t-159.5 67.5q-82 33 -129 53.5t-118.5 62.5t-110.5 81.5t-69 101t-30 133.5q0 170 140.5 278.5t355.5 108.5q195 0 328 -89t133 -220q0 -43 -28 -72t-71 -29q-47 0 -76.5 28
t-29.5 73t29.5 73.5t76.5 28.5q20 0 35 -6q-41 86 -143 138.5t-238 52.5q-158 0 -264 -84t-106 -207q0 -53 24.5 -99.5t58 -79t95 -65.5t107.5 -53t122 -49z" />
    <glyph glyph-name="sacute" unicode="&#x15b;" horiz-adv-x="980" 
d="M795 1450l-353 -250h-24l127 250h250zM549 596q82 -35 124 -55.5t103.5 -61.5t89 -93t27.5 -118q0 -129 -105.5 -208.5t-285.5 -79.5q-168 0 -285 64.5t-117 160.5q0 43 29 70.5t74 27.5q41 0 67.5 -27.5t26.5 -70.5t-26.5 -71t-67.5 -28q-12 0 -19 3q94 -106 301 -107
q123 0 198 53.5t75 137.5q0 78 -70 128t-217 111q-66 29 -95.5 42t-89 47t-87 63.5t-52 77t-24.5 100.5q0 127 107.5 204.5t277.5 77.5q145 0 245.5 -56t106.5 -140v-6q0 -43 -27.5 -71t-68.5 -28q-45 0 -73.5 28t-28.5 71t28.5 70.5t73.5 27.5h10q-86 82 -252 82
q-115 0 -189.5 -53.5t-74.5 -134.5q0 -80 72 -130.5t219 -107.5z" />
    <glyph glyph-name="Scircumflex" unicode="&#x15c;" horiz-adv-x="1251" 
d="M635 1722l-273 -137l-8 12l258 258h45l258 -258l-8 -12zM692 795q117 -43 177.5 -72t138 -80t112.5 -116.5t35 -153.5q0 -178 -145.5 -285.5t-374.5 -107.5q-221 0 -372.5 95t-151.5 236q0 45 29.5 73t76.5 28q41 0 69.5 -28t28.5 -73t-28.5 -73.5t-69.5 -28.5
q-23 0 -41 6q43 -94 163 -153.5t273 -59.5q172 0 285 82t113 207q0 63 -30 114.5t-96.5 93.5t-124 68.5t-159.5 67.5q-82 33 -129 53.5t-118.5 62.5t-110.5 81.5t-69 101t-30 133.5q0 170 140.5 278.5t355.5 108.5q195 0 328 -89t133 -220q0 -43 -28 -72t-71 -29
q-47 0 -76.5 28t-29.5 73t29.5 73.5t76.5 28.5q20 0 35 -6q-41 86 -143 138.5t-238 52.5q-158 0 -264 -84t-106 -207q0 -53 24.5 -99.5t58 -79t95 -65.5t107.5 -53t122 -49z" />
    <glyph glyph-name="scircumflex" unicode="&#x15d;" horiz-adv-x="980" 
d="M498 1333l-273 -137l-8 12l258 258h45l258 -258l-8 -12zM549 596q82 -35 124 -55.5t103.5 -61.5t89 -93t27.5 -118q0 -129 -105.5 -208.5t-285.5 -79.5q-168 0 -285 64.5t-117 160.5q0 43 29 70.5t74 27.5q41 0 67.5 -27.5t26.5 -70.5t-26.5 -71t-67.5 -28q-12 0 -19 3
q94 -106 301 -107q123 0 198 53.5t75 137.5q0 78 -70 128t-217 111q-66 29 -95.5 42t-89 47t-87 63.5t-52 77t-24.5 100.5q0 127 107.5 204.5t277.5 77.5q145 0 245.5 -56t106.5 -140v-6q0 -43 -27.5 -71t-68.5 -28q-45 0 -73.5 28t-28.5 71t28.5 70.5t73.5 27.5h10
q-86 82 -252 82q-115 0 -189.5 -53.5t-74.5 -134.5q0 -80 72 -130.5t219 -107.5z" />
    <glyph glyph-name="Scedilla" unicode="&#x15e;" horiz-adv-x="1251" 
d="M1155 373q0 -172 -136 -278.5t-355 -114.5l-68 -109q33 16 76 16q76 0 126 -45t50 -114q0 -72 -60.5 -119t-150.5 -47q-111 0 -172 67l14 19q49 -59 129 -60q51 0 85 40t34 102q0 57 -28.5 94t-69.5 37q-45 0 -70 -43l-16 4l92 158q-221 0 -372.5 95t-151.5 236
q0 45 29.5 73t76.5 28q41 0 69.5 -28t28.5 -73t-28.5 -73.5t-69.5 -28.5q-23 0 -41 6q43 -94 163 -153.5t273 -59.5q172 0 285 82t113 207q0 63 -30 114.5t-96.5 93.5t-124 68.5t-159.5 67.5q-82 33 -129 53.5t-118.5 62.5t-110.5 81.5t-69 101t-30 133.5q0 170 140.5 278.5
t355.5 108.5q195 0 328 -89t133 -220q0 -43 -28 -72t-71 -29q-47 0 -76.5 28t-29.5 73t29.5 73.5t76.5 28.5q20 0 35 -6q-41 86 -143 138.5t-238 52.5q-158 0 -264 -84t-106 -207q0 -53 24.5 -99.5t58 -79t95 -65.5t107.5 -53.5t122 -48.5q117 -43 177.5 -72t138 -80
t112.5 -116.5t35 -153.5z" />
    <glyph glyph-name="scedilla" unicode="&#x15f;" horiz-adv-x="980" 
d="M893 268q0 -127 -102.5 -206.5t-276.5 -81.5l-68 -109q33 16 76 16q76 0 126 -45t50 -114q0 -72 -60 -119t-151 -47q-111 0 -172 67l15 19q49 -59 129 -60q51 0 85 40t34 102q0 57 -29 94t-70 37q-45 0 -69 -43l-17 4l92 158q-162 4 -273.5 68.5t-111.5 156.5
q0 43 29 70.5t74 27.5q41 0 67.5 -27.5t26.5 -70.5t-26.5 -71t-67.5 -28q-12 0 -19 3q94 -106 301 -107q123 0 198 53.5t75 137.5q0 78 -70 128t-217 111q-66 29 -95.5 42t-89 47t-87 63.5t-52 77t-24.5 100.5q0 127 107.5 204.5t277.5 77.5q145 0 245.5 -56t106.5 -140v-6
q0 -43 -27.5 -71t-68.5 -28q-45 0 -73.5 28t-28.5 71t28.5 70.5t73.5 27.5h10q-86 82 -252 82q-115 0 -189.5 -53.5t-74.5 -134.5q0 -80 71.5 -130.5t219.5 -107.5q82 -35 124 -55.5t103.5 -61.5t89 -93t27.5 -118z" />
    <glyph glyph-name="Scaron" unicode="&#x160;" horiz-adv-x="1251" 
d="M657 1579h-45l-258 258l8 12l273 -135l272 135l8 -12zM692 795q117 -43 177.5 -72t138 -80t112.5 -116.5t35 -153.5q0 -178 -145.5 -285.5t-374.5 -107.5q-221 0 -372.5 95t-151.5 236q0 45 29.5 73t76.5 28q41 0 69.5 -28t28.5 -73t-28.5 -73.5t-69.5 -28.5q-23 0 -41 6
q43 -94 163 -153.5t273 -59.5q172 0 285 82t113 207q0 63 -30 114.5t-96.5 93.5t-124 68.5t-159.5 67.5q-82 33 -129 53.5t-118.5 62.5t-110.5 81.5t-69 101t-30 133.5q0 170 140.5 278.5t355.5 108.5q195 0 328 -89t133 -220q0 -43 -28 -72t-71 -29q-47 0 -76.5 28
t-29.5 73t29.5 73.5t76.5 28.5q20 0 35 -6q-41 86 -143 138.5t-238 52.5q-158 0 -264 -84t-106 -207q0 -53 24.5 -99.5t58 -79t95 -65.5t107.5 -53t122 -49z" />
    <glyph glyph-name="scaron" unicode="&#x161;" horiz-adv-x="980" 
d="M520 1190h-45l-258 258l8 12l273 -135l272 135l8 -12zM549 596q82 -35 124 -55.5t103.5 -61.5t89 -93t27.5 -118q0 -129 -105.5 -208.5t-285.5 -79.5q-168 0 -285 64.5t-117 160.5q0 43 29 70.5t74 27.5q41 0 67.5 -27.5t26.5 -70.5t-26.5 -71t-67.5 -28q-12 0 -19 3
q94 -106 301 -107q123 0 198 53.5t75 137.5q0 78 -70 128t-217 111q-66 29 -95.5 42t-89 47t-87 63.5t-52 77t-24.5 100.5q0 127 107.5 204.5t277.5 77.5q145 0 245.5 -56t106.5 -140v-6q0 -43 -27.5 -71t-68.5 -28q-45 0 -73.5 28t-28.5 71t28.5 70.5t73.5 27.5h10
q-86 82 -252 82q-115 0 -189.5 -53.5t-74.5 -134.5q0 -80 72 -130.5t219 -107.5z" />
    <glyph glyph-name="uni0162" unicode="&#x162;" horiz-adv-x="1259" 
d="M1204 1434v-21h-481v-1413h-182v1413h-486v21h1149zM649 -113q76 0 126 -45t50 -114q0 -72 -60 -119t-151 -47q-111 0 -172 67l15 19q49 -59 129 -60q51 0 85 40t34 102q0 57 -29 94t-70 37q-45 0 -69 -43l-17 4l101 172h28l-76 -123q33 16 76 16z" />
    <glyph glyph-name="uni0163" unicode="&#x163;" horiz-adv-x="774" 
d="M494 -20q-29 0 -43 2l-68 -111q33 16 76 16q76 0 126 -45t50 -114q0 -72 -60.5 -119t-150.5 -47q-111 0 -172 67l14 19q49 -59 129 -60q51 0 85 40t34 102q0 57 -28.5 94t-69.5 37q-45 0 -70 -43l-16 4l96 164q-100 20 -163.5 88.5t-63.5 163.5v766h-131v20h131v231
l182 50v-281h311v-20h-311v-809q0 -76 49 -128.5t121 -52.5q53 0 104.5 34t67.5 83l22 -12q-20 -59 -91.5 -99t-159.5 -40z" />
    <glyph glyph-name="Tcaron" unicode="&#x164;" horiz-adv-x="1259" 
d="M653 1579h-45l-258 258l8 12l273 -135l272 135l8 -12zM1204 1434v-21h-481v-1413h-182v1413h-486v21h1149z" />
    <glyph glyph-name="tcaron" unicode="&#x165;" horiz-adv-x="774" 
d="M762 1483l-193 -289h-26l41 289h178zM551 14q53 0 104.5 34t67.5 83l22 -12q-20 -59 -91.5 -99t-159.5 -40q-125 0 -210 73.5t-85 184.5v766h-131v20h131v231l182 50v-281h311v-20h-311v-809q0 -76 49 -128.5t121 -52.5z" />
    <glyph glyph-name="Tbar" unicode="&#x166;" horiz-adv-x="1259" 
d="M1204 1413h-481v-686h186v-20h-186v-707h-182v707h-193v20h193v686h-486v21h1149v-21z" />
    <glyph glyph-name="tbar" unicode="&#x167;" horiz-adv-x="774" 
d="M723 131l22 -12q-20 -59 -91.5 -99t-159.5 -40q-125 0 -210 73.5t-85 184.5v366h-121v21h121v379h-131v20h131v231l182 50v-281h311v-20h-311v-379h258v-21h-258v-409q0 -76 49 -128.5t121 -52.5q53 0 104.5 34t67.5 83z" />
    <glyph glyph-name="Utilde" unicode="&#x168;" horiz-adv-x="1558" 
d="M926 1597q-74 0 -168 84q-59 49 -121 50q-43 0 -78 -34t-39 -89h-22q0 102 52 167.5t134 65.5q70 0 166 -80q63 -53 123 -53q45 0 79.5 34t39.5 89h22q0 -102 -53 -168t-135 -66zM807 -20q-276 0 -450.5 161.5t-174.5 425.5v867h183v-899q0 -231 134 -370.5t353 -139.5
q227 0 361.5 138t134.5 372v899h28v-902q0 -252 -152.5 -402t-416.5 -150z" />
    <glyph glyph-name="utilde" unicode="&#x169;" horiz-adv-x="1259" 
d="M455 1341q-43 0 -78 -33.5t-39 -88.5h-23q0 102 52.5 167.5t134.5 65.5q70 0 166 -80q63 -53 123 -53q45 0 79.5 33.5t38.5 89.5h23q0 -102 -53.5 -168t-135.5 -66q-74 0 -168 84q-59 49 -120 49zM901 989l182 45v-1034h-182v195q-55 -96 -157.5 -155.5t-223.5 -59.5
q-156 0 -259 99t-103 249v661l182 45v-755q0 -109 65.5 -180.5t169.5 -71.5q96 0 188.5 61.5t137.5 159.5v741z" />
    <glyph glyph-name="Umacron" unicode="&#x16a;" horiz-adv-x="1558" 
d="M559 1647v86h494v-86h-494zM807 -20q-276 0 -450.5 161.5t-174.5 425.5v867h183v-899q0 -231 134 -370.5t353 -139.5q227 0 361.5 138t134.5 372v899h28v-902q0 -252 -152.5 -402t-416.5 -150z" />
    <glyph glyph-name="umacron" unicode="&#x16b;" horiz-adv-x="1259" 
d="M868 1343v-86h-493v86h493zM901 989l182 45v-1034h-182v195q-55 -96 -157.5 -155.5t-223.5 -59.5q-156 0 -259 99t-103 249v661l182 45v-755q0 -109 65.5 -180.5t169.5 -71.5q96 0 188.5 61.5t137.5 159.5v741z" />
    <glyph glyph-name="Ubreve" unicode="&#x16c;" horiz-adv-x="1558" 
d="M806.5 1577q-104.5 0 -184 72.5t-96.5 185.5h25q8 -57 79.5 -94t176 -37t176.5 37t80 94h24q-18 -113 -97 -185.5t-183.5 -72.5zM807 -20q-276 0 -450.5 161.5t-174.5 425.5v867h183v-899q0 -231 134 -370.5t353 -139.5q227 0 361.5 138t134.5 372v899h28v-902
q0 -252 -152.5 -402t-416.5 -150z" />
    <glyph glyph-name="ubreve" unicode="&#x16d;" horiz-adv-x="1259" 
d="M624.5 1188q-104.5 0 -184.5 72.5t-96 185.5h25q8 -57 79.5 -94t176 -37t176 37t80.5 94h24q-18 -113 -97 -185.5t-183.5 -72.5zM901 989l182 45v-1034h-182v195q-55 -96 -157.5 -155.5t-223.5 -59.5q-156 0 -259 99t-103 249v661l182 45v-755q0 -109 65.5 -180.5
t169.5 -71.5q96 0 188.5 61.5t137.5 159.5v741z" />
    <glyph glyph-name="Uring" unicode="&#x16e;" horiz-adv-x="1558" 
d="M809 1554q-72 0 -119 45.5t-47 112.5q0 70 47 116t119 46q70 0 115 -46t45 -116q0 -68 -45 -113t-115 -45zM809 1573q59 0 97 38t38 101.5t-38 103t-97 39.5q-63 0 -102 -39.5t-39 -103t39 -101.5t102 -38zM807 -20q-276 0 -450.5 161.5t-174.5 425.5v867h183v-899
q0 -231 134 -370.5t353 -139.5q227 0 361.5 138t134.5 372v899h28v-902q0 -252 -152.5 -402t-416.5 -150z" />
    <glyph glyph-name="uring" unicode="&#x16f;" horiz-adv-x="1259" 
d="M627 1165q-72 0 -119 45t-47 113q0 70 47 116t119 46q70 0 114.5 -46t44.5 -116q0 -68 -44.5 -113t-114.5 -45zM627 1466q-63 0 -102.5 -40t-39.5 -103t39 -101t103 -38q59 0 97 38t38 101t-38 103t-97 40zM901 989l182 45v-1034h-182v195q-55 -96 -157.5 -155.5
t-223.5 -59.5q-156 0 -259 99t-103 249v661l182 45v-755q0 -109 65.5 -180.5t169.5 -71.5q96 0 188.5 61.5t137.5 159.5v741z" />
    <glyph glyph-name="Uhungarumlaut" unicode="&#x170;" horiz-adv-x="1558" 
d="M571 1589l131 250h209l-313 -250h-27zM909 1589l133 250h207l-313 -250h-27zM807 -20q-276 0 -450.5 161.5t-174.5 425.5v867h183v-899q0 -231 134 -370.5t353 -139.5q227 0 361.5 138t134.5 372v899h28v-902q0 -252 -152.5 -402t-416.5 -150z" />
    <glyph glyph-name="uhungarumlaut" unicode="&#x171;" horiz-adv-x="1259" 
d="M729 1450l-313 -250h-27l131 250h209zM754 1200h-27l133 250h207zM901 989l182 45v-1034h-182v195q-55 -96 -157.5 -155.5t-223.5 -59.5q-156 0 -259 99t-103 249v661l182 45v-755q0 -109 65.5 -180.5t169.5 -71.5q96 0 188.5 61.5t137.5 159.5v741z" />
    <glyph glyph-name="Uogonek" unicode="&#x172;" horiz-adv-x="1558" 
d="M1348 1434h28v-902q0 -213 -110.5 -356t-309.5 -182q-90 -53 -143 -122t-53 -136q0 -63 33.5 -102.5t89.5 -39.5q63 0 106 50l17 -15q-57 -68 -172 -67q-84 0 -141.5 46t-57.5 113.5t72.5 140t189.5 122.5q-57 -4 -90 -4q-276 0 -450.5 161.5t-174.5 425.5v867h183v-899
q0 -231 134 -370.5t353 -139.5q227 0 361.5 138t134.5 372v899z" />
    <glyph glyph-name="uogonek" unicode="&#x173;" horiz-adv-x="1259" 
d="M1104 -356l16 -15q-57 -68 -172 -67q-84 0 -141 46t-57 113q0 74 85 153t216 126h-150v195q-55 -96 -157.5 -155.5t-223.5 -59.5q-156 0 -259 99t-103 249v661l182 45v-755q0 -109 65.5 -180.5t169.5 -71.5q96 0 188.5 61.5t137.5 159.5v741l182 45v-1034h-2
q-94 -53 -150.5 -124t-56.5 -140q0 -63 34 -102.5t89 -39.5q64 1 107 50z" />
    <glyph glyph-name="Wcircumflex" unicode="&#x174;" horiz-adv-x="2277" 
d="M1147 1722l-273 -137l-8 12l258 258h45l258 -258l-8 -12zM2187 1434h29l-629 -1434h-80l-368 844l-371 -844h-80l-627 1434h191l557 -1278l315 721l-243 557h190l559 -1278z" />
    <glyph glyph-name="wcircumflex" unicode="&#x175;" horiz-adv-x="1658" 
d="M838 1333l-273 -137l-8 12l258 258h45l258 -258l-8 -12zM1604 1024h28l-448 -1024h-82l-268 614l-271 -614h-80l-448 1024h188l379 -870l217 493l-166 377h191l381 -870z" />
    <glyph glyph-name="Ycircumflex" unicode="&#x176;" horiz-adv-x="1390" 
d="M696 1722l-272 -137l-8 12l258 258h45l258 -258l-8 -12zM1298 1434h31l-543 -820v-614h-182v614l-543 820h203l518 -783z" />
    <glyph glyph-name="ycircumflex" unicode="&#x177;" horiz-adv-x="1044" 
d="M545 1333l-273 -137l-8 12l258 258h45l258 -258l-8 -12zM989 1024h29l-600 -1368q-55 -127 -193 -127q-68 0 -118 43t-50 100q0 45 31 75t78 30q45 0 73.5 -30t28.5 -75t-28.5 -74.5t-73.5 -29.5h-14q35 -23 73 -23q51 0 98.5 29t73.5 86l121 281l-475 1083h190l377 -870
z" />
    <glyph glyph-name="Ydieresis" unicode="&#x178;" horiz-adv-x="1390" 
d="M500 1583q-45 0 -75 27.5t-30 70.5q0 45 31 75t76 30q43 0 71.5 -30t28.5 -73q0 -45 -28.5 -72.5t-73.5 -27.5zM891 1583q-45 0 -75 27.5t-30 72.5q0 43 31 73t76 30q43 0 71.5 -30t28.5 -73q0 -45 -28.5 -72.5t-73.5 -27.5zM1298 1434h31l-543 -820v-614h-182v614
l-543 820h203l518 -783z" />
    <glyph glyph-name="Zacute" unicode="&#x179;" horiz-adv-x="1300" 
d="M985 1839l-352 -250h-25l127 250h250zM1202 1434v-33l-913 -1381h911v-20h-1102v33l914 1380h-885v21h1075z" />
    <glyph glyph-name="zacute" unicode="&#x17a;" horiz-adv-x="999" 
d="M821 1450l-352 -250h-25l127 250h250zM911 1024v-33l-628 -971h624v-20h-815v33l629 971h-598v20h788z" />
    <glyph glyph-name="Zdotaccent" unicode="&#x17b;" horiz-adv-x="1300" 
d="M684 1577q-45 0 -78 29.5t-33 76.5q0 45 33 77t80 32q45 0 76 -30.5t31 -78t-31 -77t-78 -29.5zM1202 1434v-33l-913 -1381h911v-20h-1102v33l914 1380h-885v21h1075z" />
    <glyph glyph-name="zdotaccent" unicode="&#x17c;" horiz-adv-x="999" 
d="M522 1188q-45 0 -77.5 29.5t-32.5 76.5q0 45 32.5 77t79.5 32q45 0 76 -31t31 -78t-31 -76.5t-78 -29.5zM911 1024v-33l-628 -971h624v-20h-815v33l629 971h-598v20h788z" />
    <glyph glyph-name="Zcaron" unicode="&#x17d;" horiz-adv-x="1300" 
d="M709 1579h-45l-258 258l8 12l272 -135l272 135l9 -12zM1202 1434v-33l-913 -1381h911v-20h-1102v33l914 1380h-885v21h1075z" />
    <glyph glyph-name="zcaron" unicode="&#x17e;" horiz-adv-x="999" 
d="M547 1190h-45l-258 258l8 12l272 -135l273 135l8 -12zM911 1024v-33l-628 -971h624v-20h-815v33l629 971h-598v20h788z" />
    <glyph glyph-name="florin" unicode="&#x192;" horiz-adv-x="1241" 
d="M1176 1268q0 -43 -29 -72t-70 -29q-45 0 -74.5 29t-29.5 72q0 45 29.5 72.5t74.5 27.5q10 0 31 -4q-51 61 -139 61q-74 0 -127.5 -59t-65.5 -149l-57 -408h227l-4 -21h-227l-117 -831q-18 -131 -116.5 -218t-231.5 -87q-104 0 -174 53t-70 133q0 43 28.5 72t69.5 29
q45 0 75 -29t30 -72q0 -45 -28.5 -72.5t-76.5 -27.5q-10 0 -30 4q51 -61 139 -61q76 0 129 58t66 150l124 899h-135l4 21h136l47 340q18 131 116.5 218t231.5 87q104 0 174 -53t70 -133z" />
    <glyph glyph-name="uni01C4" unicode="&#x1c4;" horiz-adv-x="2820" 
d="M2226 1579h-43l-258 258l8 12l271 -135l272 135l8 -12zM729 1434q328 0 547 -206t219 -511t-219 -511t-547 -206h-532v1434h532zM2722 1434v-33l-914 -1381h912v-20h-1102v33l913 1380h-884v21h1075zM702 20q272 0 437.5 190.5t165.5 506t-165 506t-438 190.5h-323v-1393
h323z" />
    <glyph glyph-name="uni01C5" unicode="&#x1c5;" horiz-adv-x="2603" 
d="M2148 1190h-43l-258 258l8 12l271 -135l272 135l8 -12zM729 1434q328 0 547 -206t219 -511t-219 -511t-547 -206h-532v1434h532zM702 20q272 0 437.5 190.5t165.5 506t-165 506t-438 190.5h-323v-1393h323zM2515 1024v-33l-629 -971h625v-20h-815v33l628 971h-598v20h789
z" />
    <glyph glyph-name="uni01C6" unicode="&#x1c6;" horiz-adv-x="2297" 
d="M940 862v588l182 45v-1495h-182v145q-61 -76 -153.5 -120.5t-196.5 -44.5q-205 0 -347.5 153.5t-142.5 378.5t143.5 378.5t344.5 153.5q109 0 202 -49t150 -133zM1843 1190h-43l-258 258l8 12l271 -135l272 135l8 -12zM2210 1024v-33l-629 -971h625v-20h-815v33l628 971
h-598v20h789zM635 18q193 0 305 175v626q-115 186 -307 187q-154 0 -248 -135.5t-94 -358.5q0 -225 94 -359.5t250 -134.5z" />
    <glyph glyph-name="uni01C7" unicode="&#x1c7;" horiz-adv-x="2408" 
d="M379 1434v-1414h776v-20h-958v1434h182zM2044 1434h182v-977q0 -223 -136 -350t-353 -127q-199 0 -328 96t-129 243q0 47 31.5 78t81.5 31q47 0 76.5 -30.5t29.5 -78.5q0 -45 -30.5 -75.5t-75.5 -30.5q-31 0 -60 14q35 -102 137.5 -162.5t239.5 -60.5q160 0 247 103.5
t87 281.5v1045z" />
    <glyph glyph-name="uni01C8" unicode="&#x1c8;" horiz-adv-x="1810" 
d="M1548 1214q-51 0 -83.5 33t-32.5 80q0 49 32.5 81t83.5 32q47 0 78 -32t31 -81q0 -47 -32 -80t-77 -33zM1155 20v-20h-958v1434h182v-1414h776zM1454 -229v1218l182 45v-1196q0 -133 -97 -221t-241 -88q-109 0 -181.5 51t-72.5 127q0 43 29 71.5t72 28.5q45 0 75.5 -28.5
t30.5 -71.5q0 -45 -29.5 -73.5t-76.5 -28.5q-14 0 -21 2q51 -51 136 -51q88 0 141 60.5t53 154.5z" />
    <glyph glyph-name="uni01C9" unicode="&#x1c9;" horiz-adv-x="1077" 
d="M358 1495v-1495h-182v1450zM813 1214q-51 0 -84 33t-33 80q0 49 33 81t84 32q47 0 78 -32t31 -81q0 -47 -32 -80t-77 -33zM719 -229v1218l182 45v-1196q0 -133 -97 -221t-241 -88q-109 0 -181.5 51t-72.5 127q0 43 29 71.5t72 28.5q45 0 75.5 -28.5t30.5 -71.5
q0 -45 -29.5 -73.5t-76.5 -28.5q-14 0 -21 2q51 -51 135 -51q88 0 141.5 60.5t53.5 154.5z" />
    <glyph glyph-name="uni01CA" unicode="&#x1ca;" horiz-adv-x="2772" 
d="M1348 221v1213h28v-1434h-69l-1082 1294v-1294h-28v1434h141zM2408 1434h183v-977q0 -223 -136.5 -350t-353.5 -127q-199 0 -327.5 96t-128.5 243q0 47 31.5 78t80.5 31q47 0 77 -30.5t30 -78.5q0 -45 -31 -75.5t-76 -30.5q-31 0 -59 14q35 -102 137 -162.5t240 -60.5
q160 0 246.5 103.5t86.5 281.5v1045z" />
    <glyph glyph-name="uni01CB" unicode="&#x1cb;" horiz-adv-x="2119" 
d="M1855 1214q-51 0 -83.5 33t-32.5 80q0 49 32.5 81t83.5 32q47 0 78 -32t31 -81q0 -47 -32 -80t-77 -33zM1376 0h-69l-1082 1294v-1294h-28v1434h141l1010 -1213v1213h28v-1434zM1761 -229v1218l183 45v-1196q0 -133 -97.5 -221t-240.5 -88q-109 0 -181.5 51t-72.5 127
q0 43 28.5 71.5t71.5 28.5q45 0 76 -28.5t31 -71.5q0 -45 -30 -73.5t-77 -28.5q-14 0 -20 2q51 -51 135 -51q88 0 141 60.5t53 154.5z" />
    <glyph glyph-name="uni01CC" unicode="&#x1cc;" horiz-adv-x="1810" 
d="M1546 1214q-51 0 -83.5 33t-32.5 80q0 49 32.5 81t83.5 32q47 0 78 -32t31 -81q0 -47 -32 -80t-77 -33zM1114 0h-182v743q0 109 -67.5 181.5t-172.5 72.5q-102 0 -195.5 -61.5t-138.5 -161.5v-774h-182v989l182 45v-205q55 96 160 155.5t230 59.5q160 0 263 -99t103 -249
v-696zM1452 -229v1218l182 45v-1196q0 -133 -97 -221t-241 -88q-109 0 -181.5 51t-72.5 127q0 43 29 71.5t72 28.5q45 0 75.5 -28.5t30.5 -71.5q0 -45 -29.5 -73.5t-76.5 -28.5q-14 0 -21 2q51 -51 135 -51q88 0 141.5 60.5t53.5 154.5z" />
    <glyph glyph-name="uni01CD" unicode="&#x1cd;" horiz-adv-x="1458" 
d="M754 1579h-45l-258 258l8 12l272 -135l273 135l8 -12zM1206 0l-188 434h-739l-189 -434h-29l629 1434h80l627 -1434h-191zM289 455h719l-359 825z" />
    <glyph glyph-name="uni01CE" unicode="&#x1ce;" horiz-adv-x="1185" 
d="M621 1190h-46l-258 258l9 12l272 -135l272 135l9 -12zM578 1044q201 0 328.5 -102t127.5 -258v-684h-182v152q-63 -78 -170 -125t-217 -47q-152 0 -257.5 82.5t-105.5 205.5q0 129 122 213t313 84q211 0 315 -67v241q0 125 -86 203t-227 78q-88 0 -165 -33t-118 -86
q8 2 25 2q43 0 72.5 -29.5t29.5 -74.5t-29.5 -75t-72.5 -30q-47 0 -79 30t-32 75q0 104 120 174.5t288 70.5zM539 33q92 0 176 42t137 113v283q-88 63 -260 64q-143 0 -221 -67t-78 -185q0 -111 67.5 -180.5t178.5 -69.5z" />
    <glyph glyph-name="Gcaron" unicode="&#x1e6;" horiz-adv-x="1617" 
d="M885 1579h-45l-258 258l8 12l272 -135l273 135l8 -12zM1280 606h178v-606h-20l-117 145q-63 -76 -185 -120.5t-272 -44.5q-324 0 -543 210.5t-219 526t219.5 526.5t552.5 211q231 0 387 -100.5t156 -249.5q0 -47 -29.5 -78t-74.5 -31q-49 0 -81 31t-32 78t32 77.5
t81 30.5q25 0 41 -8q-41 102 -160 161.5t-285 59.5q-285 0 -450.5 -192.5t-165.5 -521.5q0 -319 160.5 -514t431.5 -195q145 0 249.5 56.5t145.5 154.5v393z" />
    <glyph glyph-name="gcaron" unicode="&#x1e7;" horiz-adv-x="1290" 
d="M664 1190h-46l-258 258l9 12l272 -135l272 135l9 -12zM940 989l182 45v-1104q0 -172 -140 -286.5t-357 -114.5q-180 0 -304 76t-124 186q0 45 30.5 74t77.5 29q43 0 72 -29t29 -74t-29 -73.5t-72 -28.5q-23 0 -37 6q41 -66 128 -103.5t194 -37.5q154 0 252 91t98 230v270
q-61 -76 -153.5 -120.5t-196.5 -44.5q-205 0 -347.5 153.5t-142.5 378.5t143.5 378.5t344.5 153.5q109 0 202 -49t150 -133v127zM635 18q193 0 305 175v626q-115 186 -307 187q-154 0 -248 -135.5t-94 -358.5q0 -225 94 -359.5t250 -134.5z" />
    <glyph glyph-name="uni01EA" unicode="&#x1ea;" horiz-adv-x="1697" 
d="M1026 -2q-94 -53 -149.5 -123t-55.5 -139q0 -63 34 -102.5t89 -39.5q63 0 107 50l16 -15q-57 -68 -172 -67q-84 0 -141.5 46t-57.5 113q0 70 75 144t196 123q-51 -8 -119 -8q-319 0 -532.5 210.5t-213.5 526t213 526.5t533 211q322 0 534.5 -211t212.5 -526
q0 -266 -157.5 -464t-411.5 -255zM293 716.5q0 -323.5 152.5 -520t402.5 -196.5q252 0 404.5 196.5t152.5 520t-152.5 520.5t-404.5 197q-250 0 -402.5 -197t-152.5 -520.5z" />
    <glyph glyph-name="uni01EB" unicode="&#x1eb;" horiz-adv-x="1280" 
d="M784 -2q-92 -53 -147 -124t-55 -138q0 -63 33.5 -102.5t89.5 -39.5q63 0 106 50l16 -15q-57 -68 -172 -67q-84 0 -141 46t-57 113.5t72.5 140t189.5 124.5q-39 -6 -80 -6q-229 0 -384 152.5t-155 379.5t155 379.5t384 152.5q231 0 386 -152.5t155 -379.5
q0 -188 -110 -329.5t-286 -184.5zM291 512q0 -233 95 -372.5t253 -139.5q160 0 255 138t95 374t-95 374t-255 138q-158 0 -253 -139.5t-95 -372.5z" />
    <glyph glyph-name="uni01F1" unicode="&#x1f1;" horiz-adv-x="2820" 
d="M729 1434q328 0 547 -206t219 -511t-219 -511t-547 -206h-532v1434h532zM2722 1434v-33l-914 -1381h912v-20h-1102v33l913 1380h-884v21h1075zM702 20q272 0 437.5 190.5t165.5 506t-165 506t-438 190.5h-323v-1393h323z" />
    <glyph glyph-name="uni01F2" unicode="&#x1f2;" horiz-adv-x="2603" 
d="M729 1434q328 0 547 -206t219 -511t-219 -511t-547 -206h-532v1434h532zM702 20q272 0 437.5 190.5t165.5 506t-165 506t-438 190.5h-323v-1393h323zM2515 1024v-33l-629 -971h625v-20h-815v33l628 971h-598v20h789z" />
    <glyph glyph-name="uni01F3" unicode="&#x1f3;" horiz-adv-x="2297" 
d="M940 862v588l182 45v-1495h-182v145q-61 -76 -153.5 -120.5t-196.5 -44.5q-205 0 -347.5 153.5t-142.5 378.5t143.5 378.5t344.5 153.5q109 0 202 -49t150 -133zM2210 1024v-33l-629 -971h625v-20h-815v33l628 971h-598v20h789zM635 18q193 0 305 175v626
q-115 186 -307 187q-154 0 -248 -135.5t-94 -358.5q0 -225 94 -359.5t250 -134.5z" />
    <glyph glyph-name="uni01F4" unicode="&#x1f4;" horiz-adv-x="1617" 
d="M1161 1839l-352 -250h-25l127 250h250zM1280 606h178v-606h-20l-117 145q-63 -76 -185 -120.5t-272 -44.5q-324 0 -543 210.5t-219 526t219.5 526.5t552.5 211q231 0 387 -100.5t156 -249.5q0 -47 -29.5 -78t-74.5 -31q-49 0 -81 31t-32 78t32 77.5t81 30.5q25 0 41 -8
q-41 102 -160 161.5t-285 59.5q-285 0 -450.5 -192.5t-165.5 -521.5q0 -319 160.5 -514t431.5 -195q145 0 249.5 56.5t145.5 154.5v393z" />
    <glyph glyph-name="uni01F5" unicode="&#x1f5;" horiz-adv-x="1290" 
d="M940 1450l-352 -250h-25l127 250h250zM940 989l182 45v-1104q0 -172 -140 -286.5t-357 -114.5q-180 0 -304 76t-124 186q0 45 30.5 74t77.5 29q43 0 72 -29t29 -74t-29 -73.5t-72 -28.5q-23 0 -37 6q41 -66 128 -103.5t194 -37.5q154 0 252 91t98 230v270
q-61 -76 -153.5 -120.5t-196.5 -44.5q-205 0 -347.5 153.5t-142.5 378.5t143.5 378.5t344.5 153.5q109 0 202 -49t150 -133v127zM635 18q193 0 305 175v626q-115 186 -307 187q-154 0 -248 -135.5t-94 -358.5q0 -225 94 -359.5t250 -134.5z" />
    <glyph glyph-name="AEacute" unicode="&#x1fc;" horiz-adv-x="1871" 
d="M1448 1839l-352 -250h-25l129 250h248zM1028 20h762v-20h-944v451h-561l-262 -451h-33l833 1434h946v-21h-741v-676h578v-20h-578v-697zM295 471h551v948z" />
    <glyph glyph-name="aeacute" unicode="&#x1fd;" horiz-adv-x="1966" 
d="M1288 1450l-352 -250h-25l127 250h250zM1745 354q43 0 71.5 -29.5t28.5 -74.5q0 -115 -125 -192.5t-303 -77.5q-160 0 -285.5 66.5t-197.5 178.5q-61 -106 -188.5 -175.5t-266.5 -69.5q-156 0 -266.5 82.5t-110.5 205.5q0 129 122 213t313 84q211 0 315 -67v237
q0 125 -84 205t-221 80q-94 0 -172 -33t-119 -86q8 2 25 2q43 0 72.5 -29.5t29.5 -74.5t-29.5 -75t-72.5 -30q-47 0 -79 30t-32 75q0 104 118 174.5t285 70.5q135 0 241 -53t161 -141q162 195 409 194q209 0 346.5 -140t137.5 -347h-826v-25q0 -246 111 -385t303 -139
q106 0 192.5 39t127.5 105q-14 -6 -35 -7q-45 0 -76 30t-31 75t32 74.5t79 29.5zM1378 1024q-141 0 -232 -124t-102 -322h639q-4 205 -85 325.5t-220 120.5zM555 35q113 0 211 58.5t152 156.5q-57 102 -64 217q-88 68 -262 68q-143 0 -221 -68t-78 -182q0 -113 71.5 -181.5
t190.5 -68.5z" />
    <glyph glyph-name="Oslashacute" unicode="&#x1fe;" horiz-adv-x="1697" 
d="M1151 1839l-352 -250h-25l127 250h250zM1319 1298q129 -102 202.5 -252.5t73.5 -328.5q0 -315 -213 -526t-534 -211q-256 0 -449 141l-110 -141h-33l123 155q-131 100 -204 252t-73 330q0 315 213 526t533 211q254 0 450 -139l109 139h33zM293 717q0 -313 143 -508
l809 1038q-152 186 -397 187q-250 0 -402.5 -196.5t-152.5 -520.5zM848 0q252 0 404.5 196.5t152.5 520.5q0 317 -143 508l-809 -1037q149 -188 395 -188z" />
    <glyph glyph-name="oslashacute" unicode="&#x1ff;" horiz-adv-x="1280" 
d="M938 1450l-352 -250h-25l127 250h250zM981 930q199 -156 199 -418q0 -227 -155 -379.5t-386 -152.5q-182 0 -322 100l-77 -100h-33l90 114q-197 156 -197 418q0 227 155 379.5t384 152.5q180 0 322 -98l77 98h33zM291 512q0 -203 71 -334l541 692q-96 154 -264 154
q-158 0 -253 -139.5t-95 -372.5zM639 0q160 0 255 138t95 374q0 199 -71 336l-543 -694q96 -154 264 -154z" />
    <glyph glyph-name="uni0200" unicode="&#x200;" horiz-adv-x="1458" 
d="M621 1589h-27l-313 250h208zM958 1589h-26l-314 250h209zM1206 0l-188 434h-739l-189 -434h-29l629 1434h80l627 -1434h-191zM289 455h719l-359 825z" />
    <glyph glyph-name="uni0201" unicode="&#x201;" horiz-adv-x="1185" 
d="M489 1200h-26l-313 250h208zM827 1200h-26l-314 250h209zM578 1044q201 0 328.5 -102t127.5 -258v-684h-182v152q-63 -78 -170 -125t-217 -47q-152 0 -257.5 82.5t-105.5 205.5q0 129 122 213t313 84q211 0 315 -67v241q0 125 -86 203t-227 78q-88 0 -165 -33t-118 -86
q8 2 25 2q43 0 72.5 -29.5t29.5 -74.5t-29.5 -75t-72.5 -30q-47 0 -79 30t-32 75q0 104 120 174.5t288 70.5zM539 33q92 0 176 42t137 113v283q-88 63 -260 64q-143 0 -221 -67t-78 -185q0 -111 67.5 -180.5t178.5 -69.5z" />
    <glyph glyph-name="uni0202" unicode="&#x202;" horiz-adv-x="1458" 
d="M731.5 1731q-104.5 0 -176.5 -37t-80 -95h-24q16 113 96 186t184.5 73t183 -73t97.5 -186h-25q-8 57 -79.5 94.5t-176 37.5zM1206 0l-188 434h-739l-189 -434h-29l629 1434h80l627 -1434h-191zM289 455h719l-359 825z" />
    <glyph glyph-name="uni0203" unicode="&#x203;" horiz-adv-x="1185" 
d="M598 1341q-104 0 -176 -36.5t-80 -94.5h-25q16 113 96.5 185.5t184.5 72.5t183 -72.5t98 -185.5h-25q-8 57 -80 94t-176 37zM578 1044q201 0 328.5 -102t127.5 -258v-684h-182v152q-63 -78 -170 -125t-217 -47q-152 0 -257.5 82.5t-105.5 205.5q0 129 122 213t313 84
q211 0 315 -67v241q0 125 -86 203t-227 78q-88 0 -165 -33t-118 -86q8 2 25 2q43 0 72.5 -29.5t29.5 -74.5t-29.5 -75t-72.5 -30q-47 0 -79 30t-32 75q0 104 120 174.5t288 70.5zM539 33q92 0 176 42t137 113v283q-88 63 -260 64q-143 0 -221 -67t-78 -185
q0 -111 67.5 -180.5t178.5 -69.5z" />
    <glyph glyph-name="uni0204" unicode="&#x204;" horiz-adv-x="1288" 
d="M614 1589h-26l-314 250h209zM952 1589h-26l-314 250h209zM379 20h827v-20h-1009v1434h989v-21h-807v-676h643v-20h-643v-697z" />
    <glyph glyph-name="uni0205" unicode="&#x205;" 
d="M508 1200h-27l-313 250h209zM846 1200h-27l-313 250h209zM991 354q43 0 73 -29.5t30 -74.5q0 -115 -126 -192.5t-304 -77.5q-246 0 -405 152.5t-159 379.5t154 379.5t375 152.5q213 0 349 -139t136 -348h-823v-27q0 -246 108.5 -384t298.5 -138q109 0 196 38t126 104
q-16 -4 -31 -5q-45 0 -75.5 30t-30.5 75t30.5 74.5t77.5 29.5zM629 1024q-143 0 -234.5 -123t-101.5 -323h639q-4 205 -85 325.5t-218 120.5z" />
    <glyph glyph-name="uni0206" unicode="&#x206;" horiz-adv-x="1288" 
d="M725 1731q-104 0 -176 -37t-80 -95h-25q16 113 96.5 186t184.5 73t183 -73t98 -186h-25q-8 57 -80 94.5t-176 37.5zM379 20h827v-20h-1009v1434h989v-21h-807v-676h643v-20h-643v-697z" />
    <glyph glyph-name="uni0207" unicode="&#x207;" 
d="M618.5 1341q-104.5 0 -176 -36.5t-80.5 -94.5h-24q16 113 96 185.5t184.5 72.5t183.5 -72.5t97 -185.5h-25q-8 57 -79.5 94t-176 37zM991 354q43 0 73 -29.5t30 -74.5q0 -115 -126 -192.5t-304 -77.5q-246 0 -405 152.5t-159 379.5t154 379.5t375 152.5q213 0 349 -139
t136 -348h-823v-27q0 -246 108.5 -384t298.5 -138q109 0 196 38t126 104q-16 -4 -31 -5q-45 0 -75.5 30t-30.5 75t30.5 74.5t77.5 29.5zM629 1024q-143 0 -234.5 -123t-101.5 -323h639q-4 205 -85 325.5t-218 120.5z" />
    <glyph glyph-name="uni0208" unicode="&#x208;" horiz-adv-x="573" 
d="M178 1589h-26l-314 250h209zM516 1589h-27l-313 250h209zM197 0v1434h182v-1434h-182z" />
    <glyph glyph-name="uni0209" unicode="&#x209;" horiz-adv-x="532" 
d="M158 1200h-27l-313 250h209zM496 1200h-27l-313 250h209zM176 0v989l182 45v-1034h-182z" />
    <glyph glyph-name="uni020A" unicode="&#x20a;" horiz-adv-x="573" 
d="M286.5 1858q104.5 0 183.5 -73t97 -186h-24q-8 57 -80 94.5t-176.5 37.5t-176 -37t-79.5 -95h-25q16 113 96 186t184.5 73zM197 0v1434h182v-1434h-182z" />
    <glyph glyph-name="uni020B" unicode="&#x20b;" horiz-adv-x="532" 
d="M266.5 1468q104.5 0 183 -72.5t97.5 -185.5h-25q-8 57 -79.5 94t-176 37t-176.5 -36.5t-80 -94.5h-24q16 113 96 185.5t184.5 72.5zM176 0v989l182 45v-1034h-182z" />
    <glyph glyph-name="uni020C" unicode="&#x20c;" horiz-adv-x="1697" 
d="M739 1589h-26l-314 250h209zM1077 1589h-26l-314 250h209zM848 -20q-319 0 -532.5 210.5t-213.5 526t213 526.5t533 211q322 0 534.5 -211t212.5 -526.5t-212.5 -526t-534.5 -210.5zM848 0q252 0 404.5 196.5t152.5 520t-152.5 520.5t-404.5 197q-250 0 -402.5 -197
t-152.5 -520.5t152.5 -520t402.5 -196.5z" />
    <glyph glyph-name="uni020D" unicode="&#x20d;" horiz-adv-x="1280" 
d="M530 1200h-26l-314 250h209zM868 1200h-26l-314 250h209zM639 -20q-229 0 -384 152.5t-155 379.5t155 379.5t384 152.5q231 0 386 -152.5t155 -379.5t-155 -379.5t-386 -152.5zM639 0q160 0 255 138t95 374t-95 374t-255 138q-158 0 -253 -139.5t-95 -372.5t95 -372.5
t253 -139.5z" />
    <glyph glyph-name="uni020E" unicode="&#x20e;" horiz-adv-x="1697" 
d="M849.5 1858q104.5 0 183.5 -73t97 -186h-24q-8 57 -80 94.5t-176.5 37.5t-176 -37t-79.5 -95h-25q16 113 96 186t184.5 73zM848 -20q-319 0 -532.5 210.5t-213.5 526t213 526.5t533 211q322 0 534.5 -211t212.5 -526.5t-212.5 -526t-534.5 -210.5zM848 0
q252 0 404.5 196.5t152.5 520t-152.5 520.5t-404.5 197q-250 0 -402.5 -197t-152.5 -520.5t152.5 -520t402.5 -196.5z" />
    <glyph glyph-name="uni020F" unicode="&#x20f;" horiz-adv-x="1280" 
d="M641 1468q104 0 183 -72.5t98 -185.5h-25q-8 57 -80 94t-176 37t-176 -36.5t-80 -94.5h-25q16 113 96.5 185.5t184.5 72.5zM639 -20q-229 0 -384 152.5t-155 379.5t155 379.5t384 152.5q231 0 386 -152.5t155 -379.5t-155 -379.5t-386 -152.5zM639 0q160 0 255 138
t95 374t-95 374t-255 138q-158 0 -253 -139.5t-95 -372.5t95 -372.5t253 -139.5z" />
    <glyph glyph-name="uni0210" unicode="&#x210;" horiz-adv-x="1400" 
d="M608 1589h-26l-314 250h209zM946 1589h-26l-314 250h209zM1253 156q55 -102 131 -156h-208q-63 45 -107 119l-227 399q-51 84 -125 107h-338v-625h-182v1434h563q223 0 371.5 -117t148.5 -291q0 -160 -129 -271.5t-328 -127.5q174 -31 234 -138zM379 1413v-768h346
q164 0 264.5 103.5t100.5 275.5q0 176 -100.5 282.5t-264.5 106.5h-346z" />
    <glyph glyph-name="uni0211" unicode="&#x211;" horiz-adv-x="948" 
d="M430 1200h-27l-313 250h209zM768 1200h-27l-313 250h209zM897 854q0 -45 -29.5 -74.5t-72.5 -29.5q-47 0 -78 29.5t-31 74.5t31 74.5t78 29.5q12 0 16 -2q-53 63 -151.5 63.5t-179.5 -66t-122 -177.5v-776h-182v989l182 45v-203q43 96 124 154.5t181.5 58.5t167 -54
t66.5 -136z" />
    <glyph glyph-name="uni0212" unicode="&#x212;" horiz-adv-x="1400" 
d="M718.5 1731q-104.5 0 -176 -37t-79.5 -95h-25q16 113 96 186t184.5 73t183.5 -73t97 -186h-24q-8 57 -80 94.5t-176.5 37.5zM1253 156q55 -102 131 -156h-208q-63 45 -107 119l-227 399q-51 84 -125 107h-338v-625h-182v1434h563q223 0 371.5 -117t148.5 -291
q0 -160 -129 -271.5t-328 -127.5q174 -31 234 -138zM379 1413v-768h346q164 0 264.5 103.5t100.5 275.5q0 176 -100.5 282.5t-264.5 106.5h-346z" />
    <glyph glyph-name="uni0213" unicode="&#x213;" horiz-adv-x="948" 
d="M538.5 1341q-104.5 0 -176 -36.5t-79.5 -94.5h-25q16 113 96 185.5t184.5 72.5t183.5 -72.5t97 -185.5h-24q-8 57 -80 94t-176.5 37zM897 854q0 -45 -29.5 -74.5t-72.5 -29.5q-47 0 -78 29.5t-31 74.5t31 74.5t78 29.5q12 0 16 -2q-53 63 -151.5 63.5t-179.5 -66
t-122 -177.5v-776h-182v989l182 45v-203q43 96 124 154.5t181.5 58.5t167 -54t66.5 -136z" />
    <glyph glyph-name="uni0214" unicode="&#x214;" horiz-adv-x="1558" 
d="M696 1589h-26l-314 250h209zM1034 1589h-26l-314 250h209zM807 -20q-276 0 -450.5 161.5t-174.5 425.5v867h183v-899q0 -231 134 -370.5t353 -139.5q227 0 361.5 138t134.5 372v899h28v-902q0 -252 -152.5 -402t-416.5 -150z" />
    <glyph glyph-name="uni0215" unicode="&#x215;" horiz-adv-x="1259" 
d="M514 1200h-27l-313 250h209zM852 1200h-27l-313 250h209zM901 989l182 45v-1034h-182v195q-55 -96 -157.5 -155.5t-223.5 -59.5q-156 0 -259 99t-103 249v661l182 45v-755q0 -109 65.5 -180.5t169.5 -71.5q96 0 188.5 61.5t137.5 159.5v741z" />
    <glyph glyph-name="uni0216" unicode="&#x216;" horiz-adv-x="1558" 
d="M806.5 1858q104.5 0 183.5 -73t97 -186h-24q-8 57 -80 94.5t-176.5 37.5t-176 -37t-79.5 -95h-25q16 113 96 186t184.5 73zM807 -20q-276 0 -450.5 161.5t-174.5 425.5v867h183v-899q0 -231 134 -370.5t353 -139.5q227 0 361.5 138t134.5 372v899h28v-902
q0 -252 -152.5 -402t-416.5 -150z" />
    <glyph glyph-name="uni0217" unicode="&#x217;" horiz-adv-x="1259" 
d="M624.5 1341q-104.5 0 -176 -36.5t-79.5 -94.5h-25q16 113 96 185.5t184.5 72.5t183.5 -72.5t97 -185.5h-24q-8 57 -80 94t-176.5 37zM901 989l182 45v-1034h-182v195q-55 -96 -157.5 -155.5t-223.5 -59.5q-156 0 -259 99t-103 249v661l182 45v-755q0 -109 65.5 -180.5
t169.5 -71.5q96 0 188.5 61.5t137.5 159.5v741z" />
    <glyph glyph-name="uni0218" unicode="&#x218;" horiz-adv-x="1251" 
d="M692 795q117 -43 177.5 -72t138 -80t112.5 -116.5t35 -153.5q0 -178 -145.5 -285.5t-374.5 -107.5q-221 0 -372.5 95t-151.5 236q0 45 29.5 73t76.5 28q41 0 69.5 -28t28.5 -73t-28.5 -73.5t-69.5 -28.5q-23 0 -41 6q43 -94 163 -153.5t273 -59.5q172 0 285 82t113 207
q0 63 -30 114.5t-96.5 93.5t-124 68.5t-159.5 67.5q-82 33 -129 53.5t-118.5 62.5t-110.5 81.5t-69 101t-30 133.5q0 170 140.5 278.5t355.5 108.5q195 0 328 -89t133 -220q0 -43 -28 -72t-71 -29q-47 0 -76.5 28t-29.5 73t29.5 73.5t76.5 28.5q20 0 35 -6
q-41 86 -143 138.5t-238 52.5q-158 0 -264 -84t-106 -207q0 -53 24.5 -99.5t58 -79t95 -65.5t107.5 -53t122 -49zM653 -145q49 0 82 -33t33 -86q0 -72 -50 -146.5t-118 -109.5l-10 16q49 27 83 74t42 96q-23 -23 -66 -22q-45 0 -75.5 31.5t-30.5 78.5q0 43 31.5 72t78.5 29z
" />
    <glyph glyph-name="uni0219" unicode="&#x219;" horiz-adv-x="980" 
d="M549 596q82 -35 124 -55.5t103.5 -61.5t89 -93t27.5 -118q0 -129 -105.5 -208.5t-285.5 -79.5q-168 0 -285 64.5t-117 160.5q0 43 29 70.5t74 27.5q41 0 67.5 -27.5t26.5 -70.5t-26.5 -71t-67.5 -28q-12 0 -19 3q94 -106 301 -107q123 0 198 53.5t75 137.5q0 78 -70 128
t-217 111q-66 29 -95.5 42t-89 47t-87 63.5t-52 77t-24.5 100.5q0 127 107.5 204.5t277.5 77.5q145 0 245.5 -56t106.5 -140v-6q0 -43 -27.5 -71t-68.5 -28q-45 0 -73.5 28t-28.5 71t28.5 70.5t73.5 27.5h10q-86 82 -252 82q-115 0 -189.5 -53.5t-74.5 -134.5
q0 -80 72 -130.5t219 -107.5zM504 -145q49 0 81.5 -33t32.5 -86q0 -72 -50 -146.5t-117 -109.5l-11 16q49 27 83 74t42 96q-23 -23 -65 -22q-45 0 -76 31.5t-31 78.5q0 43 32 72t79 29z" />
    <glyph glyph-name="uni021A" unicode="&#x21a;" horiz-adv-x="1259" 
d="M1204 1434v-21h-481v-1413h-182v1413h-486v21h1149zM629 -145q49 0 81.5 -33t32.5 -86q0 -72 -50 -146.5t-118 -109.5l-10 16q49 27 83 74t42 96q-23 -23 -65 -22q-45 0 -76 31.5t-31 78.5q0 43 32 72t79 29z" />
    <glyph glyph-name="uni021B" unicode="&#x21b;" horiz-adv-x="774" 
d="M723 131l22 -12q-20 -59 -91.5 -99t-159.5 -40q-125 0 -210 73.5t-85 184.5v766h-131v20h131v231l182 50v-281h311v-20h-311v-809q0 -76 49 -128.5t121 -52.5q53 0 104.5 34t67.5 83zM438 -145q49 0 82 -33t33 -86q0 -72 -50 -146.5t-118 -109.5l-10 16q49 27 83 74
t42 96q-23 -23 -66 -22q-45 0 -75.5 31.5t-30.5 78.5q0 43 31.5 72t78.5 29z" />
    <glyph glyph-name="uni0232" unicode="&#x232;" horiz-adv-x="1390" 
d="M942 1733v-86h-493v86h493zM1298 1434h31l-543 -820v-614h-182v614l-543 820h203l518 -783z" />
    <glyph glyph-name="uni0233" unicode="&#x233;" horiz-adv-x="1044" 
d="M791 1343v-86h-494v86h494zM989 1024h29l-600 -1368q-55 -127 -193 -127q-68 0 -118 43t-50 100q0 45 31 75t78 30q45 0 73.5 -30t28.5 -75t-28.5 -74.5t-73.5 -29.5h-14q35 -23 73 -23q51 0 98.5 29t73.5 86l121 281l-475 1083h190l377 -870z" />
    <glyph glyph-name="uni0237" unicode="&#x237;" horiz-adv-x="536" 
d="M186 989l183 45v-1196q0 -133 -97.5 -221t-240.5 -88q-109 0 -181.5 51t-72.5 127q0 43 28.5 71.5t71.5 28.5q45 0 76 -28.5t31 -71.5q0 -45 -30 -73.5t-77 -28.5q-14 0 -20 2q51 -51 135 -51q88 0 141 60t53 155v1218z" />
    <glyph glyph-name="uni02BC" unicode="&#x2bc;" horiz-adv-x="219" 
d="M0 1165l41 289h178l-192 -289h-27z" />
    <glyph glyph-name="circumflex" unicode="&#x2c6;" horiz-adv-x="561" 
d="M561 1208l-8 -12l-272 137l-273 -137l-8 12l258 258h45z" />
    <glyph glyph-name="caron" unicode="&#x2c7;" horiz-adv-x="561" 
d="M553 1460l8 -12l-258 -258h-45l-258 258l8 12l273 -135z" />
    <glyph glyph-name="breve" unicode="&#x2d8;" horiz-adv-x="561" 
d="M280.5 1188q-104.5 0 -184.5 72.5t-96 185.5h25q8 -57 79.5 -94t176 -37t176 37t80.5 94h24q-18 -113 -97 -185.5t-183.5 -72.5z" />
    <glyph glyph-name="dotaccent" unicode="&#x2d9;" horiz-adv-x="219" 
d="M111 1188q-45 0 -78 29.5t-33 76.5q0 45 33 77t80 32q45 0 75.5 -31t30.5 -78t-30.5 -76.5t-77.5 -29.5z" />
    <glyph glyph-name="ring" unicode="&#x2da;" horiz-adv-x="325" 
d="M166 1165q-72 0 -119 45t-47 113q0 70 47 116t119 46q70 0 115 -46t45 -116q0 -68 -45 -113t-115 -45zM166 1184q59 0 97 38t38 101t-38 103t-97 40q-63 0 -102 -40t-39 -103t39 -101t102 -38z" />
    <glyph glyph-name="ogonek" unicode="&#x2db;" horiz-adv-x="370" 
d="M199 -438q-84 0 -141.5 46t-57.5 113q0 74 85 153t216 126l-14 4l28 6l17 -10q-94 -53 -150.5 -124t-56.5 -140q0 -63 34 -102.5t89 -39.5q63 0 106 50l17 -15q-57 -67 -172 -67z" />
    <glyph glyph-name="tilde" unicode="&#x2dc;" horiz-adv-x="616" 
d="M428 1208q-74 0 -168 84q-59 49 -121 49q-43 0 -77.5 -33.5t-38.5 -88.5h-23q0 102 52 167.5t134 65.5q70 0 166 -80q63 -53 123 -53q45 0 80 33.5t39 89.5h22q0 -102 -53 -168t-135 -66z" />
    <glyph glyph-name="hungarumlaut" unicode="&#x2dd;" horiz-adv-x="677" 
d="M0 1200l131 250h209l-313 -250h-27zM338 1200l133 250h207l-313 -250h-27z" />
    <glyph glyph-name="gravecomb" unicode="&#x300;" horiz-adv-x="0" 
d="M-25 1200l-352 250h248l131 -250h-27z" />
    <glyph glyph-name="acutecomb" unicode="&#x301;" horiz-adv-x="0" 
d="M-352 1200h-25l127 250h252z" />
    <glyph glyph-name="uni0302" unicode="&#x302;" horiz-adv-x="0" 
d="M0 1208l-8 -12l-273 137l-272 -137l-8 12l258 258h45z" />
    <glyph glyph-name="tildecomb" unicode="&#x303;" horiz-adv-x="0" 
d="M-188 1208q-74 0 -168 84q-59 49 -121 49q-43 0 -78 -33.5t-39 -88.5h-22q0 102 52 167.5t134 65.5q70 0 166 -80q63 -53 123 -53q45 0 79.5 33.5t38.5 89.5h23q0 -102 -53 -168t-135 -66z" />
    <glyph glyph-name="uni0304" unicode="&#x304;" horiz-adv-x="0" 
d="M-494 1257v86h494v-86h-494z" />
    <glyph glyph-name="uni0306" unicode="&#x306;" horiz-adv-x="0" 
d="M-280.5 1188q-104.5 0 -184.5 72.5t-96 185.5h24q8 -57 80 -94t176.5 -37t176 37t79.5 94h25q-18 -113 -97 -185.5t-183.5 -72.5z" />
    <glyph glyph-name="uni0307" unicode="&#x307;" horiz-adv-x="0" 
d="M-109 1188q-45 0 -77.5 29.5t-32.5 76.5q0 45 32.5 77t80.5 32q45 0 75.5 -31t30.5 -78t-31 -76.5t-78 -29.5z" />
    <glyph glyph-name="uni0308" unicode="&#x308;" horiz-adv-x="0" 
d="M-494 1194q-45 0 -74.5 27.5t-29.5 70.5q0 45 30.5 75t75.5 30q43 0 72 -30t29 -73q0 -45 -29 -72.5t-74 -27.5zM-102 1194q-45 0 -75 27.5t-30 72.5q0 43 31 73t76 30q43 0 71.5 -30t28.5 -73q0 -45 -28.5 -72.5t-73.5 -27.5z" />
    <glyph glyph-name="uni030A" unicode="&#x30a;" horiz-adv-x="0" 
d="M-160 1165q-72 0 -119 45t-47 113q0 70 47.5 116t118.5 46q70 0 115 -46t45 -116q0 -68 -45 -113t-115 -45zM-160 1184q59 0 97 38t38 101t-37.5 103t-97.5 40q-63 0 -102 -40t-39 -103t39 -101t102 -38z" />
    <glyph glyph-name="uni030B" unicode="&#x30b;" horiz-adv-x="0" 
d="M-678 1200l131 250h209l-313 -250h-27zM-340 1200l133 250h207l-313 -250h-27z" />
    <glyph glyph-name="uni030C" unicode="&#x30c;" horiz-adv-x="0" 
d="M-8 1460l8 -12l-258 -258h-45l-258 258l8 12l272 -135z" />
    <glyph glyph-name="uni030F" unicode="&#x30f;" horiz-adv-x="0" 
d="M-338 1200h-27l-313 250h209zM0 1200h-27l-313 250h209z" />
    <glyph glyph-name="uni0311" unicode="&#x311;" horiz-adv-x="0" 
d="M-280.5 1468q104.5 0 183.5 -72.5t97 -185.5h-25q-8 57 -79.5 94t-176 37t-176 -36.5t-80.5 -94.5h-24q16 113 96 185.5t184.5 72.5z" />
    <glyph glyph-name="uni0312" unicode="&#x312;" horiz-adv-x="0" 
d="M-106 1376q45 0 76.5 -30.5t31.5 -77.5q0 -43 -32.5 -73t-80.5 -30q-49 0 -81.5 34t-32.5 87q0 70 49 145.5t117 110.5l10 -16q-104 -61 -123 -170q25 20 66 20z" />
    <glyph glyph-name="dotbelowcomb" unicode="&#x323;" horiz-adv-x="0" 
d="M-109 -360q-45 0 -77.5 29.5t-32.5 76.5q0 45 32.5 77t80.5 32q45 0 75.5 -31t30.5 -78t-31 -76.5t-78 -29.5z" />
    <glyph glyph-name="uni0326" unicode="&#x326;" horiz-adv-x="0" 
d="M-115 -145q49 0 83 -33t34 -86q0 -72 -51 -146.5t-119 -109.5l-10 16q49 27 83 74t42 96q-23 -23 -66 -22q-45 0 -75.5 31.5t-30.5 78.5q0 43 31.5 72t78.5 29z" />
    <glyph glyph-name="uni0327" unicode="&#x327;" horiz-adv-x="0" 
d="M-176 -113q76 0 126 -45t50 -114q0 -72 -60.5 -119t-150.5 -47q-111 0 -172 67l14 19q49 -59 129 -60q51 0 85 40t34 102q0 57 -28.5 94t-69.5 37q-45 0 -70 -43l-16 4l100 172h29l-76 -123q33 16 76 16z" />
    <glyph glyph-name="uni0328" unicode="&#x328;" horiz-adv-x="0" 
d="M-172 -438q-84 0 -141.5 46t-57.5 113q0 74 85 153t216 126l-14 4l29 6l16 -10q-94 -53 -150.5 -124t-56.5 -140q0 -63 34 -102.5t89 -39.5q63 0 107 50l16 -15q-57 -67 -172 -67z" />
    <glyph glyph-name="uni0335" unicode="&#x335;" horiz-adv-x="0" 
d="M-561 543v20h561v-20h-561z" />
    <glyph glyph-name="uni0336" unicode="&#x336;" horiz-adv-x="0" 
d="M-1503 543v20h1503v-20h-1503z" />
    <glyph glyph-name="uni0337" unicode="&#x337;" horiz-adv-x="0" 
d="M-864 -20l831 1064h33l-831 -1064h-33z" />
    <glyph glyph-name="uni0338" unicode="&#x338;" horiz-adv-x="0" 
d="M-1184 -20l1151 1474h33l-1151 -1474h-33z" />
    <glyph glyph-name="uni1E0C" unicode="&#x1e0c;" horiz-adv-x="1597" 
d="M729 1434q328 0 547 -206t219 -511t-219 -511t-547 -206h-532v1434h532zM702 20q272 0 437.5 190.5t165.5 506t-165 506t-438 190.5h-323v-1393h323zM788 -145q45 0 76 -31t31 -78t-30.5 -76.5t-78.5 -29.5q-45 0 -77.5 29.5t-32.5 76.5q0 45 32.5 77t79.5 32z" />
    <glyph glyph-name="uni1E0D" unicode="&#x1e0d;" horiz-adv-x="1298" 
d="M940 1450l182 45v-1495h-182v145q-61 -76 -153.5 -120.5t-196.5 -44.5q-205 0 -347.5 153.5t-142.5 378.5t143.5 378.5t344.5 153.5q109 0 202 -49t150 -133v588zM635 18q193 0 305 175v626q-115 186 -307 187q-154 0 -248 -135.5t-94 -358.5q0 -225 94 -359.5
t250 -134.5zM659 -145q45 0 76 -31t31 -78t-30.5 -76.5t-78.5 -29.5q-45 0 -77.5 29.5t-32.5 76.5q0 45 32.5 77t79.5 32z" />
    <glyph glyph-name="uni1E24" unicode="&#x1e24;" horiz-adv-x="1603" 
d="M1225 1434h182v-1434h-182v717h-846v-717h-182v1434h182v-697h846v697zM803 -145q45 0 75.5 -31t30.5 -78t-30.5 -76.5t-77.5 -29.5q-45 0 -78 29.5t-33 76.5q0 45 33 77t80 32z" />
    <glyph glyph-name="uni1E25" unicode="&#x1e25;" horiz-adv-x="1265" 
d="M748 1044q160 0 263 -99t103 -249v-696h-182v743q0 109 -67.5 181.5t-172.5 72.5q-102 0 -195.5 -61.5t-138.5 -161.5v-774h-182v1450l182 45v-666q55 96 160 155.5t230 59.5zM649 -145q45 0 76 -31t31 -78t-31 -76.5t-78 -29.5q-45 0 -77.5 29.5t-32.5 76.5
q0 45 32.5 77t79.5 32z" />
    <glyph glyph-name="uni1E44" unicode="&#x1e44;" horiz-adv-x="1570" 
d="M809 1577q-45 0 -78 29.5t-33 76.5q0 45 33 77t80 32q45 0 76 -30.5t31 -78t-31 -77t-78 -29.5zM1348 1434h28v-1434h-69l-1082 1294v-1294h-28v1434h141l1010 -1213v1213z" />
    <glyph glyph-name="uni1E45" unicode="&#x1e45;" horiz-adv-x="1265" 
d="M645 1188q-45 0 -77.5 29.5t-32.5 76.5q0 45 32.5 77t79.5 32q45 0 76 -31t31 -78t-31 -76.5t-78 -29.5zM748 1044q160 0 263 -99t103 -249v-696h-182v743q0 109 -67.5 181.5t-172.5 72.5q-102 0 -195.5 -61.5t-138.5 -161.5v-774h-182v989l182 45v-205q55 96 160 155.5
t230 59.5z" />
    <glyph glyph-name="uni1E5A" unicode="&#x1e5a;" horiz-adv-x="1400" 
d="M1253 156q55 -102 131 -156h-208q-63 45 -107 119l-227 399q-51 84 -125 107h-338v-625h-182v1434h563q223 0 371.5 -117t148.5 -291q0 -160 -129 -271.5t-328 -127.5q174 -31 234 -138zM379 1413v-768h346q164 0 264.5 103.5t100.5 275.5q0 176 -100.5 282.5
t-264.5 106.5h-346zM770 -145q45 0 76 -31t31 -78t-31 -76.5t-78 -29.5q-45 0 -78 29.5t-33 76.5q0 45 33 77t80 32z" />
    <glyph glyph-name="uni1E5B" unicode="&#x1e5b;" horiz-adv-x="948" 
d="M897 854q0 -45 -29.5 -74.5t-72.5 -29.5q-47 0 -78 29.5t-31 74.5t31 74.5t78 29.5q12 0 16 -2q-53 63 -151.5 63.5t-179.5 -66t-122 -177.5v-776h-182v989l182 45v-203q43 96 124 154.5t181.5 58.5t167 -54t66.5 -136zM272 -145q45 0 76 -31t31 -78t-31 -76.5t-78 -29.5
q-45 0 -77.5 29.5t-32.5 76.5q0 45 32.5 77t79.5 32z" />
    <glyph glyph-name="uni1E62" unicode="&#x1e62;" horiz-adv-x="1251" 
d="M692 795q117 -43 177.5 -72t138 -80t112.5 -116.5t35 -153.5q0 -178 -145.5 -285.5t-374.5 -107.5q-221 0 -372.5 95t-151.5 236q0 45 29.5 73t76.5 28q41 0 69.5 -28t28.5 -73t-28.5 -73.5t-69.5 -28.5q-23 0 -41 6q43 -94 163 -153.5t273 -59.5q172 0 285 82t113 207
q0 63 -30 114.5t-96.5 93.5t-124 68.5t-159.5 67.5q-82 33 -129 53.5t-118.5 62.5t-110.5 81.5t-69 101t-30 133.5q0 170 140.5 278.5t355.5 108.5q195 0 328 -89t133 -220q0 -43 -28 -72t-71 -29q-47 0 -76.5 28t-29.5 73t29.5 73.5t76.5 28.5q20 0 35 -6
q-41 86 -143 138.5t-238 52.5q-158 0 -264 -84t-106 -207q0 -53 24.5 -99.5t58 -79t95 -65.5t107.5 -53t122 -49zM655 -145q45 0 76 -31t31 -78t-31 -76.5t-78 -29.5q-45 0 -77.5 29.5t-32.5 76.5q0 45 32.5 77t79.5 32z" />
    <glyph glyph-name="uni1E63" unicode="&#x1e63;" horiz-adv-x="980" 
d="M549 596q82 -35 124 -55.5t103.5 -61.5t89 -93t27.5 -118q0 -129 -105.5 -208.5t-285.5 -79.5q-168 0 -285 64.5t-117 160.5q0 43 29 70.5t74 27.5q41 0 67.5 -27.5t26.5 -70.5t-26.5 -71t-67.5 -28q-12 0 -19 3q94 -106 301 -107q123 0 198 53.5t75 137.5q0 78 -70 128
t-217 111q-66 29 -95.5 42t-89 47t-87 63.5t-52 77t-24.5 100.5q0 127 107.5 204.5t277.5 77.5q145 0 245.5 -56t106.5 -140v-6q0 -43 -27.5 -71t-68.5 -28q-45 0 -73.5 28t-28.5 71t28.5 70.5t73.5 27.5h10q-86 82 -252 82q-115 0 -189.5 -53.5t-74.5 -134.5
q0 -80 72 -130.5t219 -107.5zM506 -145q45 0 75.5 -31t30.5 -78t-30.5 -76.5t-77.5 -29.5q-45 0 -78 29.5t-33 76.5q0 45 33 77t80 32z" />
    <glyph glyph-name="uni1E6C" unicode="&#x1e6c;" horiz-adv-x="1259" 
d="M1204 1434v-21h-481v-1413h-182v1413h-486v21h1149zM633 -145q45 0 75.5 -31t30.5 -78t-30.5 -76.5t-77.5 -29.5q-45 0 -78 29.5t-33 76.5q0 45 33 77t80 32z" />
    <glyph glyph-name="uni1E6D" unicode="&#x1e6d;" horiz-adv-x="774" 
d="M723 131l22 -12q-20 -59 -91.5 -99t-159.5 -40q-125 0 -210 73.5t-85 184.5v766h-131v20h131v231l182 50v-281h311v-20h-311v-809q0 -76 49 -128.5t121 -52.5q53 0 104.5 34t67.5 83zM442 -145q45 0 76 -31t31 -78t-31 -76.5t-78 -29.5q-45 0 -77.5 29.5t-32.5 76.5
q0 45 32.5 77t79.5 32z" />
    <glyph glyph-name="Wgrave" unicode="&#x1e80;" horiz-adv-x="2277" 
d="M1225 1589h-25l-352 250h248zM2187 1434h29l-629 -1434h-80l-368 844l-371 -844h-80l-627 1434h191l557 -1278l315 721l-243 557h190l559 -1278z" />
    <glyph glyph-name="wgrave" unicode="&#x1e81;" horiz-adv-x="1658" 
d="M915 1200h-24l-352 250h247zM1604 1024h28l-448 -1024h-82l-268 614l-271 -614h-80l-448 1024h188l379 -870l217 493l-166 377h191l381 -870z" />
    <glyph glyph-name="Wacute" unicode="&#x1e82;" horiz-adv-x="2277" 
d="M1444 1839l-352 -250h-25l127 250h250zM2187 1434h29l-629 -1434h-80l-368 844l-371 -844h-80l-627 1434h191l557 -1278l315 721l-243 557h190l559 -1278z" />
    <glyph glyph-name="wacute" unicode="&#x1e83;" horiz-adv-x="1658" 
d="M1135 1450l-353 -250h-24l127 250h250zM1604 1024h28l-448 -1024h-82l-268 614l-271 -614h-80l-448 1024h188l379 -870l217 493l-166 377h191l381 -870z" />
    <glyph glyph-name="Wdieresis" unicode="&#x1e84;" horiz-adv-x="2277" 
d="M950 1583q-45 0 -74.5 27.5t-29.5 70.5q0 45 30.5 75t75.5 30q43 0 72 -30t29 -73q0 -45 -29 -72.5t-74 -27.5zM1341 1583q-45 0 -74.5 27.5t-29.5 72.5q0 43 30.5 73t75.5 30q43 0 72 -30t29 -73q0 -45 -29 -72.5t-74 -27.5zM2187 1434h29l-629 -1434h-80l-368 844
l-371 -844h-80l-627 1434h191l557 -1278l315 721l-243 557h190l559 -1278z" />
    <glyph glyph-name="wdieresis" unicode="&#x1e85;" horiz-adv-x="1658" 
d="M641 1194q-45 0 -74.5 27.5t-29.5 70.5q0 45 30.5 75t75.5 30q43 0 71.5 -30t28.5 -73q0 -45 -28.5 -72.5t-73.5 -27.5zM1032 1194q-45 0 -74.5 27.5t-29.5 72.5q0 43 30.5 73t75.5 30q43 0 72 -30t29 -73q0 -45 -29 -72.5t-74 -27.5zM1604 1024h28l-448 -1024h-82
l-268 614l-271 -614h-80l-448 1024h188l379 -870l217 493l-166 377h191l381 -870z" />
    <glyph glyph-name="uni1E92" unicode="&#x1e92;" horiz-adv-x="1300" 
d="M1202 1434v-33l-913 -1381h911v-20h-1102v33l914 1380h-885v21h1075zM686 -145q45 0 76 -31t31 -78t-31 -76.5t-78 -29.5q-45 0 -78 29.5t-33 76.5q0 45 33 77t80 32z" />
    <glyph glyph-name="uni1E93" unicode="&#x1e93;" horiz-adv-x="999" 
d="M911 1024v-33l-628 -971h624v-20h-815v33l629 971h-598v20h788zM524 -145q45 0 76 -31t31 -78t-31 -76.5t-78 -29.5q-45 0 -77.5 29.5t-32.5 76.5q0 45 32.5 77t79.5 32z" />
    <glyph glyph-name="uni1E9E" unicode="&#x1e9e;" horiz-adv-x="1497" 
d="M907 842q219 0 366.5 -125t147.5 -311q0 -182 -135 -304t-340 -122q-174 0 -295 90t-121 221q0 45 31 74.5t78 29.5q45 0 73.5 -29.5t28.5 -74.5t-28.5 -75t-73.5 -30q-29 0 -51 13q33 -88 119 -139.5t200 -51.5q152 0 240 110.5t88 293.5q0 186 -91 297.5t-235 111.5
h-112v13l352 579h-555q-96 0 -155.5 -62.5t-59.5 -162.5v-1188h-182v1110q0 139 105.5 231.5t260.5 92.5h733v-29l-436 -563h47z" />
    <glyph glyph-name="uni1EA0" unicode="&#x1ea0;" horiz-adv-x="1458" 
d="M1397 0h-191l-188 434h-739l-189 -434h-29l629 1434h80zM289 455h719l-359 825zM731 -145q45 0 76 -31t31 -78t-31 -76.5t-78 -29.5q-45 0 -78 29.5t-33 76.5q0 45 33 77t80 32z" />
    <glyph glyph-name="uni1EA1" unicode="&#x1ea1;" horiz-adv-x="1185" 
d="M578 1044q201 0 328.5 -102t127.5 -258v-684h-182v152q-63 -78 -170 -125t-217 -47q-152 0 -257.5 82.5t-105.5 205.5q0 129 122 213t313 84q211 0 315 -67v241q0 125 -86 203t-227 78q-88 0 -165 -33t-118 -86q8 2 25 2q43 0 72.5 -29.5t29.5 -74.5t-29.5 -75t-72.5 -30
q-47 0 -79 30t-32 75q0 104 120 174.5t288 70.5zM539 33q92 0 176 42t137 113v283q-88 63 -260 64q-143 0 -221 -67t-78 -185q0 -111 67.5 -180.5t178.5 -69.5zM600 -145q45 0 76 -31t31 -78t-31 -76.5t-78 -29.5q-45 0 -78 29.5t-33 76.5q0 45 33 77t80 32z" />
    <glyph glyph-name="uni1EB8" unicode="&#x1eb8;" horiz-adv-x="1288" 
d="M379 20h827v-20h-1009v1434h989v-21h-807v-676h643v-20h-643v-697zM725 -145q45 0 75.5 -31t30.5 -78t-30.5 -76.5t-77.5 -29.5q-45 0 -78 29.5t-33 76.5q0 45 33 77t80 32z" />
    <glyph glyph-name="uni1EB9" unicode="&#x1eb9;" 
d="M991 354q43 0 73 -29.5t30 -74.5q0 -115 -126 -192.5t-304 -77.5q-246 0 -405 152.5t-159 379.5t154 379.5t375 152.5q213 0 349 -139t136 -348h-823v-27q0 -246 108.5 -384t298.5 -138q109 0 196 38t126 104q-16 -4 -31 -5q-45 0 -75.5 30t-30.5 75t30.5 74.5t77.5 29.5
zM629 1024q-143 0 -234.5 -123t-101.5 -323h639q-4 205 -85 325.5t-218 120.5zM621 -145q45 0 75.5 -31t30.5 -78t-30.5 -76.5t-78.5 -29.5q-45 0 -77.5 29.5t-32.5 76.5q0 45 33 77t80 32z" />
    <glyph glyph-name="uni1EBC" unicode="&#x1ebc;" horiz-adv-x="1288" 
d="M555 1731q-43 0 -78 -34t-39 -89h-22q0 102 52 167.5t134 65.5q70 0 166 -80q63 -53 123 -53q45 0 80 34t39 89h22q0 -102 -53 -168t-135 -66q-74 0 -168 84q-60 50 -121 50zM379 20h827v-20h-1009v1434h989v-21h-807v-676h643v-20h-643v-697z" />
    <glyph glyph-name="uni1EBD" unicode="&#x1ebd;" 
d="M449 1341q-43 0 -78 -33.5t-39 -88.5h-23q0 102 52.5 167.5t134.5 65.5q70 0 166 -80q63 -53 122 -53q45 0 80 33.5t39 89.5h23q0 -102 -53.5 -168t-135.5 -66q-74 0 -168 84q-59 49 -120 49zM991 354q43 0 73 -29.5t30 -74.5q0 -115 -126 -192.5t-304 -77.5
q-246 0 -405 152.5t-159 379.5t154 379.5t375 152.5q213 0 349 -139t136 -348h-823v-27q0 -246 108.5 -384t298.5 -138q109 0 196 38t126 104q-16 -4 -31 -5q-45 0 -75.5 30t-30.5 75t30.5 74.5t77.5 29.5zM629 1024q-143 0 -234.5 -123t-101.5 -323h639q-4 205 -85 325.5
t-218 120.5z" />
    <glyph glyph-name="uni1ECA" unicode="&#x1eca;" horiz-adv-x="573" 
d="M197 0v1434h182v-1434h-182zM287 -360q-45 0 -78 29.5t-33 76.5q0 45 33 77t80 32q45 0 75.5 -31t30.5 -78t-30.5 -76.5t-77.5 -29.5z" />
    <glyph glyph-name="uni1ECB" unicode="&#x1ecb;" horiz-adv-x="534" 
d="M270 1214q-51 0 -83.5 33t-32.5 80q0 49 32.5 81t83.5 32q47 0 79 -32t32 -81q0 -47 -32 -80t-79 -33zM176 0v989l182 45v-1034h-182zM268 -360q-45 0 -77.5 29.5t-32.5 76.5q0 45 32.5 77t79.5 32q45 0 76 -31t31 -78t-31 -76.5t-78 -29.5z" />
    <glyph glyph-name="uni1ECC" unicode="&#x1ecc;" horiz-adv-x="1697" 
d="M848 -20q-319 0 -532.5 210.5t-213.5 526t213 526.5t533 211q322 0 534.5 -211t212.5 -526.5t-212.5 -526t-534.5 -210.5zM848 0q252 0 404.5 196.5t152.5 520t-152.5 520.5t-404.5 197q-250 0 -402.5 -197t-152.5 -520.5t152.5 -520t402.5 -196.5zM848 -360
q-45 0 -78 29.5t-33 76.5q0 45 33 77t80 32q45 0 75.5 -31t30.5 -78t-30.5 -76.5t-77.5 -29.5z" />
    <glyph glyph-name="uni1ECD" unicode="&#x1ecd;" horiz-adv-x="1280" 
d="M639 -20q-229 0 -384 152.5t-155 379.5t155 379.5t384 152.5q231 0 386 -152.5t155 -379.5t-155 -379.5t-386 -152.5zM639 0q160 0 255 138t95 374t-95 374t-255 138q-158 0 -253 -139.5t-95 -372.5t95 -372.5t253 -139.5zM639 -360q-45 0 -78 29.5t-33 76.5q0 45 33 77
t80 32q45 0 76 -31t31 -78t-31 -76.5t-78 -29.5z" />
    <glyph glyph-name="uni1EE4" unicode="&#x1ee4;" horiz-adv-x="1558" 
d="M807 -20q-276 0 -450.5 161.5t-174.5 425.5v867h183v-899q0 -231 134 -370.5t353 -139.5q227 0 361.5 138t134.5 372v899h28v-902q0 -252 -152.5 -402t-416.5 -150zM805 -360q-45 0 -78 29.5t-33 76.5q0 45 33 77t80 32q45 0 75.5 -31t30.5 -78t-30.5 -76.5t-77.5 -29.5z
" />
    <glyph glyph-name="uni1EE5" unicode="&#x1ee5;" horiz-adv-x="1259" 
d="M901 989l182 45v-1034h-182v195q-55 -96 -157.5 -155.5t-223.5 -59.5q-156 0 -259 99t-103 249v661l182 45v-755q0 -109 65.5 -180.5t169.5 -71.5q96 0 188.5 61.5t137.5 159.5v741zM625 -145q45 0 75.5 -31t30.5 -78t-30.5 -76.5t-77.5 -29.5q-45 0 -78 29.5t-33 76.5
q0 45 33 77t80 32z" />
    <glyph glyph-name="Ygrave" unicode="&#x1ef2;" horiz-adv-x="1390" 
d="M774 1589h-24l-353 250h248zM1298 1434h31l-543 -820v-614h-182v614l-543 820h203l518 -783z" />
    <glyph glyph-name="ygrave" unicode="&#x1ef3;" horiz-adv-x="1044" 
d="M623 1200h-25l-352 250h248zM989 1024h29l-600 -1368q-55 -127 -193 -127q-68 0 -118 43t-50 100q0 45 31 75t78 30q45 0 73.5 -30t28.5 -75t-28.5 -74.5t-73.5 -29.5h-14q35 -23 73 -23q51 0 98.5 29t73.5 86l121 281l-475 1083h190l377 -870z" />
    <glyph glyph-name="uni1EF8" unicode="&#x1ef8;" horiz-adv-x="1390" 
d="M526 1731q-43 0 -77.5 -34t-38.5 -89h-23q0 102 52.5 167.5t133.5 65.5q70 0 166 -80q63 -53 123 -53q45 0 80 34t39 89h23q0 -102 -53.5 -168t-135.5 -66q-74 0 -168 84q-60 50 -121 50zM1298 1434h31l-543 -820v-614h-182v614l-543 820h203l518 -783z" />
    <glyph glyph-name="uni1EF9" unicode="&#x1ef9;" horiz-adv-x="1044" 
d="M375 1341q-43 0 -78 -33.5t-39 -88.5h-22q0 102 52 167.5t134 65.5q70 0 166 -80q63 -53 123 -53q45 0 79.5 33.5t38.5 89.5h23q0 -102 -53.5 -168t-134.5 -66q-74 0 -168 84q-60 49 -121 49zM989 1024h29l-600 -1368q-55 -127 -193 -127q-68 0 -118 43t-50 100
q0 45 31 75t78 30q45 0 73.5 -30t28.5 -75t-28.5 -74.5t-73.5 -29.5h-14q35 -23 73 -23q51 0 98.5 29t73.5 86l121 281l-475 1083h190l377 -870z" />
    <glyph glyph-name="endash" unicode="&#x2013;" horiz-adv-x="1492" 
d="M154 539v28h1185v-28h-1185z" />
    <glyph glyph-name="emdash" unicode="&#x2014;" horiz-adv-x="2516" 
d="M154 539v28h2209v-28h-2209z" />
    <glyph glyph-name="quoteleft" unicode="&#x2018;" horiz-adv-x="399" 
d="M201 1243q53 0 90 -36t37 -89t-36 -90t-89 -37t-92 40t-39 110q0 96 57 192.5t141 141.5l15 -15q-63 -39 -109.5 -108.5t-54.5 -137.5q29 29 80 29z" />
    <glyph glyph-name="quoteright" unicode="&#x2019;" horiz-adv-x="399" 
d="M196.5 1454q53.5 0 92.5 -40t39 -109q0 -96 -57.5 -192.5t-141.5 -141.5l-14 14q63 39 109 108.5t55 137.5q-29 -29 -80 -29q-53 0 -90 36t-37 89t35.5 90t89 37z" />
    <glyph glyph-name="quotesinglbase" unicode="&#x201a;" horiz-adv-x="440" 
d="M223 242q53 0 92 -40t39 -110q0 -96 -58 -191.5t-142 -142.5l-15 15q63 41 108.5 108.5t53.5 132.5q-29 -25 -78 -24q-53 0 -90 35.5t-37 89t37 90.5t90 37z" />
    <glyph glyph-name="quotedblleft" unicode="&#x201c;" horiz-adv-x="772" 
d="M201 1243q53 0 90 -36t37 -89t-36 -90t-89 -37t-92 40t-39 110q0 96 57 192.5t141 141.5l15 -15q-63 -39 -109.5 -108.5t-54.5 -137.5q29 29 80 29zM573 1243q53 0 90 -36t37 -89t-36.5 -90t-90 -37t-92.5 40t-39 110q0 96 58.5 192.5t142.5 141.5l14 -15
q-66 -39 -110.5 -108.5t-52.5 -137.5q28 29 79 29z" />
    <glyph glyph-name="quotedblright" unicode="&#x201d;" horiz-adv-x="772" 
d="M196.5 1454q53.5 0 92.5 -40t39 -109q0 -96 -57.5 -192.5t-141.5 -141.5l-14 14q63 39 109 108.5t55 137.5q-29 -29 -80 -29q-53 0 -90 36t-37 89t35.5 90t89 37zM569.5 1454q53.5 0 92 -40t38.5 -109q0 -96 -57 -192.5t-143 -141.5l-13 14q63 39 109.5 108.5t54.5 137.5
q-29 -29 -80 -29q-53 0 -91 36t-38 89t37 90t90.5 37z" />
    <glyph glyph-name="quotedblbase" unicode="&#x201e;" horiz-adv-x="813" 
d="M223 242q53 0 92 -40t39 -110q0 -96 -58 -191.5t-142 -142.5l-15 15q63 41 108.5 108.5t53.5 132.5q-29 -25 -78 -24q-53 0 -90 35.5t-37 89t37 90.5t90 37zM594 242q53 0 92 -40t39 -110q0 -96 -57.5 -191.5t-141.5 -142.5l-14 15q63 41 108.5 108.5t53.5 132.5
q-29 -25 -78 -24q-53 0 -90 35.5t-37 89t36 90.5t89 37z" />
    <glyph glyph-name="dagger" unicode="&#x2020;" horiz-adv-x="802" 
d="M686 1096v-21h-237q-33 -299 -35 -643h-21q-4 350 -37 643h-237v21h235q-6 61 -13 123.5t-11 95.5t-4 47q0 41 22.5 66.5t55 25.5t55 -26.5t22.5 -65.5q0 -14 -4 -47t-12 -95.5t-14 -123.5h235z" />
    <glyph glyph-name="daggerdbl" unicode="&#x2021;" horiz-adv-x="802" 
d="M424 1075q-8 -55 -8 -141q0 -57 8 -143h262v-21h-260q10 -76 32.5 -161t22.5 -107q0 -39 -22.5 -64.5t-55 -25.5t-55 25.5t-22.5 64.5q0 23 22.5 107.5t32.5 160.5h-262v21h264q8 86 8 143q0 86 -8 141h-264v21h262q-10 74 -32.5 159.5t-22.5 108.5q0 39 22.5 64.5
t55 25.5t55 -25.5t22.5 -64.5q0 -23 -22.5 -109t-32.5 -159h260v-21h-262z" />
    <glyph glyph-name="bullet" unicode="&#x2022;" horiz-adv-x="647" 
d="M326 385q-74 0 -123 48t-49 122q0 72 49 122t123 50q72 0 120 -50t48 -122q0 -74 -48 -122t-120 -48z" />
    <glyph glyph-name="ellipsis" unicode="&#x2026;" horiz-adv-x="1318" 
d="M223 -10q-53 0 -90 35.5t-37 89t37 91.5t90 38t90 -38t37 -91.5t-37 -89t-90 -35.5zM661.5 -10q-53.5 0 -91.5 35.5t-38 89t38 91.5t91.5 38t89 -38t35.5 -91.5t-35.5 -89t-89 -35.5zM1097.5 -10q-53.5 0 -90 35.5t-36.5 89t36.5 91.5t90 38t90.5 -38t37 -91.5t-37 -89
t-90.5 -35.5z" />
    <glyph glyph-name="perthousand" unicode="&#x2030;" horiz-adv-x="2185" 
d="M379 799q-127 0 -212 94t-85 233.5t85 233.5t212 94q129 0 214 -94t85 -233.5t-85 -233.5t-214 -94zM379 817q76 0 121 83t45 226.5t-45 226.5t-121 83t-120 -83t-44 -226.5t44 -226.5t120 -83zM256 0l922 1434h34l-921 -1434h-35zM1092 -20q-127 0 -212 94t-85 233
t85 233.5t212 94.5q129 0 214 -94.5t85 -233.5t-85 -233t-214 -94zM1804 -20q-127 0 -213 94t-86 233t86 233.5t213 94.5t213 -94.5t86 -233.5t-86 -233t-213 -94zM1091.5 -2q75.5 0 120.5 83t45 226.5t-45 226t-120.5 82.5t-119.5 -82.5t-44 -226t44 -226.5t119.5 -83z
M1804.5 -2q75.5 0 120.5 83t45 226.5t-45 226t-120.5 82.5t-120 -82.5t-44.5 -226t44.5 -226.5t120 -83z" />
    <glyph glyph-name="guilsinglleft" unicode="&#x2039;" horiz-adv-x="561" 
d="M229 549q76 -68 146.5 -165t103.5 -187l-14 -13q-59 90 -179 192.5t-239 162.5v20q121 59 241 161.5t177 194.5l14 -14q-33 -88 -103.5 -186t-146.5 -166z" />
    <glyph glyph-name="guilsinglright" unicode="&#x203a;" horiz-adv-x="561" 
d="M94 915q59 -92 180 -194.5t240 -161.5v-20q-119 -59 -239.5 -161t-180.5 -194l-12 13q33 90 103.5 187t146.5 165q-76 68 -146.5 166t-103.5 186z" />
    <glyph glyph-name="fraction" unicode="&#x2044;" horiz-adv-x="188" 
d="M-383 0l922 1434h34l-921 -1434h-35z" />
    <glyph glyph-name="uni2070" unicode="&#x2070;" horiz-adv-x="1118" 
d="M557 766q-156 0 -261.5 127t-105.5 315.5t105.5 315.5t261.5 127q158 0 264.5 -127t106.5 -315.5t-106.5 -315.5t-264.5 -127zM557 782q98 0 154.5 115t56.5 311.5t-56.5 311t-154.5 114.5q-96 0 -153.5 -115.5t-57.5 -310t57.5 -310.5t153.5 -116z" />
    <glyph glyph-name="uni2074" unicode="&#x2074;" horiz-adv-x="1060" 
d="M870 1038v-16h-127v-244h-151v244h-402v18l424 598h129v-600h127zM217 1038h375v533z" />
    <glyph glyph-name="uni2075" unicode="&#x2075;" horiz-adv-x="978" 
d="M475 1348q135 0 224 -83t89 -210t-89 -208t-228 -81q-121 0 -201 58.5t-80 144.5q0 35 24 57.5t60 22.5q33 0 55.5 -24t22.5 -56q0 -37 -22.5 -58.5t-55.5 -21.5q-10 0 -30 4q51 -98 178 -98q100 0 154.5 70.5t54.5 189.5t-55.5 191.5t-147.5 72.5q-109 0 -170 -72
l-22 13l47 378h448l-12 -98h-428l-35 -270q31 35 92 56.5t127 21.5z" />
    <glyph glyph-name="uni2076" unicode="&#x2076;" horiz-adv-x="1026" 
d="M551 1319q119 0 202 -77t83 -191q0 -121 -90.5 -203t-219.5 -82q-147 0 -241.5 108.5t-94.5 288.5q0 199 108 343.5t267 144.5q92 0 155.5 -47.5t63.5 -112.5q0 -35 -24.5 -58.5t-61.5 -23.5q-33 0 -55 23.5t-22 58.5t22.5 58.5t54.5 23.5q4 0 11.5 -1t11.5 -1
q-45 55 -123 55q-113 0 -179.5 -110.5t-72.5 -311.5q23 49 77 82t128 33zM514 782q76 0 119 70t43 190.5t-42 186t-120 65.5t-122 -66.5t-44 -185.5q0 -121 44 -190.5t122 -69.5z" />
    <glyph glyph-name="uni2077" unicode="&#x2077;" horiz-adv-x="968" 
d="M780 1638v-28q-135 -162 -213 -394.5t-67 -437.5h-176q10 125 115.5 338t262.5 424h-512v98h590z" />
    <glyph glyph-name="uni2078" unicode="&#x2078;" horiz-adv-x="995" 
d="M618 1241q90 -43 139.5 -94t49.5 -131q0 -111 -91 -180.5t-224 -69.5q-127 0 -214.5 61.5t-87.5 155.5q0 66 44.5 126t111.5 93q-137 82 -137 207q0 106 83 174t206 68q117 0 193.5 -60.5t76.5 -148.5q0 -61 -41 -116.5t-109 -84.5zM518 1632q-78 0 -131 -46t-53 -116
q0 -47 33.5 -84.5t72.5 -59t109 -52.5l53 -25q53 29 85 80t32 107q0 84 -57.5 140t-143.5 56zM475 784q90 0 148.5 46.5t58.5 115.5q0 68 -55.5 110t-163.5 89q-33 14 -98 47q-57 -31 -92 -87t-35 -118q0 -86 68.5 -144.5t168.5 -58.5z" />
    <glyph glyph-name="uni2079" unicode="&#x2079;" horiz-adv-x="1026" 
d="M500 1651q147 0 241.5 -108.5t94.5 -289.5q0 -199 -105.5 -343t-261.5 -144q-94 0 -161.5 47t-67.5 113q0 35 24.5 58.5t59 23.5t57 -23.5t22.5 -58.5t-22.5 -58.5t-56.5 -23.5q-12 0 -19 2q49 -55 129 -55q113 0 175.5 107.5t66.5 311.5q-23 -47 -76 -79.5t-129 -32.5
q-117 0 -199 76.5t-82 191.5q0 121 90.5 203t219.5 82zM510 1122q78 0 121 66.5t43 185.5q0 121 -43 190.5t-121 69.5q-76 0 -120 -69.5t-44 -190.5q0 -119 43 -185.5t121 -66.5z" />
    <glyph glyph-name="uni2080" unicode="&#x2080;" horiz-adv-x="1118" 
d="M557 -217q-156 0 -261.5 127t-105.5 315.5t105.5 315.5t261.5 127q158 0 264.5 -127t106.5 -315.5t-106.5 -315.5t-264.5 -127zM557 -201q98 0 154.5 115t56.5 311.5t-56.5 311t-154.5 114.5q-96 0 -153.5 -115.5t-57.5 -310t57.5 -310.5t153.5 -116z" />
    <glyph glyph-name="uni2081" unicode="&#x2081;" horiz-adv-x="708" 
d="M422 655h98v-860h-153v776q-66 -61 -168 -84l-9 17q61 16 128 59t104 92z" />
    <glyph glyph-name="uni2082" unicode="&#x2082;" horiz-adv-x="940" 
d="M285 -106h465v-99h-553v33l221 262q86 100 129 178t43 168q0 92 -46 147.5t-130 55.5q-129 0 -174 -113q16 6 34 6q33 0 55.5 -21.5t22.5 -57.5q0 -33 -22.5 -56.5t-55.5 -23.5q-37 0 -60.5 22.5t-23.5 57.5q0 90 78 152.5t197 62.5q121 0 202 -65.5t81 -162.5
q0 -88 -66 -169t-199 -199z" />
    <glyph glyph-name="uni2083" unicode="&#x2083;" horiz-adv-x="966" 
d="M543 242q106 -20 169.5 -83t63.5 -147q0 -100 -85 -164.5t-220 -64.5q-123 0 -202 53t-79 137q0 35 24 57.5t60 22.5q33 0 55.5 -23.5t22.5 -56.5q0 -37 -22.5 -58t-55.5 -21q-12 0 -28 4q49 -86 174 -86q96 0 150.5 58t54.5 157q0 92 -50.5 149t-132.5 57h-84v17h84
q72 0 116 52t44 136q0 92 -48 146.5t-134 54.5q-117 0 -164 -86q20 4 31 4q33 0 55.5 -21.5t22.5 -58.5q0 -33 -23 -56.5t-55 -23.5q-37 0 -60.5 22.5t-23.5 57.5q0 82 75.5 136.5t192.5 54.5q123 0 202 -59.5t79 -153.5q0 -76 -58.5 -134.5t-150.5 -78.5z" />
    <glyph glyph-name="uni2084" unicode="&#x2084;" horiz-adv-x="1060" 
d="M870 55v-16h-127v-244h-151v244h-402v18l424 598h129v-600h127zM217 55h375v533z" />
    <glyph glyph-name="uni2085" unicode="&#x2085;" horiz-adv-x="978" 
d="M475 365q135 0 224 -83t89 -210t-89 -208t-228 -81q-121 0 -201 58.5t-80 144.5q0 35 24 57.5t60 22.5q33 0 55.5 -24t22.5 -56q0 -37 -22.5 -58.5t-55.5 -21.5q-10 0 -30 4q51 -98 178 -98q100 0 154.5 70.5t54.5 189t-55.5 191.5t-147.5 73q-109 0 -170 -72l-22 12
l47 379h448l-12 -98h-428l-35 -270q31 35 92 56.5t127 21.5z" />
    <glyph glyph-name="uni2086" unicode="&#x2086;" horiz-adv-x="1026" 
d="M551 336q119 0 202 -77t83 -191q0 -121 -90.5 -203t-219.5 -82q-147 0 -241.5 108.5t-94.5 288.5q0 199 108 343.5t267 144.5q92 0 155.5 -47.5t63.5 -112.5q0 -35 -24.5 -58.5t-61.5 -23.5q-33 0 -55 23.5t-22 58.5t22.5 58.5t54.5 23.5q4 0 11.5 -1t11.5 -1
q-45 55 -123 55q-113 0 -179.5 -110.5t-72.5 -311.5q23 49 77 82t128 33zM514 -201q76 0 119 70t43 190.5t-42 186t-120 65.5t-122 -66.5t-44 -185.5q0 -121 44 -190.5t122 -69.5z" />
    <glyph glyph-name="uni2087" unicode="&#x2087;" horiz-adv-x="968" 
d="M780 655v-28q-135 -162 -213 -394.5t-67 -437.5h-176q10 125 115.5 338t262.5 424h-512v98h590z" />
    <glyph glyph-name="uni2088" unicode="&#x2088;" horiz-adv-x="995" 
d="M618 258q90 -43 139.5 -94t49.5 -131q0 -111 -91 -180.5t-224 -69.5q-127 0 -214.5 61.5t-87.5 155.5q0 66 44.5 126t111.5 93q-137 82 -137 207q0 106 83 174t206 68q117 0 193.5 -60.5t76.5 -148.5q0 -61 -41 -116.5t-109 -84.5zM518 649q-78 0 -131 -46t-53 -116
q0 -47 33.5 -84.5t72.5 -59t109 -52.5l53 -25q53 29 85 80t32 107q0 84 -57.5 140t-143.5 56zM475 -199q90 0 148.5 46.5t58.5 115.5q0 68 -55.5 110t-163.5 89q-33 14 -98 47q-57 -31 -92 -87t-35 -118q0 -86 68.5 -144.5t168.5 -58.5z" />
    <glyph glyph-name="uni2089" unicode="&#x2089;" horiz-adv-x="1026" 
d="M500 668q147 0 241.5 -108.5t94.5 -289.5q0 -199 -105.5 -343t-261.5 -144q-94 0 -161.5 47t-67.5 113q0 35 24.5 58.5t59 23.5t57 -24t22.5 -58.5t-22.5 -58t-56.5 -23.5q-12 0 -19 2q49 -55 129 -56q113 0 175.5 108t66.5 312q-23 -47 -76 -79.5t-129 -32.5
q-117 0 -199 76.5t-82 191.5q0 121 90.5 203t219.5 82zM510 139q78 0 121 66.5t43 185.5q0 121 -43 190.5t-121 69.5q-76 0 -120 -69.5t-44 -190.5q0 -119 43 -185.5t121 -66.5z" />
    <glyph glyph-name="franc" unicode="&#x20a3;" horiz-adv-x="1171" 
d="M1104 1413h-694v-680h530v-20h-530v-324h301v-20h-301v-369h-183v369h-143v20h143v1045h877v-21z" />
    <glyph glyph-name="uni20A8" unicode="&#x20a8;" horiz-adv-x="2375" 
d="M1253 156q55 -102 131 -156h-208q-63 45 -107 119l-227 399q-51 84 -125 107h-338v-625h-182v1434h563q223 0 371.5 -117t148.5 -291q0 -160 -129 -271.5t-328 -127.5q174 -31 234 -138zM379 1413v-768h346q164 0 264.5 103.5t100.5 275.5q0 176 -100.5 282.5
t-264.5 106.5h-346zM1944 596q82 -35 123.5 -55.5t103 -61.5t89.5 -93t28 -118q0 -129 -105.5 -208.5t-286.5 -79.5q-168 0 -284.5 64.5t-116.5 160.5q0 43 28.5 70.5t73.5 27.5q41 0 68 -27.5t27 -70.5t-27 -71t-68 -28q-12 0 -18 3q92 -106 301 -107q123 0 197.5 53.5
t74.5 137.5q0 78 -69.5 128t-216.5 111q-66 29 -95.5 42t-89 47t-87 63.5t-52 77t-24.5 100.5q0 127 107.5 204.5t277.5 77.5q145 0 245.5 -56t106.5 -140v-6q0 -43 -27.5 -71t-68.5 -28q-45 0 -74 28t-29 71t29 70.5t74 27.5h10q-86 82 -252 82q-115 0 -189.5 -53.5
t-74.5 -134.5q0 -80 72 -130.5t219 -107.5z" />
    <glyph glyph-name="Euro" unicode="&#x20ac;" horiz-adv-x="1402" 
d="M1272 276l22 -14q-51 -125 -178 -203.5t-278 -78.5q-225 0 -391 168.5t-203 433.5h-172l20 20h148q-6 55 -6.5 114.5t6.5 114.5h-168l20 21h152q37 264 201.5 433t398.5 169q184 0 308 -100.5t124 -239.5q0 -45 -28.5 -74.5t-71.5 -29.5q-47 0 -79 29.5t-32 74.5t31.5 75
t79.5 30q25 0 41 -9q-31 96 -119 154.5t-209 58.5q-188 0 -310 -153.5t-149 -417.5h584l-23 -21h-563q-4 -74 -4 -116q0 -39 4 -113h451l-23 -20h-426q27 -262 145.5 -417t296.5 -155q127 0 236 72.5t164 193.5z" />
    <glyph glyph-name="uni2116" unicode="&#x2116;" horiz-adv-x="2832" 
d="M2156.5 389q-231.5 0 -386 152.5t-154.5 380t154.5 380t386 152.5t386 -152.5t154.5 -380t-154.5 -380t-386 -152.5zM1348 221v1213h28v-1434h-69l-1082 1294v-1294h-28v1434h141zM2156.5 1434q-159.5 0 -255 -138.5t-95.5 -374t95.5 -373.5t255 -138t255 139t95.5 372.5
t-95.5 373t-255 139.5zM1761 0v20h793v-20h-793z" />
    <glyph glyph-name="trademark" unicode="&#x2122;" horiz-adv-x="1034" 
d="M426 1434v-17h-121v-393h-88v393h-119v17h328zM836 1434h100v-410h-88v385l-152 -336h-14l-152 336v-385h-20v410h104l111 -248z" />
    <glyph glyph-name="uni2150" unicode="&#x2150;" horiz-adv-x="2031" 
d="M520 573h-153v777q-66 -61 -168 -84l-9 16q61 16 128 59t104 93h98v-861zM1358 1434h35l-922 -1434h-35zM1841 860v-29q-135 -162 -213 -394t-67 -437h-177q10 125 116 338t263 424h-512v98h590z" />
    <glyph glyph-name="uni2151" unicode="&#x2151;" horiz-adv-x="2033" 
d="M520 573h-153v777q-66 -61 -168 -84l-9 16q61 16 128 59t104 93h98v-861zM1358 1434h35l-922 -1434h-35zM1507 872q147 0 241.5 -108.5t94.5 -288.5q0 -199 -105.5 -343t-260.5 -144q-94 0 -162 47t-68 112q0 35 24.5 58.5t59.5 23.5t57.5 -23.5t22.5 -58t-22.5 -58
t-57.5 -23.5q-12 0 -18 2q49 -55 129 -56q113 0 175 107.5t66 312.5q-23 -47 -76 -80t-128 -33q-117 0 -199 77t-82 192q0 121 90 202.5t219 81.5zM1517.5 344q77.5 0 120.5 66.5t43 185.5q0 121 -43 190.5t-120 69.5q-76 0 -120 -69.5t-44 -190.5q0 -119 43 -185.5
t120.5 -66.5z" />
    <glyph glyph-name="uni2152" unicode="&#x2152;" horiz-adv-x="2707" 
d="M520 573h-153v777q-66 -61 -168 -84l-9 16q61 16 128 59t104 93h98v-861zM1358 1434h35l-922 -1434h-35zM2148 872q158 0 264.5 -127t106.5 -315t-106.5 -315t-264.5 -127q-156 0 -261 127t-105 315t105 315t261 127zM1206 709q61 16 128 59t104 92h98v-860h-154v776
q-66 -61 -168 -84zM2148 4q98 0 154.5 114.5t56.5 311.5t-56 311.5t-155 114.5q-96 0 -153.5 -115.5t-57.5 -310t57.5 -310.5t153.5 -116z" />
    <glyph glyph-name="onethird" unicode="&#x2153;" horiz-adv-x="1978" 
d="M520 573h-153v777q-66 -61 -168 -84l-9 16q61 16 128 59t104 93h98v-861zM1358 1434h35l-922 -1434h-35zM1554 446q106 -20 170 -82.5t64 -146.5q0 -100 -85 -164.5t-220 -64.5q-123 0 -202 53t-79 137q0 35 23.5 57.5t60.5 22.5q33 0 55.5 -23.5t22.5 -56.5
q0 -37 -22.5 -58.5t-55.5 -21.5q-12 0 -29 4q49 -86 175 -86q96 0 150 58.5t54 156.5q0 92 -50 149.5t-132 57.5h-84v17h84q72 0 116 52t44 136q0 92 -48 146.5t-134 54.5q-117 0 -164 -86q20 4 30 4q33 0 55.5 -21.5t22.5 -58.5q0 -33 -22.5 -56.5t-55.5 -23.5
q-37 0 -60.5 22.5t-23.5 57.5q0 82 76 136t193 54q123 0 201.5 -59t78.5 -154q0 -76 -58.5 -134.5t-150.5 -78.5z" />
    <glyph glyph-name="twothirds" unicode="&#x2154;" horiz-adv-x="2168" 
d="M197 606l221 262q86 100 129 178t43 168q0 92 -46 147.5t-130 55.5q-129 0 -174 -112q14 6 34 6q33 0 55.5 -21.5t22.5 -58.5q0 -33 -22.5 -56.5t-55.5 -23.5q-37 0 -60.5 22.5t-23.5 57.5q0 90 78 152.5t197 62.5q121 0 202 -65.5t81 -161.5q0 -88 -66 -169t-199 -200
l-198 -178h465v-99h-553v33zM1548 1434h35l-921 -1434h-35zM1745 446q106 -20 169.5 -82.5t63.5 -146.5q0 -100 -85 -164.5t-220 -64.5q-123 0 -201.5 53t-78.5 137q0 35 23.5 57.5t60.5 22.5q33 0 55 -23.5t22 -56.5q0 -37 -22.5 -58.5t-54.5 -21.5q-12 0 -29 4
q49 -86 174 -86q96 0 150.5 58.5t54.5 156.5q0 92 -50.5 149.5t-131.5 57.5h-84v17h84q72 0 115.5 52t43.5 136q0 92 -48 146.5t-134 54.5q-117 0 -164 -86q20 4 31 4q33 0 55.5 -21.5t22.5 -58.5q0 -33 -22.5 -56.5t-55.5 -23.5q-37 0 -60.5 22.5t-23.5 57.5q0 82 75.5 136
t192.5 54q123 0 202 -59t79 -154q0 -76 -58.5 -134.5t-150.5 -78.5z" />
    <glyph glyph-name="uni2155" unicode="&#x2155;" horiz-adv-x="1986" 
d="M520 573h-153v777q-66 -61 -168 -84l-9 16q61 16 128 59t104 93h98v-861zM1358 1434h35l-922 -1434h-35zM1483 569q135 0 224 -83t89 -209.5t-89 -207.5t-228 -81q-121 0 -201 58t-80 144q0 35 23.5 57.5t60.5 22.5q33 0 55.5 -23.5t22.5 -56.5q0 -37 -22.5 -58
t-55.5 -21q-10 0 -31 4q51 -98 179 -99q100 0 154 71t54 189.5t-55 191.5t-147 73q-109 0 -170 -72l-23 12l47 379h449l-13 -98h-428l-34 -270q31 35 92 56t127 21z" />
    <glyph glyph-name="uni2156" unicode="&#x2156;" horiz-adv-x="2177" 
d="M197 606l221 262q86 100 129 178t43 168q0 92 -46 147.5t-130 55.5q-129 0 -174 -112q14 6 34 6q33 0 55.5 -21.5t22.5 -58.5q0 -33 -22.5 -56.5t-55.5 -23.5q-37 0 -60.5 22.5t-23.5 57.5q0 90 78 152.5t197 62.5q121 0 202 -65.5t81 -161.5q0 -88 -66 -169t-199 -200
l-198 -178h465v-99h-553v33zM1548 1434h35l-921 -1434h-35zM1673 569q135 0 224.5 -83t89.5 -209.5t-89.5 -207.5t-228.5 -81q-121 0 -200.5 58t-79.5 144q0 35 23.5 57.5t60.5 22.5q33 0 55 -23.5t22 -56.5q0 -37 -22.5 -58t-54.5 -21q-10 0 -31 4q51 -98 178 -99
q100 0 154.5 71t54.5 189.5t-55.5 191.5t-147.5 73q-109 0 -170 -72l-22 12l47 379h448l-12 -98h-428l-35 -270q31 35 92 56t127 21z" />
    <glyph glyph-name="uni2157" unicode="&#x2157;" horiz-adv-x="2134" 
d="M776 791q0 -100 -85 -165t-220 -65q-123 0 -202 53.5t-79 137.5q0 35 24 57t60 22q33 0 55.5 -23.5t22.5 -55.5q0 -37 -22.5 -58.5t-55.5 -21.5q-12 0 -28 4q49 -86 174 -86q96 0 150.5 58.5t54.5 156.5q0 92 -50.5 149.5t-132.5 57.5h-84v16h84q72 0 116 52.5t44 136.5
q0 92 -48 146t-134 54q-117 0 -164 -86q20 4 31 4q33 0 55.5 -21.5t22.5 -58.5q0 -33 -23 -56t-55 -23q-37 0 -60.5 22.5t-23.5 56.5q0 82 75.5 136.5t192.5 54.5q123 0 202 -59.5t79 -153.5q0 -76 -58.5 -134.5t-150.5 -78.5q106 -20 169.5 -82.5t63.5 -146.5zM1505 1434
h35l-922 -1434h-34zM1630 569q135 0 224.5 -83t89.5 -209.5t-89.5 -207.5t-228.5 -81q-121 0 -200.5 58t-79.5 144q0 35 23.5 57.5t60.5 22.5q33 0 55 -23.5t22 -56.5q0 -37 -22.5 -58t-54.5 -21q-10 0 -31 4q51 -98 178 -99q100 0 154.5 71t54.5 189.5t-55.5 191.5
t-147.5 73q-109 0 -170 -72l-22 12l47 379h448l-12 -98h-428l-35 -270q31 35 92 56t127 21z" />
    <glyph glyph-name="uni2158" unicode="&#x2158;" horiz-adv-x="2240" 
d="M743 573h-151v244h-402v19l424 598h129v-600h127v-17h-127v-244zM1612 1434h35l-922 -1434h-35zM217 834h375v532zM1737 569q135 0 224 -83t89 -209.5t-89 -207.5t-228 -81q-121 0 -201 58t-80 144q0 35 23.5 57.5t60.5 22.5q33 0 55.5 -23.5t22.5 -56.5q0 -37 -22.5 -58
t-55.5 -21q-10 0 -31 4q51 -98 178 -99q100 0 154.5 71t54.5 189.5t-55 191.5t-147 73q-109 0 -170 -72l-23 12l47 379h449l-13 -98h-428l-34 -270q31 35 92 56t127 21z" />
    <glyph glyph-name="uni2159" unicode="&#x2159;" horiz-adv-x="2013" 
d="M520 573h-153v777q-66 -61 -168 -84l-9 16q61 16 128 59t104 93h98v-861zM1358 1434h35l-922 -1434h-35zM1538 541q119 0 202 -77t83 -192q0 -121 -90.5 -202.5t-219.5 -81.5q-147 0 -241 108.5t-94 288.5q0 199 107.5 343t266.5 144q92 0 156 -47t64 -112
q0 -35 -25 -58.5t-61 -23.5q-33 0 -55.5 23.5t-22.5 58.5t22.5 58.5t55.5 23.5q4 0 11 -1t11 -1q-45 55 -123 55q-113 0 -179.5 -110.5t-72.5 -311.5q23 49 77 82t128 33zM1501 4q76 0 119 69.5t43 190.5t-42 186.5t-120 65.5t-122 -66.5t-44 -185.5q0 -121 44 -190.5
t122 -69.5z" />
    <glyph glyph-name="uni215A" unicode="&#x215a;" horiz-adv-x="2172" 
d="M788 850q0 -127 -89 -208t-228 -81q-121 0 -201 58.5t-80 144.5q0 35 24 57.5t60 22.5q33 0 55.5 -23.5t22.5 -56.5q0 -37 -22.5 -58.5t-55.5 -21.5q-10 0 -30 4q51 -98 178 -98q100 0 154.5 70.5t54.5 189.5t-55.5 191.5t-147.5 72.5q-109 0 -170 -72l-22 13l47 379h448
l-12 -99h-428l-35 -270q31 35 92.5 56.5t126.5 21.5q135 0 224 -83t89 -210zM1518 1434h34l-921 -1434h-35zM1698 541q119 0 201.5 -77t82.5 -192q0 -121 -90 -202.5t-219 -81.5q-147 0 -241.5 108.5t-94.5 288.5q0 199 107.5 343t267.5 144q92 0 155.5 -47t63.5 -112
q0 -35 -24.5 -58.5t-61.5 -23.5q-33 0 -55.5 23.5t-22.5 58.5t22.5 58.5t55.5 23.5q4 0 11.5 -1t11.5 -1q-45 55 -123 55q-113 0 -179.5 -110.5t-72.5 -311.5q23 49 77 82t128 33zM1661 4q76 0 119 69.5t43 190.5t-42 186.5t-120 65.5t-122 -66.5t-44 -185.5
q0 -121 44 -190.5t122 -69.5z" />
    <glyph glyph-name="oneeighth" unicode="&#x215b;" horiz-adv-x="2004" 
d="M520 573h-153v777q-66 -61 -168 -84l-9 16q61 16 128 59t104 93h98v-861zM1358 1434h35l-922 -1434h-35zM1626 463q90 -43 139.5 -94.5t49.5 -130.5q0 -111 -91.5 -180.5t-224.5 -69.5q-127 0 -214 61.5t-87 155.5q0 66 44 126t112 93q-137 82 -137 207q0 106 82.5 173.5
t205.5 67.5q117 0 194 -60t77 -148q0 -61 -41 -116.5t-109 -84.5zM1526 854q-78 0 -131.5 -46t-53.5 -116q0 -47 34 -85t73 -59.5t108 -51.5l54 -25q53 29 84.5 80t31.5 106q0 84 -57 140.5t-143 56.5zM1483 6q90 0 148.5 46t58.5 116q0 68 -55.5 109.5t-164.5 89.5
q-33 14 -98 47q-57 -31 -92 -87.5t-35 -117.5q0 -86 69 -144.5t169 -58.5z" />
    <glyph glyph-name="threeeighths" unicode="&#x215c;" horiz-adv-x="2152" 
d="M776 791q0 -100 -85 -165t-220 -65q-123 0 -202 53.5t-79 137.5q0 35 24 57t60 22q33 0 55.5 -23.5t22.5 -55.5q0 -37 -22.5 -58.5t-55.5 -21.5q-12 0 -28 4q49 -86 174 -86q96 0 150.5 58.5t54.5 156.5q0 92 -50.5 149.5t-132.5 57.5h-84v16h84q72 0 116 52.5t44 136.5
q0 92 -48 146t-134 54q-117 0 -164 -86q20 4 31 4q33 0 55.5 -21.5t22.5 -58.5q0 -33 -23 -56t-55 -23q-37 0 -60.5 22.5t-23.5 56.5q0 82 75.5 136.5t192.5 54.5q123 0 202 -59.5t79 -153.5q0 -76 -58.5 -134.5t-150.5 -78.5q106 -20 169.5 -82.5t63.5 -146.5zM1505 1434
h35l-922 -1434h-34zM1774 463q90 -43 139 -94.5t49 -130.5q0 -111 -91 -180.5t-224 -69.5q-127 0 -214 61.5t-87 155.5q0 66 44 126t111 93q-137 82 -137 207q0 106 83 173.5t206 67.5q117 0 193.5 -60t76.5 -148q0 -61 -40.5 -116.5t-108.5 -84.5zM1673 854q-78 0 -131 -46
t-53 -116q0 -47 33.5 -85t72.5 -59.5t109 -51.5l53 -25q53 29 85 80t32 106q0 84 -57.5 140.5t-143.5 56.5zM1630 6q90 0 148.5 46t58.5 116q0 68 -55.5 109.5t-163.5 89.5q-33 14 -98 47q-57 -31 -92 -87.5t-35 -117.5q0 -86 68.5 -144.5t168.5 -58.5z" />
    <glyph glyph-name="fiveeighths" unicode="&#x215d;" horiz-adv-x="2164" 
d="M788 850q0 -127 -89 -208t-228 -81q-121 0 -201 58.5t-80 144.5q0 35 24 57.5t60 22.5q33 0 55.5 -23.5t22.5 -56.5q0 -37 -22.5 -58.5t-55.5 -21.5q-10 0 -30 4q51 -98 178 -98q100 0 154.5 70.5t54.5 189.5t-55.5 191.5t-147.5 72.5q-109 0 -170 -72l-22 13l47 379h448
l-12 -99h-428l-35 -270q31 35 92.5 56.5t126.5 21.5q135 0 224 -83t89 -210zM1518 1434h34l-921 -1434h-35zM1786 463q90 -43 139 -94.5t49 -130.5q0 -111 -91 -180.5t-224 -69.5q-127 0 -214 61.5t-87 155.5q0 66 44 126t111 93q-137 82 -137 207q0 106 83 173.5t206 67.5
q117 0 193.5 -60t76.5 -148q0 -61 -40.5 -116.5t-108.5 -84.5zM1686 854q-78 0 -131.5 -46t-53.5 -116q0 -47 34 -85t73 -59.5t108 -51.5l53 -25q53 29 85 80t32 106q0 84 -57 140.5t-143 56.5zM1642 6q90 0 148.5 46t58.5 116q0 68 -55 109.5t-164 89.5q-33 14 -98 47
q-57 -31 -92 -87.5t-35 -117.5q0 -86 68.5 -144.5t168.5 -58.5z" />
    <glyph glyph-name="seveneighths" unicode="&#x215e;" horiz-adv-x="2052" 
d="M500 573h-176q10 125 115.5 338t262.5 424h-512v99h590v-29q-135 -162 -212.5 -394.5t-67.5 -437.5zM1405 1434h35l-922 -1434h-35zM1673 463q90 -43 139.5 -94.5t49.5 -130.5q0 -111 -91.5 -180.5t-224.5 -69.5q-127 0 -214 61.5t-87 155.5q0 66 44 126t112 93
q-137 82 -137 207q0 106 83 173.5t205 67.5q117 0 194 -60t77 -148q0 -61 -41 -116.5t-109 -84.5zM1573 854q-78 0 -131 -46t-53 -116q0 -47 33.5 -85t72.5 -59.5t109 -51.5l53 -25q53 29 85 80t32 106q0 84 -57.5 140.5t-143.5 56.5zM1530 6q90 0 148.5 46t58.5 116
q0 68 -55.5 109.5t-163.5 89.5q-33 14 -99 47q-57 -31 -92 -87.5t-35 -117.5q0 -86 69 -144.5t169 -58.5z" />
    <glyph glyph-name="uni215F" unicode="&#x215f;" horiz-adv-x="1007" 
d="M520 573h-153v777q-66 -61 -168 -84l-9 16q61 16 128 59t104 93h98v-861zM1358 1434h35l-922 -1434h-35z" />
    <glyph glyph-name="uni2189" unicode="&#x2189;" horiz-adv-x="2277" 
d="M928 1003.5q0 -188.5 -106.5 -315.5t-264.5 -127q-156 0 -261.5 127t-105.5 315.5t105.5 315.5t261.5 127q158 0 264.5 -127t106.5 -315.5zM1657 1434h35l-922 -1434h-35zM557 578q98 0 154.5 114.5t56.5 311t-56.5 311.5t-154.5 115q-96 0 -153.5 -116t-57.5 -310.5
t57.5 -310t153.5 -115.5zM1853 446q106 -20 170 -82.5t64 -146.5q0 -100 -85 -164.5t-220 -64.5q-123 0 -202 53t-79 137q0 35 23.5 57.5t60.5 22.5q33 0 55.5 -23.5t22.5 -56.5q0 -37 -22.5 -58.5t-55.5 -21.5q-12 0 -29 4q49 -86 175 -86q96 0 150 58.5t54 156.5
q0 92 -50 149.5t-132 57.5h-84v17h84q72 0 116 52t44 136q0 92 -48 146.5t-134 54.5q-117 0 -164 -86q20 4 30 4q33 0 55.5 -21.5t22.5 -58.5q0 -33 -22.5 -56.5t-55.5 -23.5q-37 0 -60.5 22.5t-23.5 57.5q0 82 76 136t193 54q123 0 201.5 -59t78.5 -154q0 -76 -58.5 -134.5
t-150.5 -78.5z" />
    <glyph glyph-name="arrowleft" unicode="&#x2190;" horiz-adv-x="1310" 
d="M1157 563v-20h-809q82 -72 158 -179.5t112 -207.5l-10 -13q-61 92 -192 205t-262 193v24q131 80 262 192.5t192 205.5l10 -13q-37 -100 -112.5 -207.5t-157.5 -179.5h809z" />
    <glyph glyph-name="arrowup" unicode="&#x2191;" horiz-adv-x="1126" 
d="M575 1051q80 -131 193 -262.5t205 -192.5l-12 -10q-100 37 -208 112.5t-180 157.5v-809h-20v809q-72 -82 -179.5 -157.5t-207.5 -112.5l-12 10q92 61 204.5 192.5t192.5 262.5h24z" />
    <glyph glyph-name="arrowright" unicode="&#x2192;" horiz-adv-x="1310" 
d="M702 963q61 -92 192.5 -205t262.5 -193v-24q-131 -80 -262 -192.5t-193 -205.5l-10 13q35 100 111 207.5t158 179.5h-807v20h807q-82 72 -158 179.5t-111 207.5z" />
    <glyph glyph-name="arrowdown" unicode="&#x2193;" horiz-adv-x="1126" 
d="M961 438l12 -10q-92 -61 -205 -192.5t-193 -262.5h-24q-80 131 -192.5 262.5t-204.5 192.5l12 10q100 -37 207.5 -112.5t179.5 -157.5v809h20v-809q72 82 180 157.5t208 112.5z" />
    <glyph glyph-name="minus" unicode="&#x2212;" horiz-adv-x="1126" 
d="M154 604v21h819v-21h-819z" />
    <glyph glyph-name="approxequal" unicode="&#x2248;" horiz-adv-x="1179" 
d="M825 659q-86 0 -240.5 96.5t-230.5 96.5q-80 0 -127 -49t-47 -133h-26q0 92 56 149.5t144 57.5q86 0 241 -96.5t230 -96.5q80 0 127 49t47 133h27q0 -92 -56.5 -149.5t-144.5 -57.5zM825 352q-86 0 -240.5 96.5t-230.5 96.5q-80 0 -127 -49.5t-47 -133.5h-26
q0 92 56 149.5t144 57.5q86 0 241 -96t230 -96q80 0 127 49t47 133h27q0 -92 -56.5 -149.5t-144.5 -57.5z" />
    <glyph glyph-name="notequal" unicode="&#x2260;" horiz-adv-x="1126" 
d="M973 768h-295l-197 -307h492v-21h-506l-152 -235h-32l151 235h-280v21h295l196 307h-491v20h505l152 236h33l-152 -236h281v-20z" />
    <glyph glyph-name="lessequal" unicode="&#x2264;" horiz-adv-x="1126" 
d="M909 236v-31l-694 397v25l694 397v-31l-663 -379zM154 20h819v-20h-819v20z" />
    <glyph glyph-name="greaterequal" unicode="&#x2265;" horiz-adv-x="1126" 
d="M911 627v-25l-694 -397v31l664 378l-664 379v31zM154 20h819v-20h-819v20z" />
    <glyph glyph-name="uniE016" unicode="&#xe016;" horiz-adv-x="1458" 
d="M1206 0l-188 434h-739l-189 -434h-29l621 1413h-629q-188 0 -317 -121t-129 -286q0 -154 83 -259.5t214 -132.5q-25 31 -25 72q0 47 33 78t82 31q47 0 76.5 -31t29.5 -78t-31.5 -77.5t-80.5 -30.5q-178 0 -293 118.5t-115 309.5q0 176 137.5 302t335.5 126h717l627 -1434
h-191zM289 455h719l-359 825z" />
    <glyph glyph-name="uniE017" unicode="&#xe017;" horiz-adv-x="1400" 
d="M901 741q186 -23 304 -122t118 -246q0 -160 -126 -266.5t-312 -106.5h-688v1413h-334q-188 0 -317.5 -121t-129.5 -286q0 -154 83 -259.5t216 -132.5q-27 31 -26 72q0 47 32.5 78t81.5 31q47 0 77 -31t30 -78t-32 -77.5t-81 -30.5q-178 0 -292.5 118.5t-114.5 309.5
q0 176 137 302t336 126h960q188 0 313.5 -101.5t125.5 -251.5q0 -127 -98.5 -217t-262.5 -123zM772 1413h-393v-665h362q152 0 241 87t89 238q0 156 -82 248t-217 92zM834 20q135 0 217 95.5t82 255.5q0 172 -94.5 264t-235.5 92h-424v-707h455z" />
    <glyph glyph-name="uniE018" unicode="&#xe018;" horiz-adv-x="1597" 
d="M729 1434q328 0 547 -206t219 -511t-219 -511t-547 -206h-532v1413h-334q-188 0 -317.5 -121t-129.5 -286q0 -154 83 -259.5t216 -132.5q-27 31 -26 72q0 47 32.5 78t81.5 31q47 0 77 -31t30 -78t-32 -77.5t-81 -30.5q-178 0 -292.5 118.5t-114.5 309.5q0 176 137 302
t336 126h866zM702 20q272 0 437.5 190.5t165.5 506t-165 506t-438 190.5h-323v-1393h323z" />
    <glyph glyph-name="uniE019" unicode="&#xe019;" horiz-adv-x="1288" 
d="M379 20h827v-20h-1009v1413h-334q-188 0 -317.5 -121t-129.5 -286q0 -154 83 -259.5t216 -132.5q-27 31 -26 72q0 47 32.5 78t81.5 31q47 0 77 -31t30 -78t-32 -77.5t-81 -30.5q-178 0 -292.5 118.5t-114.5 309.5q0 176 137 302t336 126h1323v-21h-807v-676h643v-20h-643
v-697z" />
    <glyph glyph-name="uniE01A" unicode="&#xe01a;" horiz-adv-x="1224" 
d="M1165 1413h-786v-696h622v-21h-622v-696h-182v1413h-334q-188 0 -317.5 -121t-129.5 -286q0 -154 83 -259.5t216 -132.5q-27 31 -26 72q0 47 32.5 78t81.5 31q47 0 77 -31t30 -78t-32 -77.5t-81 -30.5q-178 0 -292.5 118.5t-114.5 309.5q0 176 137 302t336 126h1302v-21z
" />
    <glyph glyph-name="uniE01B" unicode="&#xe01b;" horiz-adv-x="1603" 
d="M1225 1434h182v-1434h-182v717h-846v-717h-182v1413h-334q-188 0 -317.5 -121t-129.5 -286q0 -154 83 -259.5t216 -132.5q-27 31 -26 72q0 47 32.5 78t81.5 31q47 0 77 -31t30 -78t-32 -77.5t-81 -30.5q-178 0 -292.5 118.5t-114.5 309.5q0 176 137 302t336 126h516v-697
h846v697z" />
    <glyph glyph-name="uniE01C" unicode="&#xe01c;" horiz-adv-x="573" 
d="M379 1434v-1434h-182v1413h-334q-188 0 -317.5 -121t-129.5 -286q0 -154 83 -259.5t216 -132.5q-27 31 -26 72q0 47 32.5 78t81.5 31q47 0 77 -31t30 -78t-32 -77.5t-81 -30.5q-178 0 -292.5 118.5t-114.5 309.5q0 176 137 302t336 126h516z" />
    <glyph glyph-name="uniE01D" unicode="&#xe01d;" horiz-adv-x="1398" 
d="M1163 0l-573 766l-211 -188v-578h-182v1413h-334q-188 0 -317.5 -121t-129.5 -286q0 -154 83 -259.5t216 -132.5q-27 31 -26 72q0 47 32.5 78t81.5 31q47 0 77 -31t30 -78t-32 -77.5t-81 -30.5q-178 0 -292.5 118.5t-114.5 309.5q0 176 137 302t336 126h516v-820l909 820
h43l-614 -553l659 -881h-213z" />
    <glyph glyph-name="uniE01E" unicode="&#xe01e;" horiz-adv-x="1226" 
d="M379 20h776v-20h-958v1413h-334q-188 0 -317.5 -121t-129.5 -286q0 -154 83 -259.5t216 -132.5q-27 31 -26 72q0 47 32.5 78t81.5 31q47 0 77 -31t30 -78t-32 -77.5t-81 -30.5q-178 0 -292.5 118.5t-114.5 309.5q0 176 137 302t336 126h516v-1414z" />
    <glyph glyph-name="uniE01F" unicode="&#xe01f;" horiz-adv-x="1832" 
d="M1454 1434h182v-1434h-182v1376l-608 -1003h-12l-609 1003v-1376h-28v1413h-334q-188 0 -317.5 -121t-129.5 -286q0 -154 83 -259.5t216 -132.5q-27 31 -26 72q0 47 32.5 78t81.5 31q47 0 77 -31t30 -78t-32 -77.5t-81 -30.5q-178 0 -292.5 118.5t-114.5 309.5
q0 176 137 302t336 126h532l531 -873z" />
    <glyph glyph-name="uniE020" unicode="&#xe020;" horiz-adv-x="1570" 
d="M1348 1434h28v-1434h-69l-1082 1294v-1294h-28v1413h-334q-188 0 -317.5 -121t-129.5 -286q0 -154 83 -259.5t216 -132.5q-27 31 -26 72q0 47 32.5 78t81.5 31q47 0 77 -31t30 -78t-32 -77.5t-81 -30.5q-178 0 -292.5 118.5t-114.5 309.5q0 176 137 302t336 126h475
l1010 -1213v1213z" />
    <glyph glyph-name="uniE021" unicode="&#xe021;" horiz-adv-x="1388" 
d="M801 1434q223 0 371.5 -127t148.5 -319.5t-148.5 -319.5t-371.5 -127h-422v-541h-182v1413h-334q-188 0 -317.5 -121t-129.5 -286q0 -154 83 -259.5t216 -132.5q-27 31 -26 72q0 47 32.5 78t81.5 31q47 0 77 -31t30 -78t-32 -77.5t-81 -30.5q-178 0 -292.5 118.5
t-114.5 309.5q0 176 137 302t336 126h938zM762 561q168 0 268 117t100 309.5t-100 309t-268 116.5h-383v-852h383z" />
    <glyph glyph-name="uniE022" unicode="&#xe022;" horiz-adv-x="1400" 
d="M1253 156q55 -102 131 -156h-208q-63 45 -107 119l-227 399q-51 84 -125 107h-338v-625h-182v1413h-334q-188 0 -317.5 -121t-129.5 -286q0 -154 83 -259.5t216 -132.5q-27 31 -26 72q0 47 32.5 78t81.5 31q47 0 77 -31t30 -78t-32 -77.5t-81 -30.5q-178 0 -292.5 118.5
t-114.5 309.5q0 176 137 302t336 126h897q223 0 371.5 -117t148.5 -291q0 -160 -129 -271.5t-328 -127.5q174 -31 234 -138zM379 1413v-768h346q164 0 264.5 103.5t100.5 275.5q0 176 -100.5 282.5t-264.5 106.5h-346z" />
    <glyph glyph-name="uniE023" unicode="&#xe023;" horiz-adv-x="1259" 
d="M1204 1434v-21h-481v-1413h-182v1413h-549q-188 0 -317.5 -121t-129.5 -286q0 -154 83 -259.5t214 -132.5q-25 31 -24 72q0 47 32.5 78t81.5 31q47 0 77 -31t30 -78t-32 -77.5t-81 -30.5q-178 0 -292.5 118.5t-114.5 309.5q0 176 137 302t336 126h1212z" />
    <glyph glyph-name="uniE024" unicode="&#xe024;" horiz-adv-x="1558" 
d="M1348 1434h28v-902q0 -252 -152.5 -402t-416.5 -150q-276 0 -450.5 161.5t-174.5 425.5v846h-319q-188 0 -317.5 -121t-129.5 -286q0 -154 83 -259.5t216 -132.5q-27 31 -26 72q0 47 32.5 78t81.5 31q47 0 77 -31t30 -78t-32 -77.5t-81 -30.5q-178 0 -292.5 118.5
t-114.5 309.5q0 176 137 302t336 126h502v-899q0 -231 134 -370.5t353 -139.5q227 0 361.5 138t134.5 372v899z" />
    <glyph glyph-name="uniE025" unicode="&#xe025;" horiz-adv-x="1458" 
d="M1368 1434h29l-629 -1434h-80l-618 1413h-119q-188 0 -317.5 -121t-129.5 -286q0 -154 83 -259.5t214 -132.5q-25 31 -24 72q0 47 32.5 78t81.5 31q47 0 77 -31t30 -78t-32 -77.5t-81 -30.5q-178 0 -292.5 118.5t-114.5 309.5q0 176 137 302t336 126h301l559 -1278z" />
    <glyph glyph-name="uniE026" unicode="&#xe026;" horiz-adv-x="2277" 
d="M2187 1434h29l-629 -1434h-80l-368 844l-371 -844h-80l-618 1413h-119q-188 0 -317.5 -121t-129.5 -286q0 -154 83 -259.5t214 -132.5q-25 31 -24 72q0 47 32.5 78t81.5 31q47 0 77 -31t30 -78t-32 -77.5t-81 -30.5q-178 0 -292.5 118.5t-114.5 309.5q0 176 137 302
t336 126h301l557 -1278l315 721l-243 557h190l559 -1278z" />
    <glyph glyph-name="uniE027" unicode="&#xe027;" horiz-adv-x="1370" 
d="M1276 0h-199l-450 659l-463 -659h-35l481 682l-501 731h-158q-188 0 -317.5 -121t-129.5 -286q0 -154 83 -259.5t214 -132.5q-25 31 -24 72q0 47 32.5 78t81.5 31q47 0 77 -31t30 -78t-32 -77.5t-81 -30.5q-178 0 -292.5 118.5t-114.5 309.5q0 176 137 302t336 126h342
l444 -650l459 650h35l-477 -672z" />
    <glyph glyph-name="uniE028" unicode="&#xe028;" horiz-adv-x="1390" 
d="M1298 1434h31l-543 -820v-614h-182v614l-528 799h-125q-188 0 -317.5 -121t-129.5 -286q0 -154 83 -259.5t214 -132.5q-25 31 -24 72q0 47 32.5 78t81.5 31q47 0 77 -31t30 -78t-32 -77.5t-81 -30.5q-178 0 -292.5 118.5t-114.5 309.5q0 176 137 302t336 126h313
l518 -783z" />
    <glyph glyph-name="uniE079" unicode="&#xe079;" horiz-adv-x="905" 
d="M473 1413q-188 0 -317 -121t-129 -286q0 -154 83 -259.5t214 -132.5q-25 31 -25 72q0 47 33 78t82 31q47 0 76.5 -31t29.5 -78t-31.5 -77.5t-80.5 -30.5q-178 0 -293 118.5t-115 309.5q0 176 137 302t336 126h432v-21h-432z" />
    <glyph glyph-name="Q.ss02" horiz-adv-x="1710" 
d="M1602 -35q43 0 70.5 -28.5t27.5 -71.5q0 -111 -112.5 -185.5t-272.5 -74.5q-188 0 -333.5 105.5t-184.5 271.5q-301 18 -498 226t-197 509q0 315 213 526t533 211q322 0 534.5 -211t212.5 -526q0 -289 -181 -493t-466 -238q18 -158 125 -258.5t258 -100.5q100 0 183 39
t122 105q-14 -6 -32 -7q-45 0 -76 29t-31 72q0 45 30 72.5t75 27.5zM293 716.5q0 -323.5 151.5 -520t403.5 -196.5q254 0 405.5 196.5t151.5 520t-151.5 520.5t-405.5 197q-252 0 -403.5 -197t-151.5 -520.5z" />
    <glyph glyph-name="W.ss02" horiz-adv-x="2525" 
d="M2314 1434h29v-930q0 -240 -139.5 -382t-382.5 -142q-213 0 -362.5 106.5t-201.5 300.5q-33 -193 -161.5 -300t-329.5 -107q-258 0 -421 153.5t-163 405.5v895h183v-928q0 -219 120.5 -352.5t321.5 -133.5q197 0 314.5 132.5t117.5 353.5v928h182v-928q0 -219 121 -352.5
t322 -133.5q207 0 328.5 132.5t121.5 353.5v928z" />
    <glyph glyph-name="Wacute.aalt" horiz-adv-x="2525" 
d="M1593 1839l-352 -250h-24l126 250h250zM2314 1434h29v-930q0 -240 -139.5 -382t-382.5 -142q-213 0 -362.5 106.5t-201.5 300.5q-33 -193 -161.5 -300t-329.5 -107q-258 0 -421 153.5t-163 405.5v895h183v-928q0 -219 120.5 -352.5t321.5 -133.5q197 0 314.5 132.5
t117.5 353.5v928h182v-928q0 -219 121 -352.5t322 -133.5q207 0 328.5 132.5t121.5 353.5v928z" />
    <glyph glyph-name="Wcircumflex.aalt" horiz-adv-x="2525" 
d="M1294 1722l-272 -137l-8 12l258 258h45l258 -258l-8 -12zM2314 1434h29v-930q0 -240 -139.5 -382t-382.5 -142q-213 0 -362.5 106.5t-201.5 300.5q-33 -193 -161.5 -300t-329.5 -107q-258 0 -421 153.5t-163 405.5v895h183v-928q0 -219 120.5 -352.5t321.5 -133.5
q197 0 314.5 132.5t117.5 353.5v928h182v-928q0 -219 121 -352.5t322 -133.5q207 0 328.5 132.5t121.5 353.5v928z" />
    <glyph glyph-name="Wdieresis.aalt" horiz-adv-x="2525" 
d="M1098 1583q-45 0 -75 27.5t-30 70.5q0 45 31 75t76 30q43 0 71.5 -30t28.5 -73q0 -45 -28.5 -72.5t-73.5 -27.5zM1489 1583q-45 0 -75 27.5t-30 72.5q0 43 31 73t76 30q43 0 71.5 -30t28.5 -73q0 -45 -28.5 -72.5t-73.5 -27.5zM2314 1434h29v-930q0 -240 -139.5 -382
t-382.5 -142q-213 0 -362.5 106.5t-201.5 300.5q-33 -193 -161.5 -300t-329.5 -107q-258 0 -421 153.5t-163 405.5v895h183v-928q0 -219 120.5 -352.5t321.5 -133.5q197 0 314.5 132.5t117.5 353.5v928h182v-928q0 -219 121 -352.5t322 -133.5q207 0 328.5 132.5
t121.5 353.5v928z" />
    <glyph glyph-name="Wgrave.aalt" horiz-adv-x="2525" 
d="M1372 1589h-24l-353 250h248zM2314 1434h29v-930q0 -240 -139.5 -382t-382.5 -142q-213 0 -362.5 106.5t-201.5 300.5q-33 -193 -161.5 -300t-329.5 -107q-258 0 -421 153.5t-163 405.5v895h183v-928q0 -219 120.5 -352.5t321.5 -133.5q197 0 314.5 132.5t117.5 353.5
v928h182v-928q0 -219 121 -352.5t322 -133.5q207 0 328.5 132.5t121.5 353.5v928z" />
    <glyph glyph-name="Q.ss03" horiz-adv-x="1710" 
d="M848 -20q-319 0 -532.5 210.5t-213.5 526t213 526.5t533 211q322 0 534.5 -211t212.5 -526.5t-212.5 -526t-534.5 -210.5zM848 1434q-252 0 -403.5 -197t-151.5 -520.5t151.5 -520t403.5 -196.5q254 0 405.5 196.5t151.5 520t-151.5 520.5t-405.5 197zM1602 -39
q43 0 70.5 -27.5t27.5 -72.5q0 -150 -86 -240t-228 -90q-74 0 -155.5 33t-132.5 67.5t-140 100.5q-84 63 -129 94t-117.5 61.5t-136.5 30.5q-162 0 -213 -111q20 12 52 13q41 0 69.5 -29t28.5 -72t-28.5 -71.5t-69.5 -28.5q-45 0 -75 28.5t-30 71.5q0 102 81 164t212 62
q174 0 436 -148q248 -141 404 -141q92 0 153.5 36t79.5 99q-31 -31 -71 -31q-45 0 -75 29t-30 72q0 45 29 72.5t74 27.5z" />
    <glyph glyph-name="G.aalt" horiz-adv-x="1617" 
d="M1458 647v-647h-20l-117 145q-63 -76 -185 -120.5t-272 -44.5q-324 0 -543 210.5t-219 526t219.5 526.5t552.5 211q231 0 387 -100.5t156 -249.5q0 -47 -29.5 -78t-74.5 -31q-49 0 -81 31t-32 78t32 77.5t81 30.5q25 0 41 -8q-41 102 -160 161.5t-285 59.5
q-285 0 -450.5 -192.5t-165.5 -521.5q0 -319 160.5 -514t431.5 -195q145 0 249.5 56.5t145.5 154.5v414h-291v20h469z" />
    <glyph glyph-name="uni01F4.aalt" horiz-adv-x="1617" 
d="M1161 1839l-352 -250h-25l127 250h250zM1458 647v-647h-20l-117 145q-63 -76 -185 -120.5t-272 -44.5q-324 0 -543 210.5t-219 526t219.5 526.5t552.5 211q231 0 387 -100.5t156 -249.5q0 -47 -29.5 -78t-74.5 -31q-49 0 -81 31t-32 78t32 77.5t81 30.5q25 0 41 -8
q-41 102 -160 161.5t-285 59.5q-285 0 -450.5 -192.5t-165.5 -521.5q0 -319 160.5 -514t431.5 -195q145 0 249.5 56.5t145.5 154.5v414h-291v20h469z" />
    <glyph glyph-name="Gbreve.aalt" horiz-adv-x="1617" 
d="M862.5 1577q-104.5 0 -184.5 72.5t-96 185.5h24q8 -57 80 -94t176.5 -37t176 37t79.5 94h25q-18 -113 -97 -185.5t-183.5 -72.5zM1458 647v-647h-20l-117 145q-63 -76 -185 -120.5t-272 -44.5q-324 0 -543 210.5t-219 526t219.5 526.5t552.5 211q231 0 387 -100.5
t156 -249.5q0 -47 -29.5 -78t-74.5 -31q-49 0 -81 31t-32 78t32 77.5t81 30.5q25 0 41 -8q-41 102 -160 161.5t-285 59.5q-285 0 -450.5 -192.5t-165.5 -521.5q0 -319 160.5 -514t431.5 -195q145 0 249.5 56.5t145.5 154.5v414h-291v20h469z" />
    <glyph glyph-name="Gcaron.aalt" horiz-adv-x="1617" 
d="M885 1579h-45l-258 258l8 12l272 -135l273 135l8 -12zM1458 647v-647h-20l-117 145q-63 -76 -185 -120.5t-272 -44.5q-324 0 -543 210.5t-219 526t219.5 526.5t552.5 211q231 0 387 -100.5t156 -249.5q0 -47 -29.5 -78t-74.5 -31q-49 0 -81 31t-32 78t32 77.5t81 30.5
q25 0 41 -8q-41 102 -160 161.5t-285 59.5q-285 0 -450.5 -192.5t-165.5 -521.5q0 -319 160.5 -514t431.5 -195q145 0 249.5 56.5t145.5 154.5v414h-291v20h469z" />
    <glyph glyph-name="Gcircumflex.aalt" horiz-adv-x="1617" 
d="M862 1722l-272 -137l-8 12l258 258h45l258 -258l-8 -12zM1458 647v-647h-20l-117 145q-63 -76 -185 -120.5t-272 -44.5q-324 0 -543 210.5t-219 526t219.5 526.5t552.5 211q231 0 387 -100.5t156 -249.5q0 -47 -29.5 -78t-74.5 -31q-49 0 -81 31t-32 78t32 77.5t81 30.5
q25 0 41 -8q-41 102 -160 161.5t-285 59.5q-285 0 -450.5 -192.5t-165.5 -521.5q0 -319 160.5 -514t431.5 -195q145 0 249.5 56.5t145.5 154.5v414h-291v20h469z" />
    <glyph glyph-name="uni0122.aalt" horiz-adv-x="1617" 
d="M1458 647v-647h-20l-117 145q-63 -76 -185 -120.5t-272 -44.5q-324 0 -543 210.5t-219 526t219.5 526.5t552.5 211q231 0 387 -100.5t156 -249.5q0 -47 -29.5 -78t-74.5 -31q-49 0 -81 31t-32 78t32 77.5t81 30.5q25 0 41 -8q-41 102 -160 161.5t-285 59.5
q-285 0 -450.5 -192.5t-165.5 -521.5q0 -319 160.5 -514t431.5 -195q145 0 249.5 56.5t145.5 154.5v414h-291v20h469zM860 -145q49 0 82 -33t33 -86q0 -72 -50.5 -146.5t-117.5 -109.5l-10 16q49 27 82.5 74t42.5 96q-23 -23 -66 -22q-45 0 -75.5 31.5t-30.5 78.5
q0 43 31.5 72t78.5 29z" />
    <glyph glyph-name="Gdotaccent.aalt" horiz-adv-x="1617" 
d="M860 1577q-45 0 -77.5 29.5t-32.5 76.5q0 45 32.5 77t79.5 32q45 0 76 -30.5t31 -78t-31 -77t-78 -29.5zM1458 647v-647h-20l-117 145q-63 -76 -185 -120.5t-272 -44.5q-324 0 -543 210.5t-219 526t219.5 526.5t552.5 211q231 0 387 -100.5t156 -249.5q0 -47 -29.5 -78
t-74.5 -31q-49 0 -81 31t-32 78t32 77.5t81 30.5q25 0 41 -8q-41 102 -160 161.5t-285 59.5q-285 0 -450.5 -192.5t-165.5 -521.5q0 -319 160.5 -514t431.5 -195q145 0 249.5 56.5t145.5 154.5v414h-291v20h469z" />
    <glyph glyph-name="M.ss04" horiz-adv-x="1837" 
d="M1452 1434h188v-1434h-182v1376l-606 -1376h-21l-606 1376v-1376h-28v1434h196l529 -1201z" />
    <glyph glyph-name="R.ss04" horiz-adv-x="1400" 
d="M1174 0l-482 625h-313v-625h-182v1434h563q223 0 371.5 -118t148.5 -294q0 -152 -120 -260.5t-308 -130.5q59 -23 92 -72l440 -559h-210zM379 1413v-768h346q164 0 264.5 103.5t100.5 275.5q0 176 -100.5 282.5t-264.5 106.5h-346z" />
    <glyph glyph-name="Racute.aalt" horiz-adv-x="1400" 
d="M1018 1839l-352 -250h-25l127 250h250zM1174 0l-482 625h-313v-625h-182v1434h563q223 0 371.5 -118t148.5 -294q0 -152 -120 -260.5t-308 -130.5q59 -23 92 -72l440 -559h-210zM379 1413v-768h346q164 0 264.5 103.5t100.5 275.5q0 176 -100.5 282.5t-264.5 106.5h-346z
" />
    <glyph glyph-name="Rcaron.aalt" horiz-adv-x="1400" 
d="M741 1579h-45l-258 258l8 12l273 -135l272 135l8 -12zM1174 0l-482 625h-313v-625h-182v1434h563q223 0 371.5 -118t148.5 -294q0 -152 -120 -260.5t-308 -130.5q59 -23 92 -72l440 -559h-210zM379 1413v-768h346q164 0 264.5 103.5t100.5 275.5q0 176 -100.5 282.5
t-264.5 106.5h-346z" />
    <glyph glyph-name="uni0156.aalt" horiz-adv-x="1400" 
d="M944 559l440 -559h-210l-482 625h-313v-625h-182v1434h563q223 0 371.5 -118t148.5 -294q0 -152 -120 -260.5t-308 -130.5q59 -23 92 -72zM379 1413v-768h346q164 0 264.5 103.5t100.5 275.5q0 176 -100.5 282.5t-264.5 106.5h-346zM768 -145q49 0 82 -33t33 -86
q0 -72 -50.5 -146.5t-117.5 -109.5l-10 16q49 27 82.5 74t41.5 96q-23 -23 -65 -22q-45 0 -76 31.5t-31 78.5q0 43 32 72t79 29z" />
    <glyph glyph-name="uni0210.aalt" horiz-adv-x="1400" 
d="M608 1589h-26l-314 250h209zM946 1589h-26l-314 250h209zM1174 0l-482 625h-313v-625h-182v1434h563q223 0 371.5 -118t148.5 -294q0 -152 -120 -260.5t-308 -130.5q59 -23 92 -72l440 -559h-210zM379 1413v-768h346q164 0 264.5 103.5t100.5 275.5q0 176 -100.5 282.5
t-264.5 106.5h-346z" />
    <glyph glyph-name="uni1E5A.aalt" horiz-adv-x="1400" 
d="M944 559l440 -559h-210l-482 625h-313v-625h-182v1434h563q223 0 371.5 -118t148.5 -294q0 -152 -120 -260.5t-308 -130.5q59 -23 92 -72zM379 1413v-768h346q164 0 264.5 103.5t100.5 275.5q0 176 -100.5 282.5t-264.5 106.5h-346zM770 -145q45 0 76 -31t31 -78
t-31 -76.5t-78 -29.5q-45 0 -78 29.5t-33 76.5q0 45 33 77t80 32z" />
    <glyph glyph-name="uni0212.aalt" horiz-adv-x="1400" 
d="M718.5 1731q-104.5 0 -176 -37t-79.5 -95h-25q16 113 96 186t184.5 73t183.5 -73t97 -186h-24q-8 57 -80 94.5t-176.5 37.5zM1174 0l-482 625h-313v-625h-182v1434h563q223 0 371.5 -118t148.5 -294q0 -152 -120 -260.5t-308 -130.5q59 -23 92 -72l440 -559h-210z
M379 1413v-768h346q164 0 264.5 103.5t100.5 275.5q0 176 -100.5 282.5t-264.5 106.5h-346z" />
    <glyph glyph-name="i.locl" horiz-adv-x="532" 
d="M266 1188q-45 0 -77.5 29.5t-32.5 76.5q0 45 32.5 77t79.5 32q45 0 76 -31t31 -78t-31 -76.5t-78 -29.5zM176 0v989l182 45v-1034h-182z" />
    <glyph glyph-name="a.salt" horiz-adv-x="1298" 
d="M940 989l182 45v-1034h-182v145q-61 -76 -153.5 -120.5t-196.5 -44.5q-205 0 -347.5 153.5t-142.5 378.5t143.5 378.5t344.5 153.5q109 0 202 -49t150 -133v127zM635 18q193 0 305 175v626q-115 186 -307 187q-154 0 -248 -135.5t-94 -358.5q0 -225 94 -359.5t250 -134.5
z" />
    <glyph glyph-name="aacute.aalt" horiz-adv-x="1298" 
d="M954 1450l-352 -250h-24l127 250h249zM940 989l182 45v-1034h-182v145q-61 -76 -153.5 -120.5t-196.5 -44.5q-205 0 -347.5 153.5t-142.5 378.5t143.5 378.5t344.5 153.5q109 0 202 -49t150 -133v127zM635 18q193 0 305 175v626q-115 186 -307 187q-154 0 -248 -135.5
t-94 -358.5q0 -225 94 -359.5t250 -134.5z" />
    <glyph glyph-name="abreve.aalt" horiz-adv-x="1298" 
d="M655.5 1188q-104.5 0 -184.5 72.5t-96 185.5h24q8 -57 80 -94t176.5 -37t176 37t79.5 94h25q-18 -113 -97 -185.5t-183.5 -72.5zM940 989l182 45v-1034h-182v145q-61 -76 -153.5 -120.5t-196.5 -44.5q-205 0 -347.5 153.5t-142.5 378.5t143.5 378.5t344.5 153.5
q109 0 202 -49t150 -133v127zM635 18q193 0 305 175v626q-115 186 -307 187q-154 0 -248 -135.5t-94 -358.5q0 -225 94 -359.5t250 -134.5z" />
    <glyph glyph-name="uni01CE.aalt" horiz-adv-x="1298" 
d="M678 1190h-45l-258 258l8 12l272 -135l273 135l8 -12zM940 989l182 45v-1034h-182v145q-61 -76 -153.5 -120.5t-196.5 -44.5q-205 0 -347.5 153.5t-142.5 378.5t143.5 378.5t344.5 153.5q109 0 202 -49t150 -133v127zM635 18q193 0 305 175v626q-115 186 -307 187
q-154 0 -248 -135.5t-94 -358.5q0 -225 94 -359.5t250 -134.5z" />
    <glyph glyph-name="acircumflex.aalt" horiz-adv-x="1298" 
d="M655 1333l-272 -137l-8 12l258 258h45l258 -258l-8 -12zM940 989l182 45v-1034h-182v145q-61 -76 -153.5 -120.5t-196.5 -44.5q-205 0 -347.5 153.5t-142.5 378.5t143.5 378.5t344.5 153.5q109 0 202 -49t150 -133v127zM635 18q193 0 305 175v626q-115 186 -307 187
q-154 0 -248 -135.5t-94 -358.5q0 -225 94 -359.5t250 -134.5z" />
    <glyph glyph-name="uni0201.aalt" horiz-adv-x="1298" 
d="M547 1200h-27l-313 250h209zM885 1200h-27l-313 250h209zM940 989l182 45v-1034h-182v145q-61 -76 -153.5 -120.5t-196.5 -44.5q-205 0 -347.5 153.5t-142.5 378.5t143.5 378.5t344.5 153.5q109 0 202 -49t150 -133v127zM635 18q193 0 305 175v626q-115 186 -307 187
q-154 0 -248 -135.5t-94 -358.5q0 -225 94 -359.5t250 -134.5z" />
    <glyph glyph-name="adieresis.aalt" horiz-adv-x="1298" 
d="M461 1194q-45 0 -75 27.5t-30 70.5q0 45 31 75t76 30q43 0 71.5 -30t28.5 -73q0 -45 -28.5 -72.5t-73.5 -27.5zM852 1194q-45 0 -74.5 27.5t-29.5 72.5q0 43 30.5 73t75.5 30q43 0 71.5 -30t28.5 -73q0 -45 -28.5 -72.5t-73.5 -27.5zM940 989l182 45v-1034h-182v145
q-61 -76 -153.5 -120.5t-196.5 -44.5q-205 0 -347.5 153.5t-142.5 378.5t143.5 378.5t344.5 153.5q109 0 202 -49t150 -133v127zM635 18q193 0 305 175v626q-115 186 -307 187q-154 0 -248 -135.5t-94 -358.5q0 -225 94 -359.5t250 -134.5z" />
    <glyph glyph-name="uni1EA1.aalt" horiz-adv-x="1298" 
d="M940 989l182 45v-1034h-182v145q-61 -76 -153.5 -120.5t-196.5 -44.5q-205 0 -347.5 153.5t-142.5 378.5t143.5 378.5t344.5 153.5q109 0 202 -49t150 -133v127zM635 18q193 0 305 175v626q-115 186 -307 187q-154 0 -248 -135.5t-94 -358.5q0 -225 94 -359.5t250 -134.5
zM657 -145q45 0 76 -31t31 -78t-31 -76.5t-78 -29.5q-45 0 -77.5 29.5t-32.5 76.5q0 45 32.5 77t79.5 32z" />
    <glyph glyph-name="agrave.aalt" horiz-adv-x="1298" 
d="M735 1200h-24l-353 250h248zM940 989l182 45v-1034h-182v145q-61 -76 -153.5 -120.5t-196.5 -44.5q-205 0 -347.5 153.5t-142.5 378.5t143.5 378.5t344.5 153.5q109 0 202 -49t150 -133v127zM635 18q193 0 305 175v626q-115 186 -307 187q-154 0 -248 -135.5t-94 -358.5
q0 -225 94 -359.5t250 -134.5z" />
    <glyph glyph-name="uni0203.aalt" horiz-adv-x="1298" 
d="M655.5 1341q-104.5 0 -176 -36.5t-80.5 -94.5h-24q16 113 96 185.5t184.5 72.5t183.5 -72.5t97 -185.5h-25q-8 57 -79.5 94t-176 37zM940 989l182 45v-1034h-182v145q-61 -76 -153.5 -120.5t-196.5 -44.5q-205 0 -347.5 153.5t-142.5 378.5t143.5 378.5t344.5 153.5
q109 0 202 -49t150 -133v127zM635 18q193 0 305 175v626q-115 186 -307 187q-154 0 -248 -135.5t-94 -358.5q0 -225 94 -359.5t250 -134.5z" />
    <glyph glyph-name="amacron.aalt" horiz-adv-x="1298" 
d="M901 1343v-86h-493v86h493zM940 989l182 45v-1034h-182v145q-61 -76 -153.5 -120.5t-196.5 -44.5q-205 0 -347.5 153.5t-142.5 378.5t143.5 378.5t344.5 153.5q109 0 202 -49t150 -133v127zM635 18q193 0 305 175v626q-115 186 -307 187q-154 0 -248 -135.5t-94 -358.5
q0 -225 94 -359.5t250 -134.5z" />
    <glyph glyph-name="aogonek.aalt" horiz-adv-x="1298" 
d="M1143 -356l16 -15q-57 -68 -172 -67q-84 0 -141.5 46t-57.5 113q0 74 85 153t217 126h-150v145q-61 -76 -153.5 -120.5t-196.5 -44.5q-205 0 -347.5 153.5t-142.5 378.5t143.5 378.5t344.5 153.5q109 0 202 -49t150 -133v127l182 45v-1034h-2q-94 -53 -150.5 -124
t-56.5 -140q0 -63 34 -102.5t89 -39.5q64 1 107 50zM635 18q193 0 305 175v626q-115 186 -307 187q-154 0 -248 -135.5t-94 -358.5q0 -225 94 -359.5t250 -134.5z" />
    <glyph glyph-name="aring.aalt" horiz-adv-x="1298" 
d="M657 1165q-72 0 -118.5 45t-46.5 113q0 70 47 116t118 46q70 0 115 -46t45 -116q0 -68 -45 -113t-115 -45zM657 1466q-63 0 -102 -40t-39 -103t39 -101t102 -38q59 0 97.5 38t38.5 101t-38.5 103t-97.5 40zM940 989l182 45v-1034h-182v145q-61 -76 -153.5 -120.5
t-196.5 -44.5q-205 0 -347.5 153.5t-142.5 378.5t143.5 378.5t344.5 153.5q109 0 202 -49t150 -133v127zM635 18q193 0 305 175v626q-115 186 -307 187q-154 0 -248 -135.5t-94 -358.5q0 -225 94 -359.5t250 -134.5z" />
    <glyph glyph-name="atilde.aalt" horiz-adv-x="1298" 
d="M485 1341q-43 0 -77.5 -33.5t-38.5 -88.5h-23q0 102 52.5 167.5t133.5 65.5q70 0 166 -80q63 -53 123 -53q45 0 80 33.5t39 89.5h23q0 -102 -53.5 -168t-135.5 -66q-74 0 -168 84q-60 49 -121 49zM940 989l182 45v-1034h-182v145q-61 -76 -153.5 -120.5t-196.5 -44.5
q-205 0 -347.5 153.5t-142.5 378.5t143.5 378.5t344.5 153.5q109 0 202 -49t150 -133v127zM635 18q193 0 305 175v626q-115 186 -307 187q-154 0 -248 -135.5t-94 -358.5q0 -225 94 -359.5t250 -134.5z" />
    <glyph glyph-name="u.aalt" horiz-adv-x="1171" 
d="M610 -20q-188 0 -320 107.5t-132 264.5v637l182 45v-715q0 -127 93 -211.5t229 -84.5q141 0 234 85t93 211v705h29v-696q0 -150 -114 -249t-294 -99z" />
    <glyph glyph-name="uacute.aalt" horiz-adv-x="1171" 
d="M551 1200h-25l127 250h250zM610 -20q-188 0 -320 107.5t-132 264.5v637l182 45v-715q0 -127 93 -211.5t229 -84.5q141 0 234 85t93 211v705h29v-696q0 -150 -114 -249t-294 -99z" />
    <glyph glyph-name="ubreve.aalt" horiz-adv-x="1171" 
d="M604.5 1188q-104.5 0 -184.5 72.5t-96 185.5h24q8 -57 80 -94t176.5 -37t176 37t79.5 94h25q-18 -113 -97 -185.5t-183.5 -72.5zM610 -20q-188 0 -320 107.5t-132 264.5v637l182 45v-715q0 -127 93 -211.5t229 -84.5q141 0 234 85t93 211v705h29v-696q0 -150 -114 -249
t-294 -99z" />
    <glyph glyph-name="ucircumflex.aalt" horiz-adv-x="1171" 
d="M604 1333l-272 -137l-8 12l258 258h45l258 -258l-8 -12zM989 1024h29v-696q0 -150 -113.5 -249t-294.5 -99q-188 0 -320 107.5t-132 264.5v637l182 45v-715q0 -127 93 -211.5t229 -84.5q141 0 234 85t93 211v705z" />
    <glyph glyph-name="uni0215.aalt" horiz-adv-x="1171" 
d="M494 1200h-27l-313 250h208zM831 1200h-26l-313 250h208zM610 -20q-188 0 -320 107.5t-132 264.5v637l182 45v-715q0 -127 93 -211.5t229 -84.5q141 0 234 85t93 211v705h29v-696q0 -150 -114 -249t-294 -99z" />
    <glyph glyph-name="udieresis.aalt" horiz-adv-x="1171" 
d="M407.5 1194q-45.5 0 -75 27.5t-29.5 70.5q0 45 31 75t76 30q43 0 71.5 -30t28.5 -73q0 -45 -28.5 -72.5t-74 -27.5zM799 1194q-45 0 -75 27.5t-30 72.5q0 43 31 73t76 30q43 0 71.5 -30t28.5 -73q0 -45 -28.5 -72.5t-73.5 -27.5zM610 -20q-188 0 -320 107.5t-132 264.5
v637l182 45v-715q0 -127 93 -211.5t229 -84.5q141 0 234 85t93 211v705h29v-696q0 -150 -114 -249t-294 -99z" />
    <glyph glyph-name="uni1EE5.aalt" horiz-adv-x="1171" 
d="M610 -20q-188 0 -320 107.5t-132 264.5v637l182 45v-715q0 -127 93 -211.5t229 -84.5q141 0 234 85t93 211v705h29v-696q0 -150 -114 -249t-294 -99zM606 -360q-45 0 -77.5 29.5t-32.5 76.5q0 45 32.5 77t79.5 32q45 0 76 -31t31 -78t-31 -76.5t-78 -29.5z" />
    <glyph glyph-name="ugrave.aalt" horiz-adv-x="1171" 
d="M657 1200l-352 250h248l129 -250h-25zM610 -20q-188 0 -320 107.5t-132 264.5v637l182 45v-715q0 -127 93 -211.5t229 -84.5q141 0 234 85t93 211v705h29v-696q0 -150 -114 -249t-294 -99z" />
    <glyph glyph-name="uhungarumlaut.aalt" horiz-adv-x="1171" 
d="M369 1200l131 250h209l-314 -250h-26zM707 1200l133 250h207l-314 -250h-26zM610 -20q-188 0 -320 107.5t-132 264.5v637l182 45v-715q0 -127 93 -211.5t229 -84.5q141 0 234 85t93 211v705h29v-696q0 -150 -114 -249t-294 -99z" />
    <glyph glyph-name="uni0217.aalt" horiz-adv-x="1171" 
d="M604.5 1468q104.5 0 183 -72.5t97.5 -185.5h-25q-8 57 -79.5 94t-176 37t-176.5 -36.5t-80 -94.5h-24q16 113 96 185.5t184.5 72.5zM610 -20q-188 0 -320 107.5t-132 264.5v637l182 45v-715q0 -127 93 -211.5t229 -84.5q141 0 234 85t93 211v705h29v-696
q0 -150 -114 -249t-294 -99z" />
    <glyph glyph-name="umacron.aalt" horiz-adv-x="1171" 
d="M356 1257v86h494v-86h-494zM610 -20q-188 0 -320 107.5t-132 264.5v637l182 45v-715q0 -127 93 -211.5t229 -84.5q141 0 234 85t93 211v705h29v-696q0 -150 -114 -249t-294 -99z" />
    <glyph glyph-name="uogonek.aalt" horiz-adv-x="1171" 
d="M989 1024h29v-696q0 -121 -76 -211t-203 -123q-92 -51 -145 -120t-53 -138q0 -63 33.5 -102.5t89.5 -39.5q63 0 106 50l16 -15q-57 -68 -172 -67q-84 0 -141 46t-57 113.5t71.5 140t186.5 122.5q-41 -4 -64 -4q-188 0 -320 107.5t-132 264.5v637l182 45v-715
q0 -127 93 -211.5t229 -84.5q141 0 234 85t93 211v705z" />
    <glyph glyph-name="uring.aalt" horiz-adv-x="1171" 
d="M606 1165q-72 0 -119 45t-47 113q0 70 47.5 116t118.5 46q70 0 115 -46t45 -116q0 -68 -45 -113t-115 -45zM606 1184q59 0 97 38t38 101t-37.5 103t-97.5 40q-63 0 -102 -40t-39 -103t39 -101t102 -38zM610 -20q-188 0 -320 107.5t-132 264.5v637l182 45v-715
q0 -127 93 -211.5t229 -84.5q141 0 234 85t93 211v705h29v-696q0 -150 -114 -249t-294 -99z" />
    <glyph glyph-name="utilde.aalt" horiz-adv-x="1171" 
d="M723 1208q-74 0 -168 84q-59 49 -121 49q-43 0 -77.5 -33.5t-39.5 -88.5h-22q0 102 52 167.5t134 65.5q70 0 166 -80q63 -53 123 -53q45 0 80 33.5t39 89.5h22q0 -102 -53 -168t-135 -66zM610 -20q-188 0 -320 107.5t-132 264.5v637l182 45v-715q0 -127 93 -211.5
t229 -84.5q141 0 234 85t93 211v705h29v-696q0 -150 -114 -249t-294 -99z" />
    </font>
</defs>
</svg>
