<?xml version="1.0" standalone="no"?>
<!DOCTYPE svg PUBLIC "-//W3C//DTD SVG 1.1//EN" "http://www.w3.org/Graphics/SVG/1.1/DTD/svg11.dtd" >
<svg xmlns="http://www.w3.org/2000/svg" xmlns:xlink="http://www.w3.org/1999/xlink" version="1.1">
<metadata>
Created by FontForge 20201107 at Tue Mar 24 18:26:04 2015
 By 
Keep Calm (version 1.3)  by Keith Bates       (c) 2011   www.k-type.com       keith@k-type.com 
</metadata>
<defs>
<font id="KeepCalm-Medium" horiz-adv-x="687" >
  <font-face 
    font-family="Keep Calm Med"
    font-weight="500"
    font-stretch="normal"
    units-per-em="1000"
    panose-1="0 0 0 0 0 0 0 0 0 0"
    ascent="800"
    descent="-200"
    x-height="578"
    cap-height="799"
    bbox="-150 -308 1344 1263"
    underline-thickness="50"
    underline-position="-100"
    unicode-range="U+0009-FB02"
  />
<missing-glyph horiz-adv-x="500" 
d="M63 0v800h375v-800h-375v0zM125 63h250v675h-250v-675v0z" />
    <glyph glyph-name=".notdef" horiz-adv-x="500" 
d="M63 0v800h375v-800h-375v0zM125 63h250v675h-250v-675v0z" />
    <glyph glyph-name=".null" horiz-adv-x="0" 
 />
    <glyph glyph-name="nonmarkingreturn" unicode="&#xd;" horiz-adv-x="1000" 
 />
    <glyph glyph-name="NULL" horiz-adv-x="0" 
 />
    <glyph glyph-name="NULL" horiz-adv-x="0" 
 />
    <glyph glyph-name="HT" unicode="&#x9;" horiz-adv-x="1000" 
 />
    <glyph glyph-name="LF" unicode="&#xa;" horiz-adv-x="1000" 
 />
    <glyph glyph-name="DC1" horiz-adv-x="1000" 
 />
    <glyph glyph-name="DC2" horiz-adv-x="1000" 
 />
    <glyph glyph-name="DC3" horiz-adv-x="1000" 
 />
    <glyph glyph-name="RS" horiz-adv-x="1000" 
 />
    <glyph glyph-name="US" horiz-adv-x="1000" 
 />
    <glyph glyph-name="space" unicode=" " horiz-adv-x="315" 
 />
    <glyph glyph-name="exclam" unicode="!" horiz-adv-x="273" 
d="M233 800l-42 -578h-89l-42 578h173zM221 0h-149v149h149v-149z" />
    <glyph glyph-name="quotedbl" unicode="&#x22;" horiz-adv-x="405" 
d="M380 830l-29 -286h-96l-29 286h154zM184 830l-29 -286h-96l-29 286h154z" />
    <glyph glyph-name="numbersign" unicode="#" horiz-adv-x="754" 
d="M714 210h-172l-45 -210h-119l44 210h-169l-44 -210h-120l44 210h-93v118h118l30 144h-148v116h171l45 211h119l-43 -211h169l45 211h117l-43 -211h94v-116h-119l-29 -144h148v-118zM477 472h-170l-30 -144h170z" />
    <glyph glyph-name="dollar" unicode="$" horiz-adv-x="604" 
d="M564 211q0 -39 -16 -76t-43.5 -67t-65.5 -50.5t-82 -27.5v-1v-94h-91v93q-37 2 -67.5 9t-57.5 19t-51.5 29t-49.5 40l87 103q65 -55 144 -64v211l-8 3q-41 14 -78.5 35t-67 50.5t-47 70t-17.5 93.5q0 45 17 84t46 68.5t67.5 48.5t82.5 25v64h91v-64q56 -8 101.5 -29.5
t78.5 -54.5l-87 -101q-22 23 -46.5 35t-51.5 17v-207v-5q110 -38 161 -101.5t51 -155.5zM271 500v175q-28 -11 -47.5 -32.5t-19.5 -49.5q0 -33 14 -53.5t53 -39.5zM412 209q0 29 -12.5 50.5t-47.5 41.5v-171q28 11 44 32.5t16 46.5z" />
    <glyph glyph-name="percent" unicode="%" horiz-adv-x="934" 
d="M894 182q0 -41 -16 -77.5t-43 -63.5t-63.5 -43t-77.5 -16q-42 0 -78.5 16t-63.5 43t-42.5 63.5t-15.5 77.5q0 42 15.5 78.5t42.5 63.5t63.5 42.5t78.5 15.5q41 0 77.5 -15.5t63.5 -42.5t43 -63.5t16 -78.5zM440 616q0 -41 -16 -77.5t-43 -63.5t-63.5 -43t-77.5 -16
t-77.5 16t-63.5 43t-43 63.5t-16 77.5t16 77.5t43 63.5t63.5 43t77.5 16t77.5 -16t63.5 -43t43 -63.5t16 -77.5zM783 800l-536 -846h-125l536 846h125zM774 182q0 33 -23.5 56.5t-56.5 23.5t-56.5 -23.5t-23.5 -56.5t23.5 -56.5t56.5 -23.5t56.5 23.5t23.5 56.5zM320 616
q0 33 -23.5 56.5t-56.5 23.5t-56.5 -23.5t-23.5 -56.5t23.5 -56.5t56.5 -23.5t56.5 23.5t23.5 56.5z" />
    <glyph glyph-name="ampersand" unicode="&#x26;" horiz-adv-x="747" 
d="M727 81l-96 -96l-68 77q-23 -20 -45 -34.5t-47.5 -24t-57.5 -14t-74 -4.5q-54 0 -101.5 19.5t-82.5 52.5t-55 78t-20 96q0 65 37.5 115.5t109.5 95.5q-45 53 -64 92.5t-19 75.5q0 43 17.5 79.5t48 63.5t71.5 42t88 15q48 0 89.5 -16t72 -44.5t48 -66.5t17.5 -83
q0 -59 -38 -103t-118 -91l111 -128q6 14 9 29.5t5 30.5h138q-5 -52 -19.5 -96.5t-32.5 -75.5zM462 612q0 33 -26.5 53.5t-61.5 20.5q-37 0 -63 -22t-26 -55q0 -17 8 -33t28 -38l35 -37q45 20 75.5 47t30.5 64zM470 167l-160 180q-41 -25 -58.5 -53t-17.5 -63q0 -22 9 -41
t24 -33.5t35.5 -23t43.5 -8.5q31 0 59.5 7t64.5 35z" />
    <glyph glyph-name="quotesingle" unicode="'" horiz-adv-x="199" 
d="M179 830l-29 -286h-97l-28 286h154z" />
    <glyph glyph-name="parenleft" unicode="(" horiz-adv-x="379" 
d="M394 -277h-121q-52 66 -93 130t-70 132t-44.5 143t-15.5 164q0 88 15.5 162.5t44.5 142.5t70 132t93 132h117q-47 -75 -80.5 -139.5t-55 -129.5t-32 -138t-10.5 -166q0 -160 46 -298.5t136 -266.5z" />
    <glyph glyph-name="parenright" unicode=")" horiz-adv-x="379" 
d="M329 293q0 -86 -16 -161.5t-45 -145t-70 -134.5t-92 -129h-118q47 75 81 139.5t55.5 130t32 138t10.5 164.5q0 160 -46 299t-136 267h121q50 -63 91 -128t70.5 -134.5t45.5 -145t16 -160.5z" />
    <glyph glyph-name="asterisk" unicode="*" horiz-adv-x="485" 
d="M455 535l-59 -101l-50 38l-56 32v-59l8 -67h-116l7 65v60l-51 -30l-50 -39l-58 100l51 23l59 34l-53 30l-57 25l58 102l53 -40l48 -29v61l-7 60h116l-8 -62v-61l51 30l55 41l59 -102l-63 -26l-51 -30l47 -28z" />
    <glyph glyph-name="plus" unicode="+" horiz-adv-x="686" 
d="M636 301h-214v-225h-149v225h-213v149h213v225h149v-225h214v-149z" />
    <glyph glyph-name="comma" unicode="," horiz-adv-x="249" 
d="M209 0q0 -24 -7 -45.5t-20.5 -38t-34 -26t-47.5 -9.5q-10 0 -19.5 2t-17.5 4v11q29 5 47 27t18 51q0 5 -1 12t-3 12h-64v149h149v-149z" />
    <glyph glyph-name="hyphen" unicode="-" horiz-adv-x="374" 
d="M344 260h-314v134h314v-134z" />
    <glyph glyph-name="period" unicode="." horiz-adv-x="253" 
d="M213 0h-153v153h153v-153z" />
    <glyph glyph-name="slash" unicode="/" horiz-adv-x="314" 
d="M334 871l-231 -928h-123l231 928h123z" />
    <glyph glyph-name="zero" unicode="0" horiz-adv-x="792" 
d="M742 391q0 -74 -23 -147t-67 -130.5t-107.5 -93t-143.5 -35.5t-143 35.5t-107 93t-67.5 130.5t-23.5 147q0 77 22 153t64.5 137t106.5 98.5t148 37.5t147.5 -38t106.5 -99t65 -137t22 -152zM580 391q0 42 -8.5 92t-29.5 93t-55.5 72t-85.5 29q-49 0 -83 -29.5t-55.5 -73
t-31 -93.5t-9.5 -90q0 -42 10 -88.5t31.5 -86.5t55.5 -66t82 -26t82 26t55.5 65.5t31.5 86.5t10 89z" />
    <glyph glyph-name="one" unicode="1" horiz-adv-x="424" 
d="M324 0h-154v627l-130 -50v131l284 106v-814z" />
    <glyph glyph-name="two" unicode="2" horiz-adv-x="678" 
d="M628 0h-588l308 365q18 22 36.5 45.5t33.5 48.5t24 49.5t9 47.5q0 53 -33.5 84t-82.5 31q-56 0 -100 -28.5t-74 -73.5l-108 107q53 67 120 103t166 36q52 0 100.5 -15.5t86.5 -46.5t61 -77t23 -106q0 -40 -11 -76t-29.5 -69.5t-43.5 -66t-52 -66.5l-114 -142h268v-150z
" />
    <glyph glyph-name="three" unicode="3" horiz-adv-x="721" 
d="M661 242q0 -63 -23.5 -111.5t-63 -81t-92.5 -49t-112 -16.5q-103 0 -184 39.5t-146 119.5l107 108q18 -25 42 -47t52 -38.5t59.5 -26t63.5 -9.5q27 0 51.5 7.5t43 22t30 36t11.5 50.5q0 37 -21 58.5t-52.5 32.5t-67 13.5t-63.5 2.5v112q27 0 60 3t61.5 13.5t48 31.5
t19.5 56q0 26 -10 45t-26.5 31.5t-38 18.5t-45.5 6q-122 0 -191 -102l-108 107q60 72 129.5 105.5t163.5 33.5q50 0 101 -15.5t92.5 -44.5t67.5 -72.5t26 -98.5q0 -28 -9.5 -53.5t-25 -47t-37 -39t-45.5 -29.5q27 -10 51 -27t42 -39.5t28.5 -49t10.5 -56.5z" />
    <glyph glyph-name="four" unicode="4" horiz-adv-x="695" 
d="M665 173h-113v-173h-153v173h-369v110l389 516h133v-493h113v-133zM399 306v266l-203 -265z" />
    <glyph glyph-name="five" unicode="5" horiz-adv-x="694" 
d="M654 270q0 -63 -23.5 -115.5t-63.5 -90t-93.5 -58.5t-113.5 -21q-86 0 -161.5 31t-138.5 107l106 107q11 -14 26.5 -30.5t36 -30.5t46 -23.5t57.5 -9.5q36 0 65.5 10.5t51 28.5t33.5 43t12 54q0 32 -14 57t-37.5 42.5t-54.5 26.5t-65 9q-39 0 -72.5 -10t-68.5 -36l-78 80
l39 359l449 -1v-136h-328l-18 -151q25 12 57.5 17.5t61.5 5.5q63 0 116 -20t91.5 -55.5t60 -84t21.5 -105.5z" />
    <glyph glyph-name="six" unicode="6" horiz-adv-x="745" 
d="M685 249q0 -51 -23 -98.5t-62.5 -84.5t-94 -59t-117.5 -22q-60 0 -117 21.5t-102 70t-72 127.5t-27 195q0 93 23.5 169.5t66 131t103 84.5t135.5 30q85 0 148 -30.5t118 -96.5l-104 -105q-28 42 -68 67t-90 25q-34 0 -63 -15.5t-50.5 -43t-33.5 -64.5t-12 -79
q27 21 67 34t77 13q60 0 114 -20t95 -55.5t65 -85t24 -109.5zM530 257q0 27 -11 51t-30.5 41.5t-46 28t-57.5 10.5q-30 0 -57.5 -10.5t-48 -28t-32.5 -41.5t-12 -51t12 -51t32.5 -42t48 -28.5t57.5 -10.5q31 0 57.5 10.5t46 28.5t30.5 42t11 51z" />
    <glyph glyph-name="seven" unicode="7" horiz-adv-x="591" 
d="M601 800l-363 -800h-169l305 663h-354v137h581z" />
    <glyph glyph-name="eight" unicode="8" horiz-adv-x="740" 
d="M690 224q0 -63 -26.5 -108.5t-70 -74.5t-99 -43t-114.5 -14t-115 14t-99.5 43t-69.5 74.5t-26 108.5q0 30 11 60t29.5 55.5t43 45t51.5 29.5q-24 12 -44.5 30t-36 41t-24 49.5t-8.5 54.5q0 55 26.5 97.5t68.5 71t94 43t102 14.5q51 0 101.5 -14.5t91.5 -43t66.5 -71
t25.5 -97.5q0 -28 -8.5 -54.5t-24 -49.5t-36 -41t-44.5 -30q27 -10 51.5 -29.5t43 -45t29.5 -55.5t11 -60zM508 570q0 21 -10 39.5t-27.5 32.5t-40.5 22t-50 8t-50 -8t-40.5 -22t-27.5 -32.5t-10 -39.5t10 -39.5t27.5 -32.5t40.5 -22t50 -8t50 8t40.5 22t27.5 32.5t10 39.5z
M530 242q0 24 -12 44.5t-32 36.5t-47.5 25t-58.5 9t-58.5 -9t-47.5 -25t-32 -36.5t-12 -44.5t12 -45t32 -37t47.5 -25t58.5 -9t58.5 9t47.5 25t32 37t12 45z" />
    <glyph glyph-name="nine" unicode="9" horiz-adv-x="725" 
d="M675 400q0 -93 -23.5 -169.5t-66 -131t-103 -84.5t-135.5 -30q-85 0 -148 30.5t-118 96.5l104 105q28 -42 68 -67t90 -25q34 0 63 16t50.5 43.5t33.5 64.5t12 78q-27 -21 -67 -34t-77 -13q-60 0 -114 20t-95 55.5t-65 85t-24 109.5q0 51 23 98.5t62.5 84.5t93.5 59
t117 22q60 0 117.5 -21.5t102.5 -70t72 -128t27 -194.5zM510 542q0 27 -12 51t-32.5 42t-48 28.5t-57.5 10.5q-31 0 -57.5 -10.5t-46 -28.5t-30.5 -42t-11 -51t11 -51t30.5 -41.5t46 -28t57.5 -10.5q30 0 57.5 10.5t48 28t32.5 41.5t12 51z" />
    <glyph glyph-name="colon" unicode=":" horiz-adv-x="253" 
d="M213 425h-153v153h153v-153zM213 0h-153v153h153v-153z" />
    <glyph glyph-name="semicolon" unicode=";" horiz-adv-x="253" 
d="M213 425h-153v153h153v-153zM211 0q0 -24 -7 -45.5t-20.5 -38t-34 -26t-47.5 -9.5q-10 0 -19.5 2t-17.5 4v11q29 5 47 27t18 51q0 5 -1 12t-3 12h-64v149h149v-149z" />
    <glyph glyph-name="less" unicode="&#x3c;" horiz-adv-x="672" 
d="M622 76l-572 244v120l572 242v-144l-387 -158l387 -161v-143z" />
    <glyph glyph-name="equal" unicode="=" horiz-adv-x="712" 
d="M642 433h-572v134h572v-134zM642 189h-572v134h572v-134z" />
    <glyph glyph-name="greater" unicode="&#x3e;" horiz-adv-x="672" 
d="M622 318l-572 -242v143l387 159l-387 160v144l572 -244v-120z" />
    <glyph glyph-name="question" unicode="?" horiz-adv-x="564" 
d="M524 596q0 -38 -11 -71.5t-31 -61t-47 -49t-58 -36.5l-52 -24q-25 -11 -37.5 -29t-12.5 -55v-48h-143v49q0 46 6 77.5t18 53.5t31 36t45 26l46 21q57 26 76 54.5t19 56.5q0 16 -8 32t-22 28t-34.5 19.5t-45.5 7.5q-38 0 -72.5 -13t-63.5 -44l-87 101q41 41 100 65t132 24
q53 0 99 -15.5t80 -44.5t53.5 -69.5t19.5 -90.5zM278 0h-149v149h149v-149z" />
    <glyph glyph-name="at" unicode="@" horiz-adv-x="1154" 
d="M1104 330q0 -56 -12.5 -104.5t-34.5 -87.5t-52 -69t-64 -50q-25 -14 -62 -23t-76 -9q-47 0 -86.5 22t-56.5 62q-30 -42 -79 -64t-104 -22q-45 0 -84.5 16.5t-69 47.5t-46.5 74t-17 97q0 67 25 133.5t67 119.5t98.5 86.5t119.5 33.5q39 0 75.5 -12.5t63.5 -44.5l9 42h130
l-83 -410q-8 -42 8 -61.5t45 -19.5q38 0 71 15.5t58 46t39 76.5t14 107q0 84 -31 156.5t-86 125.5t-129 83.5t-160 30.5q-91 0 -171 -34.5t-139.5 -94t-94 -139.5t-34.5 -171t34.5 -171t94 -139.5t139.5 -94t171 -34.5q74 0 133.5 20t99.5 46l75 -71q-58 -42 -138.5 -70.5
t-169.5 -28.5q-113 0 -212 42.5t-173 116.5t-116.5 172.5t-42.5 211.5q0 112 42.5 211.5t116.5 173t173 116.5t212 43q107 0 200 -37.5t162 -104.5t108.5 -159.5t39.5 -201.5zM685 426q-17 26 -46 39.5t-63 13.5q-42 0 -74 -25t-53.5 -62t-33 -80.5t-11.5 -79.5
q0 -34 7.5 -58.5t20.5 -40t29.5 -23t34.5 -7.5q19 0 39.5 5.5t39.5 17t35.5 30t27.5 44.5z" />
    <glyph glyph-name="A" unicode="A" horiz-adv-x="887" 
d="M887 0h-170l-74 160h-388l-75 -160h-170l378 800h121zM582 289l-133 288l-135 -288h268z" />
    <glyph glyph-name="B" unicode="B" horiz-adv-x="680" 
d="M650 229q0 -50 -20.5 -92.5t-54.5 -73t-78.5 -47.5t-93.5 -17l-323 1v800h288q52 0 96.5 -15.5t77.5 -45t51.5 -72t18.5 -95.5q0 -45 -20 -87t-53 -71q26 -13 46.5 -33t35 -44.5t22 -52t7.5 -55.5zM459 569q0 29 -11 50t-29.5 35t-42.5 21t-50 7h-91v-220q25 -1 45 -1h46
t50 6t42.5 19t29.5 33.5t11 49.5zM489 238q0 25 -9.5 46t-26 35.5t-38 22.5t-46.5 8q-34 1 -67 0.5t-67 -0.5v-221h116q25 0 50 6t44.5 19.5t31.5 34t12 49.5z" />
    <glyph glyph-name="C" unicode="C" horiz-adv-x="812" 
d="M812 144q-60 -73 -145.5 -116t-188.5 -43q-89 0 -167 32.5t-136 88.5t-91.5 131.5t-33.5 162.5t33.5 162.5t91.5 132t136 88.5t167 32q103 0 188.5 -43t142.5 -112l-107 -110q-37 53 -95.5 85.5t-128.5 32.5q-56 0 -105.5 -21.5t-86.5 -58t-58.5 -85t-21.5 -103.5
q0 -54 21.5 -102.5t58.5 -85t86.5 -58t105.5 -21.5q74 0 131 33.5t95 88.5z" />
    <glyph glyph-name="D" unicode="D" horiz-adv-x="831" 
d="M791 400q0 -83 -28 -155.5t-78 -127t-119.5 -86t-151.5 -31.5h-334v800h334q82 0 151.5 -32t119.5 -86t78 -127t28 -155zM634 404q1 56 -17 106t-52 87.5t-83.5 59t-111.5 21.5h-135v-546h135q61 0 109.5 20.5t82.5 57t52.5 86t19.5 108.5z" />
    <glyph glyph-name="E" unicode="E" horiz-adv-x="648" 
d="M608 0h-528v799h528v-128h-376v-191h371v-125h-371v-220h376v-135z" />
    <glyph glyph-name="F" unicode="F" horiz-adv-x="628" 
d="M608 666h-376v-186h371v-126h-371v-354h-152v799h528v-133z" />
    <glyph glyph-name="G" unicode="G" horiz-adv-x="856" 
d="M816 147q-34 -42 -74 -72.5t-83.5 -50.5t-89 -29.5t-90.5 -9.5q-89 0 -167 32t-136 88t-92 132t-34 164q0 86 33.5 161.5t92 131.5t136.5 88.5t167 32.5q103 0 187.5 -42t143.5 -112l-105 -107q-45 61 -101 87.5t-125 26.5q-57 0 -107 -21t-87.5 -57.5t-59 -85
t-21.5 -103.5q0 -56 21.5 -104.5t59 -85.5t87.5 -58t107 -21q54 0 102 20t86 53v77h-164v132h313v-267z" />
    <glyph glyph-name="H" unicode="H" horiz-adv-x="775" 
d="M705 0h-155v354h-315v-354h-155v799h155v-317h315v317h155v-799z" />
    <glyph glyph-name="I" unicode="I" horiz-adv-x="305" 
d="M235 0h-155v799h155v-799z" />
    <glyph glyph-name="J" unicode="J" horiz-adv-x="581" 
d="M521 268q0 -81 -28.5 -135t-69.5 -87t-87.5 -47t-83.5 -14q-68 0 -129.5 32t-102.5 85l102 101q20 -32 52 -50t66 -18q23 0 45 8.5t39.5 24.5t28 39t10.5 53v539h158v-531z" />
    <glyph glyph-name="K" unicode="K" horiz-adv-x="747" 
d="M757 0h-202l-320 354v-354h-155v800h155v-357l327 357h184l-361 -393z" />
    <glyph glyph-name="L" unicode="L" horiz-adv-x="631" 
d="M621 0h-541v799h158v-649h383v-150z" />
    <glyph glyph-name="M" unicode="M" horiz-adv-x="948" 
d="M878 0h-152v534l-252 -425l-242 429v-538h-152v800h175l222 -397l232 397h169v-800z" />
    <glyph glyph-name="N" unicode="N" horiz-adv-x="815" 
d="M745 0h-152l-361 561v-561h-152v800h174l339 -522v522h152v-800z" />
    <glyph glyph-name="O" unicode="O" horiz-adv-x="939" 
d="M899 400q0 -86 -33.5 -162t-91.5 -132t-135 -88.5t-164 -32.5t-164.5 32.5t-135.5 88.5t-91.5 131.5t-33.5 162.5t33.5 163t91.5 132t135.5 88t164.5 32t164 -32t135 -88.5t91.5 -132t33.5 -162.5zM743 400q0 55 -21 103.5t-57.5 85t-85.5 58t-104 21.5q-56 0 -105 -21.5
t-85.5 -58t-57.5 -85t-21 -103.5q0 -54 21 -103t57.5 -85.5t85.5 -58t105 -21.5q55 0 104 21.5t85.5 58t57.5 85.5t21 103z" />
    <glyph glyph-name="P" unicode="P" horiz-adv-x="660" 
d="M640 531q0 -57 -21.5 -106.5t-58.5 -86t-87 -57t-106 -20.5h-132v-261h-155v799h287q56 0 106 -20.5t87 -56.5t58.5 -85t21.5 -106zM486 533q0 31 -11.5 58t-31.5 47t-47 32t-58 12h-103v-302h103q31 0 58 12.5t47 33.5t31.5 48.5t11.5 58.5z" />
    <glyph glyph-name="Q" unicode="Q" horiz-adv-x="933" 
d="M893 400q0 -71 -22.5 -134.5t-64.5 -116.5l80 -79l-92 -92l-82 83q-51 -35 -112 -55t-129 -20q-87 0 -163.5 32.5t-134 89t-90.5 131.5t-33 161t33 161.5t90.5 132t134 89t163.5 32.5t164 -32.5t134.5 -89t90.5 -132t33 -161.5zM742 400q0 55 -21.5 104t-58 86t-86 58.5
t-105.5 21.5t-105 -21.5t-86 -58.5t-58 -86t-21 -104t21 -104t58 -85.5t86 -58t105 -21.5q38 0 72.5 10t65.5 28l-75 73l92 92l74 -76q42 65 42 142z" />
    <glyph glyph-name="R" unicode="R" horiz-adv-x="697" 
d="M682 0h-171l-57 182q-9 30 -22.5 55t-32.5 43t-45.5 28t-62.5 10h-58v-318h-153v799l316 1q51 0 95 -17.5t76 -48.5t50 -73t18 -91q0 -35 -11 -68t-31 -61t-47.5 -49.5t-60.5 -32.5q38 -14 62 -40.5t38 -63.5q7 -17 13 -34t12.5 -35.5t14 -40t16.5 -47.5
q11 -33 20.5 -56.5t20.5 -41.5zM479 559q0 28 -10.5 51t-28.5 40t-42.5 26.5t-52.5 9.5h-112v-249h112q28 0 52.5 8.5t42.5 24.5t28.5 38.5t10.5 50.5z" />
    <glyph glyph-name="S" unicode="S" horiz-adv-x="644" 
d="M614 210q0 -45 -19.5 -85.5t-54.5 -71.5t-83 -49.5t-106 -18.5q-52 0 -93.5 6t-78 19t-70 33.5t-69.5 49.5l110 111q48 -40 94 -56.5t100 -16.5q22 0 41.5 6.5t34 17.5t23 26t8.5 33q0 19 -7 34t-25 29t-50 28.5t-82 32.5q-44 16 -84.5 36.5t-71 49.5t-49 68t-18.5 92
q0 51 20.5 94t56 73.5t83 47.5t102.5 17q92 0 155 -24t112 -70l-108 -109q-30 29 -67 44.5t-87 15.5q-23 0 -42.5 -7t-33.5 -18.5t-22.5 -27t-8.5 -32.5q0 -19 8 -34.5t27 -30t50.5 -29t78.5 -31.5q60 -21 103 -46t70 -55t40 -67.5t13 -84.5z" />
    <glyph glyph-name="T" unicode="T" horiz-adv-x="649" 
d="M629 661h-221v-661h-157v661h-221v138h599v-138z" />
    <glyph glyph-name="U" unicode="U" horiz-adv-x="831" 
d="M781 800v-434q0 -80 -24 -149t-69.5 -120.5t-111 -81t-149.5 -29.5q-82 0 -148 29t-112.5 79.5t-71.5 119t-25 147.5v439h155v-440q0 -46 13 -86.5t38 -70.5t62.5 -47.5t85.5 -17.5q51 0 88.5 16.5t62 46t37 69.5t12.5 88v442h157z" />
    <glyph glyph-name="V" unicode="V" horiz-adv-x="775" 
d="M770 800l-303 -800h-142l-310 800h172l208 -562l205 562h170z" />
    <glyph glyph-name="W" unicode="W" horiz-adv-x="1107" 
d="M1102 800l-260 -800h-136l-147 494l-148 -494h-136l-260 800h164l169 -517l146 517h128l146 -518l171 518h163z" />
    <glyph glyph-name="X" unicode="X" horiz-adv-x="790" 
d="M790 0h-191l-199 304l-199 -304h-191l292 415l-268 385h188l178 -271l177 271h191l-270 -384z" />
    <glyph glyph-name="Y" unicode="Y" horiz-adv-x="812" 
d="M807 799l-326 -472v-328h-157v330l-309 470h180l208 -336l217 336h187z" />
    <glyph glyph-name="Z" unicode="Z" horiz-adv-x="724" 
d="M694 800l-387 -647h384v-153h-651l396 662l-381 -1v139h639z" />
    <glyph glyph-name="bracketleft" unicode="[" horiz-adv-x="378" 
d="M363 -255h-303v1116h303v-121h-164v-875h164v-120z" />
    <glyph glyph-name="backslash" unicode="\" horiz-adv-x="314" 
d="M334 -57h-123l-231 928h123z" />
    <glyph glyph-name="bracketright" unicode="]" horiz-adv-x="377" 
d="M317 -255h-302v120h163v876h-163v120h302v-1116z" />
    <glyph glyph-name="asciicircum" unicode="^" horiz-adv-x="1166" 
d="M1062 386q0 -7 -5 -12t-12 -5t-12 5t-5 12t4.5 12t11.5 5t12.5 -5t5.5 -12zM1024 425q0 -8 -6 -14t-14 -6t-14 6t-6 14t6 14t14 6t14 -6t6 -14zM974 461q0 -9 -6 -15t-14 -6t-14.5 6t-6.5 15q0 8 6 14t14 6t14.5 -6t6.5 -14zM922 496q0 -10 -6.5 -17t-16.5 -7t-17 7
t-7 17q0 9 6.5 16t16.5 7q9 0 16.5 -7t7.5 -16zM864 526q0 -11 -7 -18.5t-18 -7.5t-19 7.5t-8 18.5t7.5 18.5t18.5 7.5t18.5 -7.5t7.5 -18.5zM795 554q0 -11 -8 -19t-19 -8t-19 8t-8 19t7.5 19t18.5 8t19.5 -8t8.5 -19zM720 575q0 -11 -8 -19.5t-19 -8.5t-20 8.5t-9 19.5
t8 19.5t20 8.5q11 0 19.5 -8.5t8.5 -19.5zM1030 353l-1 -2.5t-2.5 -5t-3.5 -4.5t-3 -1q-8 5 -17 12q-75 59 -160 99.5t-174 63.5q-12 -25 -21.5 -58t-12.5 -55q-1 -5 -9 -5t-9.5 0.5t-0.5 4.5q2 14 6 33t9 38t11 37t11 31q59 -15 107 -32t90.5 -38t81.5 -46t80 -56
q4 -3 9.5 -8t8.5 -8zM648 749l-1 -62l-54 19v-36q21 -2 36 -20t15 -40q0 -25 -18 -42.5t-43 -17.5q-27 0 -45.5 17.5t-18.5 43.5q0 22 15 39t37 20v36l-53 -19l-3 62l49 -13l-21 65h76l-19 -65zM607 513q0 -11 -7.5 -18.5t-18.5 -7.5q-10 0 -17.5 7.5t-7.5 18.5t7.5 18.5
t18.5 7.5q10 0 17.5 -8t7.5 -18zM495 578q0 -11 -8 -19.5t-19 -8.5t-20 8.5t-9 19.5t8 19.5t20 8.5q11 0 19.5 -8.5t8.5 -19.5zM603 456q0 -9 -6.5 -15t-14.5 -6t-15.5 6t-7.5 15t7 15t15 6t15 -6t7 -15zM600 408q0 -8 -5.5 -13t-12.5 -5t-13 5t-6 13q0 7 5.5 12t12.5 5
t13 -5t6 -12zM421 558q0 -11 -8 -19t-19 -8t-19 8t-8 19t7.5 19t18.5 8t19.5 -8t8.5 -19zM349 530q0 -11 -7 -18.5t-18 -7.5t-19 7.5t-8 18.5t7.5 18.5t18.5 7.5t18.5 -7.5t7.5 -18.5zM545 402q1 -5 -8 -5t-10 2q-5 25 -14 57.5t-21 57.5q-42 -9 -85.5 -24.5t-85.5 -35.5
t-80.5 -43.5t-69.5 -48.5q-5 -4 -11 -9.5t-10 -7.5q-2 -1 -6.5 5.5t-3.5 8.5q2 4 9 10.5t11 9.5q37 29 75 52.5t80 43t89.5 35.5t104.5 30q5 -12 10.5 -30t10.5 -37t9 -37.5t6 -33.5zM288 500q0 -10 -6.5 -17t-16.5 -7t-17 7t-7 17q0 9 6.5 16t16.5 7q9 0 16.5 -7t7.5 -16z
M1146 320q-4 -10 -8.5 -23.5t-9.5 -26.5q-5 -15 -11 -31q4 -17 0.5 -31.5t-8.5 -22.5q-2 -4 -6.5 -9.5t-12.5 -9.5l-43 -101q4 -13 8.5 -34t6.5 -34t-6 -22l-57 -71q-48 22 -100.5 37t-105.5 24t-105.5 13t-101.5 4q-47 0 -102.5 -4t-111.5 -13.5t-108 -24t-93 -35.5
q-10 8 -21.5 18.5t-22.5 19.5q-12 11 -26 21q-8 7 -10 15q-1 2 -1 5.5v5.5q0 5 1 17t2 25t2.5 24.5t1.5 17.5l-30 96q-8 4 -13 10q-14 13 -17.5 33.5t6.5 39.5l-23 67q15 5 41.5 11.5t44.5 9.5q-3 -8 -8 -21.5t-10 -27.5t-9 -25t-4 -13q0 -5 2 -3q13 3 30.5 18.5t26.5 27.5
q7 -32 12.5 -63t12.5 -63q-11 9 -23 14t-28 10q-8 2 -13 2q6 -21 16 -40.5t24 -34.5t32.5 -24t43.5 -9q18 0 35.5 6t32 17t23 27.5t8.5 36.5q0 19 -12.5 37t-33.5 18q-26 0 -37 -15t-11 -39q0 -11 3 -23q-25 4 -35.5 26t-10.5 44q0 35 21.5 60t58.5 25q14 0 22.5 -4
t19.5 -12q-11 17 -14.5 31t-3.5 34q0 21 8.5 40t19.5 35q26 -18 39.5 -41t13.5 -55q0 -11 -2.5 -21t-5.5 -21q12 12 27.5 22.5t33.5 10.5q25 0 42.5 -21t17.5 -45q0 -41 -38 -63q1 2 1 6q0 18 -12 31.5t-32 13.5t-30.5 -14.5t-10.5 -33.5q0 -18 9.5 -32t24 -24t32 -15
t32.5 -5q20 0 40.5 5t37 16t26.5 28.5t10 42.5q0 5 -0.5 8.5t-1.5 8.5q-14 -6 -31.5 -14t-33.5 -16l-4 122q18 -12 32 -21t30 -17q4 -2 3 3q-7 25 -15.5 45t-18.5 43h116q-12 -26 -19.5 -49.5t-12.5 -39.5q-2 -6 2 -4q14 8 31 19t31 22l-3 -123q-16 9 -30 15.5t-31 14.5v-18
q0 -44 24.5 -68.5t67.5 -24.5q18 0 35 5t31 14.5t22.5 24t8.5 34.5q0 17 -10.5 29.5t-28.5 12.5q-15 0 -25.5 -14t-15.5 -25q-11 11 -18 25t-7 29q0 29 14.5 49t46.5 20q17 0 32.5 -12t26.5 -24q-3 18 -3 35q0 32 15 57t38 43q13 -16 20.5 -33t7.5 -37q0 -22 -6.5 -42
t-17.5 -39q11 10 24 18t29 8q26 0 46 -19.5t20 -45.5q0 -14 -6 -28t-16 -26.5t-22.5 -21.5t-25.5 -13q6 7 8.5 20t2.5 21q0 35 -35 35q-11 0 -18.5 -5.5t-12.5 -14.5t-7.5 -19t-2.5 -19q0 -38 21 -54t53 -24q7 -2 14 -3t14 0q49 2 73 29.5t38 84.5q-19 -7 -36 -13t-35 -16
q8 29 17.5 66.5t17.5 64.5q11 -13 23 -26t25 -24q5 -4 5 4q-1 17 -3 33q-2 14 -3.5 27.5t-3.5 23.5q22 -3 42.5 -7.5t36.5 -11.5zM230 465q0 -9 -6 -15t-14 -6t-14.5 6t-6.5 15q0 8 6 14t14 6t14.5 -6t6.5 -14zM181 429q0 -8 -6 -14t-14 -6t-14 6t-6 14t5.5 14t13.5 6
t14.5 -6t6.5 -14zM139 390q0 -7 -5 -12t-12 -5t-12 5t-5 12t4.5 12t11.5 5t12.5 -5t5.5 -12zM968 -113q0 -8 -13 -12q-86 -33 -168.5 -43.5t-178.5 -10.5q-107 0 -203.5 11.5t-196.5 45.5q-11 3 -11 9q0 5 10 9q41 17 89.5 29t98.5 19.5t99.5 10.5t92.5 3q41 0 88.5 -3.5
t96 -10.5t95 -18t86.5 -27q15 -5 15 -12zM1103 223q0 4 -1.5 8.5t-6.5 4.5t-9 -4.5t-7 -10.5t-4.5 -12.5t-1.5 -10.5t1.5 -8.5t6.5 -4.5t9 4.5t7 10.5t4.5 12.5t1.5 10.5zM624 619q-2 12 -10.5 20t-20.5 13q-1 -2 -0.5 -8t0.5 -14v-19q8 -1 15 1t16 7zM572 611l-1 41
q-25 -8 -33 -34q14 -7 34 -7zM618 587q-14 9 -36 9q-9 0 -19 -2t-18 -7q6 -10 18 -14.5t20 -4.5t19 5.5t16 13.5zM1043 -6q0 5 -3.5 17.5t-7.5 20.5l-31 -31l19 -41q6 9 14.5 19t8.5 15zM956 39q0 8 -6 13.5t-14 5.5t-13.5 -5.5t-5.5 -13.5t6 -14t14 -6t13.5 6t5.5 14z
M940 -15q0 8 -6.5 14t-14.5 6t-14 -6t-6 -14t6.5 -14t14.5 -6t14 6t6 14zM864 36q3 20 -13 36t-42 21q-26 4 -46.5 -6.5t-23.5 -30.5q-3 -19 13 -35t42 -21t46.5 6t23.5 30zM599 263q0 7 -5 12t-13 5q-7 0 -11.5 -5t-4.5 -12t5 -12t12 -5t12 5t5 12zM699 81q0 8 -6 13.5
t-14 5.5t-13.5 -5.5t-5.5 -13.5t6 -14t14 -6t13.5 6t5.5 14zM693 25q0 8 -6.5 14t-14.5 6q-9 0 -14.5 -6t-5.5 -14q0 -9 6 -15t14 -6q9 0 15 6t6 15zM612 69l-14 22q-5 8 -10.5 15.5t-7.5 7.5q-3 0 -8 -7.5t-10 -15.5q-6 -10 -12 -22q7 -13 13 -23q5 -9 10 -16t8 -7t8 7
t10 16q6 10 13 23zM499 81q0 8 -6 13.5t-14 5.5t-13.5 -5.5t-5.5 -13.5t6 -14t14 -6t13.5 6t5.5 14zM506 24q0 8 -6.5 14t-14.5 6t-14 -6t-6 -14q0 -9 6.5 -15t14.5 -6t14 6t6 15zM415 57q-3 19 -23 30t-46 6q-26 -4 -42 -20.5t-13 -35.5q3 -20 23 -30.5t46 -6.5
q26 5 42.5 21t12.5 36zM82 202q0 4 -2 10.5t-5 12.5t-7 10.5t-9 4.5t-6 -6t-1 -10t1.5 -10t4.5 -12t7 -10t9 -4t6.5 5t1.5 9zM230 36q0 8 -6 14t-14 6t-13.5 -6t-5.5 -14t6 -13.5t14 -5.5q19 0 19 19zM250 -17q0 8 -6.5 14t-14.5 6t-14 -6t-6 -14t6.5 -14t14.5 -6t14 6t6 14
zM148 1l-33 27q-2 -11 -3.5 -25t-1.5 -16q0 -5 12.5 -15.5t22.5 -18.5q3 9 3 28v20z" />
    <glyph glyph-name="underscore" unicode="_" horiz-adv-x="555" 
d="M580 -163h-605v97h605v-97z" />
    <glyph glyph-name="grave" unicode="`" horiz-adv-x="580" 
d="M369 650h-106l-144 193h161z" />
    <glyph glyph-name="a" unicode="a" horiz-adv-x="580" 
d="M530 0h-145v31q-38 -26 -80.5 -36t-87.5 -10q-42 0 -76 12.5t-59 36t-38.5 55.5t-13.5 71q0 49 21.5 85.5t58.5 61t86.5 36.5t106.5 12h83q0 51 -33 81t-95 30q-30 0 -62 -11t-64 -40l-85 86q46 44 106.5 68t124.5 24q60 0 107 -19t76 -49q38 -38 53.5 -85t15.5 -120
v-320zM385 144v107h-66q-30 0 -56.5 -4t-46 -13.5t-31 -24.5t-11.5 -36q0 -30 23.5 -49t60.5 -19q32 0 63.5 10t63.5 29z" />
    <glyph glyph-name="b" unicode="b" horiz-adv-x="646" 
d="M616 289q0 -61 -20.5 -116t-57.5 -96.5t-88 -66t-112 -24.5q-38 0 -71 10.5t-62 33.5v-30h-145v830h146v-280q25 20 59.5 32t72.5 12q53 0 103 -23.5t89 -64.5t62.5 -96.5t23.5 -120.5zM470 289q0 40 -12 73t-33.5 56.5t-51 36t-65.5 12.5q-23 0 -53 -9.5t-50 -24.5v-278
q47 -43 106 -43q34 0 63.5 13t50.5 36.5t33 56t12 71.5z" />
    <glyph glyph-name="c" unicode="c" horiz-adv-x="592" 
d="M582 87q-44 -50 -106 -76t-130 -26q-63 0 -119 23t-97.5 63.5t-65.5 96.5t-24 121q0 64 24 119.5t65 96.5t97 64.5t120 23.5q66 0 125.5 -24t103.5 -73l-97 -99q-22 29 -53.5 48t-76.5 19q-33 0 -62.5 -14t-52 -37.5t-35.5 -55.5t-13 -68t13 -68t35 -55.5t52 -37.5
t63 -14q43 0 78 20.5t56 52.5z" />
    <glyph glyph-name="d" unicode="d" horiz-adv-x="656" 
d="M596 0h-147v30q-28 -23 -61 -33.5t-70 -10.5q-61 0 -112 24.5t-88 66t-57.5 96.5t-20.5 116q0 65 23.5 120.5t62.5 96.5t89 64.5t103 23.5q37 0 72 -10t60 -28v274h146v-830zM451 155v278q-10 7 -23 13.5t-27 11t-28 7t-25 2.5q-36 0 -65.5 -12.5t-51.5 -36t-34 -56.5
t-12 -73q0 -39 12 -71.5t33 -56t50.5 -36.5t64.5 -13q57 0 106 43z" />
    <glyph glyph-name="e" unicode="e" 
d="M657 290q0 -14 -1.5 -29t-3.5 -31h-462q8 -25 22.5 -47.5t35.5 -39t47.5 -26t58.5 -9.5q39 0 78 13.5t65 36.5l91 -91q-60 -45 -117.5 -63.5t-121.5 -18.5q-65 0 -121.5 24t-98 65t-65.5 96.5t-24 118.5t24 118.5t66 96.5t98 65t120 24q61 0 117 -22.5t99 -62.5t68 -95.5
t25 -122.5zM506 346q-17 55 -60.5 88.5t-98.5 33.5q-54 0 -97 -33.5t-60 -88.5h316z" />
    <glyph glyph-name="f" unicode="f" horiz-adv-x="367" 
d="M382 698q-21 8 -37 10.5t-35 2.5q-42 0 -59.5 -19t-17.5 -69v-46h91v-126h-91v-451h-143v451h-70v126h70v44q0 109 40.5 166t142.5 57q58 0 109 -14v-132z" />
    <glyph glyph-name="g" unicode="g" horiz-adv-x="601" 
d="M591 464h-61q23 -45 23 -96q0 -39 -14.5 -75.5t-41.5 -66.5t-65.5 -51t-86.5 -28q-33 -5 -49.5 -15.5t-16.5 -21t16.5 -19.5t49.5 -12q112 -10 173.5 -56t61.5 -122q0 -39 -19 -72t-54.5 -57t-85.5 -37t-112 -13q-63 0 -113.5 13t-86.5 36.5t-55 56.5t-19 73
q0 60 34.5 100.5t112.5 60.5q-24 9 -34.5 24.5t-9.5 31.5t13.5 30.5t35.5 22.5q-26 12 -49.5 31t-42.5 44t-30 56t-11 66q0 47 20 88t54 71.5t79 48t95 17.5q49 0 91 -15h198v-114zM410 368q0 22 -8.5 41t-23 33.5t-34 23t-41.5 8.5t-41 -8.5t-33.5 -23t-23 -33.5t-8.5 -41
t8.5 -41.5t23 -34t33.5 -23t41 -8.5t41.5 8.5t34 23t23 34t8.5 41.5zM436 -99q0 35 -35.5 51t-91.5 16q-60 0 -94.5 -17t-34.5 -50q0 -34 36 -51t93 -17q58 0 92.5 16.5t34.5 51.5z" />
    <glyph glyph-name="h" unicode="h" horiz-adv-x="633" 
d="M583 0h-144v346q0 31 -9.5 54.5t-25 39t-36 23t-42.5 7.5q-33 0 -63 -10t-58 -28v-432h-145v829h145v-284q32 25 74 37t81 12q45 0 85 -14.5t71 -44t49 -74t18 -105.5v-356z" />
    <glyph glyph-name="i" unicode="i" horiz-adv-x="280" 
d="M210 679h-150v150h150v-150zM208 0h-146v579h146v-579z" />
    <glyph glyph-name="j" unicode="j" horiz-adv-x="292" 
d="M222 679h-150v150h150v-150zM220 -30q0 -57 -15.5 -101.5t-44 -73t-70 -40t-92.5 -2.5l-48 135q22 -7 44.5 -8t40 7.5t28.5 28.5t11 56v607h146v-609z" />
    <glyph glyph-name="k" unicode="k" horiz-adv-x="600" 
d="M610 0h-171l-232 259v-259h-147v829h147v-496l202 245h168l-237 -281z" />
    <glyph glyph-name="l" unicode="l" horiz-adv-x="314" 
d="M304 3q-17 -8 -38.5 -13t-44.5 -5q-32 0 -61.5 8.5t-51.5 27.5t-35 49.5t-13 73.5v686h147v-661q0 -36 14.5 -49.5t34.5 -13.5q25 0 48 15v-118z" />
    <glyph glyph-name="m" unicode="m" horiz-adv-x="965" 
d="M915 0h-143v345q0 61 -29.5 92.5t-72.5 31.5q-33 0 -62.5 -10.5t-57.5 -34.5q9 -35 9 -79v-345h-144v345q0 61 -29.5 92.5t-71.5 31.5q-33 0 -58 -11.5t-52 -36.5v-421h-144v578h144v-43q27 26 63.5 42t74.5 16q42 0 84.5 -19t74.5 -55q45 40 91 57t101 17
q45 0 85.5 -13.5t70.5 -43t48 -75t18 -109.5v-352z" />
    <glyph glyph-name="n" unicode="n" horiz-adv-x="636" 
d="M586 0h-144v345q0 31 -9.5 54.5t-25.5 39t-36.5 23t-42.5 7.5q-33 0 -65 -11.5t-58 -36.5v-421h-145v578h145v-43q13 13 32 24t39.5 18.5t42 11.5t41.5 4q44 0 84.5 -14t72 -43t50.5 -75t19 -109v-352z" />
    <glyph glyph-name="o" unicode="o" 
d="M657 289q0 -65 -24 -120.5t-66 -96t-98.5 -64t-120.5 -23.5t-120 23.5t-98 64.5t-66 96.5t-24 119.5q0 63 24.5 118.5t66.5 97t98 65t119 23.5q64 0 120.5 -23.5t98.5 -64t66 -96.5t24 -120zM513 289q0 37 -13 69t-35.5 56t-52.5 37.5t-64 13.5t-64 -13.5t-52.5 -37.5
t-35.5 -56t-13 -69t13 -69t35.5 -56t52.5 -37.5t64 -13.5t64 13.5t52.5 37.5t35.5 56t13 69z" />
    <glyph glyph-name="p" unicode="p" horiz-adv-x="646" 
d="M616 288q0 -61 -20.5 -116t-57.5 -96.5t-88 -66t-112 -24.5q-38 0 -71 10.5t-62 33.5l1 -280h-146v830h146v-30q25 20 59.5 32t72.5 12q53 0 103 -23.5t89 -64.5t62.5 -96.5t23.5 -120.5zM469 287q0 41 -12 74t-33.5 56.5t-51 36t-65.5 12.5q-23 0 -52.5 -9.5
t-49.5 -25.5v-277q47 -43 105 -43q34 0 63.5 13t50.5 36.5t33 56t12 70.5z" />
    <glyph glyph-name="q" unicode="q" horiz-adv-x="655" 
d="M595 -251h-145v280q-28 -23 -61.5 -33.5t-70.5 -10.5q-61 0 -112 24.5t-88 66t-57.5 96.5t-20.5 116q0 65 23.5 120.5t62.5 96.5t89 64.5t103 23.5q37 0 72 -10t60 -28v24h145v-830zM451 154v277q-20 16 -50 25.5t-53 9.5q-36 0 -65.5 -12.5t-51.5 -36t-34 -56.5t-12 -74
q0 -38 12 -70.5t33 -56t50.5 -36.5t64.5 -13q57 0 106 43z" />
    <glyph glyph-name="r" unicode="r" horiz-adv-x="466" 
d="M476 518l-77 -122q-21 23 -46.5 40.5t-51.5 17.5q-14 0 -30.5 -6.5t-31 -21.5t-24.5 -39.5t-10 -60.5v-326h-145v578h145v-62q26 37 57.5 57t70.5 20q38 0 74.5 -20.5t68.5 -54.5z" />
    <glyph glyph-name="s" unicode="s" horiz-adv-x="513" 
d="M483 162q0 -43 -20 -76.5t-52 -56t-72 -34t-79 -11.5q-66 0 -121.5 24.5t-97.5 78.5l87 88q26 -33 60 -51.5t73 -18.5q34 0 56.5 12.5t22.5 37.5q0 26 -32 43.5t-90 34.5q-34 10 -66 25.5t-57 38t-40 51.5t-15 67q0 42 19.5 75.5t51 56t71.5 34.5t81 12q132 0 216 -100
l-86 -87q-25 31 -57 49t-70 18q-13 0 -27.5 -3.5t-27 -10t-20.5 -17t-8 -23.5q0 -23 30.5 -40t87.5 -34q37 -11 70 -28t58 -39.5t39.5 -51t14.5 -64.5z" />
    <glyph glyph-name="t" unicode="t" horiz-adv-x="407" 
d="M382 13q-22 -14 -51 -21t-58 -7q-51 0 -86 12.5t-56 38.5t-30.5 66t-9.5 94v253h-76v65q70 29 113.5 86t59.5 148h47v-169h146v-130h-146v-263q0 -22 5.5 -36t14.5 -22t20.5 -11t24.5 -3q17 0 41 6t41 20v-127z" />
    <glyph glyph-name="u" unicode="u" horiz-adv-x="632" 
d="M572 0h-144v44q-14 -14 -32.5 -24.5t-39 -18t-42 -11.5t-40.5 -4q-44 0 -84.5 14t-71.5 43t-49.5 75t-18.5 109v351h144v-344q0 -31 9.5 -54.5t25 -39t36 -23t42.5 -7.5q70 0 121 48v420h144v-578z" />
    <glyph glyph-name="v" unicode="v" horiz-adv-x="597" 
d="M592 578l-217 -579h-142l-218 579h158l131 -388l131 388h157z" />
    <glyph glyph-name="w" unicode="w" horiz-adv-x="889" 
d="M884 579l-194 -580h-125l-115 345l-115 -345h-125l-195 580h152l109 -362l109 362h128l110 -362l109 362h152z" />
    <glyph glyph-name="x" unicode="x" horiz-adv-x="591" 
d="M586 -1h-165l-120 185l-121 -185h-165l206 303l-189 277h163l106 -162l105 162h164l-190 -277z" />
    <glyph glyph-name="y" unicode="y" horiz-adv-x="590" 
d="M585 579l-260 -687q-29 -77 -76 -111t-112 -34q-10 0 -22 1.5t-23 4.5l-48 134q17 -8 35 -12.5t34 -4.5q34 0 62 15.5t43 57.5l20 58l-223 578h157l133 -372l125 372h155z" />
    <glyph glyph-name="z" unicode="z" horiz-adv-x="557" 
d="M542 579l-287 -450h276v-129h-511l281 450h-254v129h495z" />
    <glyph glyph-name="braceleft" unicode="{" horiz-adv-x="404" 
d="M389 -276h-60q-65 0 -102 22t-55 58t-23 81.5t-5 93.5v93.5t-10 81.5t-33.5 57.5t-70.5 21.5v113q46 0 69 21.5t32 57.5t9.5 81.5t1.5 93t6.5 93.5t25 81.5t58 57.5t105.5 22h52v-133h-39q-45 0 -58.5 -43.5t-13.5 -123.5q0 -36 -1 -75t-9 -75.5t-26.5 -66.5t-53.5 -47
q34 -15 53 -41.5t27 -60t9.5 -72t1.5 -77.5q0 -90 15 -135.5t56 -45.5h39v-134z" />
    <glyph glyph-name="bar" unicode="|" horiz-adv-x="267" 
d="M205 -195h-123v1066h123v-1066z" />
    <glyph glyph-name="braceright" unicode="}" horiz-adv-x="404" 
d="M374 233q-47 0 -70.5 -21.5t-33.5 -57.5t-10 -81.5v-93.5t-5 -93.5t-23 -81.5t-55 -58t-102 -22h-60v134h39q41 0 56 45.5t15 135.5q0 39 1.5 77.5t9.5 72t26.5 60t53.5 41.5q-35 17 -53.5 47t-26.5 66.5t-9 75.5t-1 75q0 80 -13.5 123.5t-58.5 43.5h-39v133h52
q67 0 105.5 -22t58 -57.5t25 -81.5t6.5 -93.5t1.5 -93t9.5 -81.5t32 -57.5t69 -21.5v-113z" />
    <glyph glyph-name="asciitilde" unicode="~" horiz-adv-x="651" 
d="M626 342q-38 -32 -78 -51t-94 -19q-42 0 -77 11.5t-66.5 25.5t-61.5 25.5t-61 11.5q-26 0 -47.5 -7t-41 -18t-37.5 -25.5t-37 -30.5v156q72 74 173 74q38 0 73 -11.5t68 -25t64 -24.5t61 -11q25 0 46.5 7t41.5 19t38 27l36 30v-164z" />
    <glyph glyph-name="DEL" horiz-adv-x="321" 
 />
    <glyph glyph-name="nonbreakingspace" unicode="&#xa0;" horiz-adv-x="315" 
 />
    <glyph glyph-name="exclamdown" unicode="&#xa1;" horiz-adv-x="273" 
d="M201 651h-149v149h149v-149zM213 0h-173l42 578h89z" />
    <glyph glyph-name="cent" unicode="&#xa2;" horiz-adv-x="597" 
d="M567 87q-35 -40 -82 -65.5t-101 -33.5v-93h-91v94q-54 9 -100 35.5t-80 66.5t-53.5 90.5t-19.5 107.5t19.5 107.5t53.5 90.5t80 66.5t100 35.5v65h91v-64q53 -8 98 -32t79 -61l-94 -94q-16 21 -38.5 36.5t-49.5 22.5v-346q29 8 53 25t40 41zM298 117v344
q-26 -8 -48 -24.5t-38.5 -39t-26 -50t-9.5 -58.5t9 -59t25.5 -50.5t39 -39t48.5 -23.5z" />
    <glyph glyph-name="sterling" unicode="&#xa3;" horiz-adv-x="636" 
d="M586 5q-31 -8 -62 -12t-76 -4q-35 0 -75 6.5t-72 12.5q-10 2 -24 3.5t-28.5 2.5t-27 1.5t-20.5 0.5q-17 0 -37 -2.5t-40.5 -7t-39.5 -10t-34 -12.5q38 68 61.5 141.5t34.5 166.5h-80l1 136h93q0 3 1.5 12.5t2.5 20t2.5 20t1.5 13.5q4 43 8.5 71t8.5 47.5t8 33.5t9 28
q11 34 30.5 60t44.5 44t54.5 27.5t61.5 9.5q60 0 107.5 -23t81.5 -67l-99 -97q-29 48 -79 48q-26 0 -45 -13.5t-29 -33.5q-8 -17 -13 -47.5t-9 -59.5q-2 -20 -5.5 -46t-5.5 -48h170l1 -136h-185q-2 -15 -5 -34.5t-7.5 -39.5t-9 -38.5t-9.5 -31.5q8 1 18.5 2t18.5 1
q18 0 40 -2.5t39 -5.5q27 -5 44.5 -8.5t47.5 -3.5q20 0 35.5 1.5t29.5 5t28.5 9t32.5 13.5v-155z" />
    <glyph glyph-name="currency" unicode="&#xa4;" horiz-adv-x="807" 
d="M767 40q-46 -26 -100.5 -40.5t-115.5 -14.5q-72 0 -136.5 20.5t-117.5 57t-93 86.5t-62 109h-112l59 101h30q-1 10 -1.5 19.5t-0.5 18.5v18t1 18h-88l59 101h50q21 62 60 114t92.5 89t119.5 57.5t140 20.5q60 0 113.5 -15t101.5 -41l-74 -129q-31 18 -66.5 28t-74.5 10
q-81 0 -144.5 -36t-98.5 -98h335l-59 -101h-309q-1 -8 -1 -16v-17q0 -22 3 -41l269 -1l-58 -101h-174q35 -57 96.5 -90.5t140.5 -33.5q37 0 75 9t67 28z" />
    <glyph glyph-name="yen" unicode="&#xa5;" horiz-adv-x="778" 
d="M768 796l-174 -270h84v-133h-170l-39 -60v-30h209v-133h-209v-173h-154v173h-211v133h211v29l-40 61h-171v133h85l-174 270h186l191 -308l194 308h182z" />
    <glyph glyph-name="brokenbar" unicode="&#xa6;" horiz-adv-x="287" 
d="M205 411h-123v460h123v-460zM205 -195h-123v461h123v-461z" />
    <glyph glyph-name="section" unicode="&#xa7;" horiz-adv-x="1166" 
d="M1062 386q0 -7 -5 -12t-12 -5t-12 5t-5 12t4.5 12t11.5 5t12.5 -5t5.5 -12zM1024 425q0 -8 -6 -14t-14 -6t-14 6t-6 14t6 14t14 6t14 -6t6 -14zM974 461q0 -9 -6 -15t-14 -6t-14.5 6t-6.5 15q0 8 6 14t14 6t14.5 -6t6.5 -14zM922 496q0 -10 -6.5 -17t-16.5 -7t-17 7
t-7 17q0 9 6.5 16t16.5 7q9 0 16.5 -7t7.5 -16zM864 526q0 -11 -7 -18.5t-18 -7.5t-19 7.5t-8 18.5t7.5 18.5t18.5 7.5t18.5 -7.5t7.5 -18.5zM795 554q0 -11 -8 -19t-19 -8t-19 8t-8 19t7.5 19t18.5 8t19.5 -8t8.5 -19zM720 575q0 -11 -8 -19.5t-19 -8.5t-20 8.5t-9 19.5
t8 19.5t20 8.5q11 0 19.5 -8.5t8.5 -19.5zM1030 353l-1 -2.5t-2.5 -5t-3.5 -4.5t-3 -1q-8 5 -17 12q-75 59 -160 99.5t-174 63.5q-12 -25 -21.5 -58t-12.5 -55q-1 -5 -9 -5t-9.5 0.5t-0.5 4.5q2 14 6 33t9 38t11 37t11 31q59 -15 107 -32t90.5 -38t81.5 -46t80 -56
q4 -3 9.5 -8t8.5 -8zM648 749l-1 -62l-54 19v-36q21 -2 36 -20t15 -40q0 -25 -18 -42.5t-43 -17.5q-27 0 -45.5 17.5t-18.5 43.5q0 22 15 39t37 20v36l-53 -19l-3 62l49 -13l-21 65h76l-19 -65zM607 513q0 -11 -7.5 -18.5t-18.5 -7.5q-10 0 -17.5 7.5t-7.5 18.5t7.5 18.5
t18.5 7.5q10 0 17.5 -8t7.5 -18zM495 578q0 -11 -8 -19.5t-19 -8.5t-20 8.5t-9 19.5t8 19.5t20 8.5q11 0 19.5 -8.5t8.5 -19.5zM603 456q0 -9 -6.5 -15t-14.5 -6t-15.5 6t-7.5 15t7 15t15 6t15 -6t7 -15zM600 408q0 -8 -5.5 -13t-12.5 -5t-13 5t-6 13q0 7 5.5 12t12.5 5
t13 -5t6 -12zM421 558q0 -11 -8 -19t-19 -8t-19 8t-8 19t7.5 19t18.5 8t19.5 -8t8.5 -19zM349 530q0 -11 -7 -18.5t-18 -7.5t-19 7.5t-8 18.5t7.5 18.5t18.5 7.5t18.5 -7.5t7.5 -18.5zM545 402q1 -5 -8 -5t-10 2q-5 25 -14 57.5t-21 57.5q-42 -9 -85.5 -24.5t-85.5 -35.5
t-80.5 -43.5t-69.5 -48.5q-5 -4 -11 -9.5t-10 -7.5q-2 -1 -6.5 5.5t-3.5 8.5q2 4 9 10.5t11 9.5q37 29 75 52.5t80 43t89.5 35.5t104.5 30q5 -12 10.5 -30t10.5 -37t9 -37.5t6 -33.5zM288 500q0 -10 -6.5 -17t-16.5 -7t-17 7t-7 17q0 9 6.5 16t16.5 7q9 0 16.5 -7t7.5 -16z
M1146 320q-4 -10 -8.5 -23.5t-9.5 -26.5q-5 -15 -11 -31q4 -17 0.5 -31.5t-8.5 -22.5q-2 -4 -6.5 -9.5t-12.5 -9.5l-43 -101q4 -13 8.5 -34t6.5 -34t-6 -22l-57 -71q-48 22 -100.5 37t-105.5 24t-105.5 13t-101.5 4q-47 0 -102.5 -4t-111.5 -13.5t-108 -24t-93 -35.5
q-10 8 -21.5 18.5t-22.5 19.5q-12 11 -26 21q-8 7 -10 15q-1 2 -1 5.5v5.5q0 5 1 17t2 25t2.5 24.5t1.5 17.5l-30 96q-8 4 -13 10q-14 13 -17.5 33.5t6.5 39.5l-23 67q15 5 41.5 11.5t44.5 9.5q-3 -8 -8 -21.5t-10 -27.5t-9 -25t-4 -13q0 -5 2 -3q13 3 30.5 18.5t26.5 27.5
q7 -32 12.5 -63t12.5 -63q-11 9 -23 14t-28 10q-8 2 -13 2q6 -21 16 -40.5t24 -34.5t32.5 -24t43.5 -9q18 0 35.5 6t32 17t23 27.5t8.5 36.5q0 19 -12.5 37t-33.5 18q-26 0 -37 -15t-11 -39q0 -11 3 -23q-25 4 -35.5 26t-10.5 44q0 35 21.5 60t58.5 25q14 0 22.5 -4
t19.5 -12q-11 17 -14.5 31t-3.5 34q0 21 8.5 40t19.5 35q26 -18 39.5 -41t13.5 -55q0 -11 -2.5 -21t-5.5 -21q12 12 27.5 22.5t33.5 10.5q25 0 42.5 -21t17.5 -45q0 -41 -38 -63q1 2 1 6q0 18 -12 31.5t-32 13.5t-30.5 -14.5t-10.5 -33.5q0 -18 9.5 -32t24 -24t32 -15
t32.5 -5q20 0 40.5 5t37 16t26.5 28.5t10 42.5q0 5 -0.5 8.5t-1.5 8.5q-14 -6 -31.5 -14t-33.5 -16l-4 122q18 -12 32 -21t30 -17q4 -2 3 3q-7 25 -15.5 45t-18.5 43h116q-12 -26 -19.5 -49.5t-12.5 -39.5q-2 -6 2 -4q14 8 31 19t31 22l-3 -123q-16 9 -30 15.5t-31 14.5v-18
q0 -44 24.5 -68.5t67.5 -24.5q18 0 35 5t31 14.5t22.5 24t8.5 34.5q0 17 -10.5 29.5t-28.5 12.5q-15 0 -25.5 -14t-15.5 -25q-11 11 -18 25t-7 29q0 29 14.5 49t46.5 20q17 0 32.5 -12t26.5 -24q-3 18 -3 35q0 32 15 57t38 43q13 -16 20.5 -33t7.5 -37q0 -22 -6.5 -42
t-17.5 -39q11 10 24 18t29 8q26 0 46 -19.5t20 -45.5q0 -14 -6 -28t-16 -26.5t-22.5 -21.5t-25.5 -13q6 7 8.5 20t2.5 21q0 35 -35 35q-11 0 -18.5 -5.5t-12.5 -14.5t-7.5 -19t-2.5 -19q0 -38 21 -54t53 -24q7 -2 14 -3t14 0q49 2 73 29.5t38 84.5q-19 -7 -36 -13t-35 -16
q8 29 17.5 66.5t17.5 64.5q11 -13 23 -26t25 -24q5 -4 5 4q-1 17 -3 33q-2 14 -3.5 27.5t-3.5 23.5q22 -3 42.5 -7.5t36.5 -11.5zM230 465q0 -9 -6 -15t-14 -6t-14.5 6t-6.5 15q0 8 6 14t14 6t14.5 -6t6.5 -14zM181 429q0 -8 -6 -14t-14 -6t-14 6t-6 14t5.5 14t13.5 6
t14.5 -6t6.5 -14zM139 390q0 -7 -5 -12t-12 -5t-12 5t-5 12t4.5 12t11.5 5t12.5 -5t5.5 -12zM968 -113q0 -8 -13 -12q-86 -33 -168.5 -43.5t-178.5 -10.5q-107 0 -203.5 11.5t-196.5 45.5q-11 3 -11 9q0 5 10 9q41 17 89.5 29t98.5 19.5t99.5 10.5t92.5 3q41 0 88.5 -3.5
t96 -10.5t95 -18t86.5 -27q15 -5 15 -12zM1103 223q0 4 -1.5 8.5t-6.5 4.5t-9 -4.5t-7 -10.5t-4.5 -12.5t-1.5 -10.5t1.5 -8.5t6.5 -4.5t9 4.5t7 10.5t4.5 12.5t1.5 10.5zM624 619q-2 12 -10.5 20t-20.5 13q-1 -2 -0.5 -8t0.5 -14v-19q8 -1 15 1t16 7zM572 611l-1 41
q-25 -8 -33 -34q14 -7 34 -7zM618 587q-14 9 -36 9q-9 0 -19 -2t-18 -7q6 -10 18 -14.5t20 -4.5t19 5.5t16 13.5zM1043 -6q0 5 -3.5 17.5t-7.5 20.5l-31 -31l19 -41q6 9 14.5 19t8.5 15zM956 39q0 8 -6 13.5t-14 5.5t-13.5 -5.5t-5.5 -13.5t6 -14t14 -6t13.5 6t5.5 14z
M940 -15q0 8 -6.5 14t-14.5 6t-14 -6t-6 -14t6.5 -14t14.5 -6t14 6t6 14zM864 36q3 20 -13 36t-42 21q-26 4 -46.5 -6.5t-23.5 -30.5q-3 -19 13 -35t42 -21t46.5 6t23.5 30zM599 263q0 7 -5 12t-13 5q-7 0 -11.5 -5t-4.5 -12t5 -12t12 -5t12 5t5 12zM699 81q0 8 -6 13.5
t-14 5.5t-13.5 -5.5t-5.5 -13.5t6 -14t14 -6t13.5 6t5.5 14zM693 25q0 8 -6.5 14t-14.5 6q-9 0 -14.5 -6t-5.5 -14q0 -9 6 -15t14 -6q9 0 15 6t6 15zM612 69l-14 22q-5 8 -10.5 15.5t-7.5 7.5q-3 0 -8 -7.5t-10 -15.5q-6 -10 -12 -22q7 -13 13 -23q5 -9 10 -16t8 -7t8 7
t10 16q6 10 13 23zM499 81q0 8 -6 13.5t-14 5.5t-13.5 -5.5t-5.5 -13.5t6 -14t14 -6t13.5 6t5.5 14zM506 24q0 8 -6.5 14t-14.5 6t-14 -6t-6 -14q0 -9 6.5 -15t14.5 -6t14 6t6 15zM415 57q-3 19 -23 30t-46 6q-26 -4 -42 -20.5t-13 -35.5q3 -20 23 -30.5t46 -6.5
q26 5 42.5 21t12.5 36zM82 202q0 4 -2 10.5t-5 12.5t-7 10.5t-9 4.5t-6 -6t-1 -10t1.5 -10t4.5 -12t7 -10t9 -4t6.5 5t1.5 9zM230 36q0 8 -6 14t-14 6t-13.5 -6t-5.5 -14t6 -13.5t14 -5.5q19 0 19 19zM250 -17q0 8 -6.5 14t-14.5 6t-14 -6t-6 -14t6.5 -14t14.5 -6t14 6t6 14
zM148 1l-33 27q-2 -11 -3.5 -25t-1.5 -16q0 -5 12.5 -15.5t22.5 -18.5q3 9 3 28v20z" />
    <glyph glyph-name="dieresis" unicode="&#xa8;" horiz-adv-x="580" 
d="M462 650h-130v130h130v-130zM232 650h-130v130h130v-130z" />
    <glyph glyph-name="copyright" unicode="&#xa9;" horiz-adv-x="646" 
d="M586 -5q0 -60 -15.5 -102t-40 -70t-54.5 -44t-59 -23.5t-53 -9.5t-36 -2q-85 0 -150 35l-47 131q44 -23 89.5 -34t77.5 -11q16 0 41 3t47.5 17.5t39 44.5t16.5 84v59q-26 -20 -61.5 -32.5t-73.5 -12.5q-55 0 -103.5 22.5t-85 61t-57.5 89.5t-21 108q0 55 21.5 106.5
t58.5 91t85 63t102 23.5q38 0 74 -10.5t61 -29.5v26h144v-584zM443 189v243q-21 18 -49 27.5t-53 9.5q-33 0 -62.5 -12.5t-51 -34.5t-34 -51t-12.5 -63q0 -32 12.5 -60.5t34.5 -50t51 -34t61 -12.5q30 0 55 9.5t48 28.5z" />
    <glyph glyph-name="ordfeminine" unicode="&#xaa;" horiz-adv-x="392" 
d="M342 439h-105v12q-21 -12 -43.5 -16.5t-50.5 -4.5q-53 0 -88 31.5t-35 83.5q0 37 18.5 63t49 41.5t69 20.5t79.5 -1q-6 52 -68 52q-17 0 -35 -7t-41 -27l-63 64q34 32 72.5 48t79.5 16q38 0 67.5 -12t49.5 -32q25 -25 34.5 -54.5t9.5 -75.5v-202zM236 540v49
q-21 2 -40.5 2t-34.5 -3.5t-24 -12t-9 -22.5q0 -13 11 -22.5t29 -9.5q34 0 68 19z" />
    <glyph glyph-name="guillemotleft" unicode="&#xab;" horiz-adv-x="616" 
d="M596 545l-180 -272l180 -273h-149l-178 273l178 272h149zM349 545l-180 -272l179 -273h-148l-180 273l180 272h149z" />
    <glyph glyph-name="logicalnot" unicode="&#xac;" horiz-adv-x="672" 
d="M612 193h-134v244h-438v134h572v-378z" />
    <glyph glyph-name="softhyphen" unicode="&#xad;" horiz-adv-x="374" 
d="M344 260h-314v134h314v-134z" />
    <glyph glyph-name="registered" unicode="&#xae;" horiz-adv-x="908" 
d="M883 415q0 -89 -33.5 -167t-92 -136.5t-136.5 -92t-167 -33.5t-167 33.5t-136.5 92t-92 136.5t-33.5 167t33.5 167t92 136.5t136.5 92t167 33.5t167 -33.5t136.5 -92t92 -136.5t33.5 -167zM801 415q0 72 -27.5 135t-74.5 110t-110 74.5t-135 27.5t-135 -27.5t-110 -74.5
t-74.5 -110t-27.5 -135t27.5 -135t74.5 -110t110 -74.5t135 -27.5t135 27.5t110 74.5t74.5 110t27.5 135zM663 155h-110l-37 119q-12 39 -34.5 64t-69.5 25h-40v-208h-99v522h99h105q33 0 62 -11t50.5 -31.5t34 -49.5t12.5 -65q0 -39 -26.5 -76.5t-68.5 -58.5
q23 -11 36.5 -25.5t22.5 -38.5q9 -23 17 -45.5t20 -57.5q8 -22 13.5 -37t12.5 -26zM535 520q0 37 -26 59.5t-63 22.5h-74v-162h74q37 0 63 21.5t26 58.5z" />
    <glyph glyph-name="macron" unicode="&#xaf;" horiz-adv-x="632" 
d="M528 650h-434v115h434v-115z" />
    <glyph glyph-name="degree" unicode="&#xb0;" horiz-adv-x="436" 
d="M396 623q0 -36 -13.5 -68t-37 -55.5t-55 -37t-67.5 -13.5q-35 0 -66.5 13.5t-55 37t-37.5 55.5t-14 68t13.5 67.5t37 54.5t55 36.5t67.5 13.5t67.5 -13.5t55 -37t37 -54.5t13.5 -67zM294 623q0 29 -21 50t-50 21q-30 0 -51 -21t-21 -50q0 -30 21.5 -51t50.5 -21t50 21
t21 51z" />
    <glyph glyph-name="plusminus" unicode="&#xb1;" horiz-adv-x="1166" 
d="M1062 386q0 -7 -5 -12t-12 -5t-12 5t-5 12t4.5 12t11.5 5t12.5 -5t5.5 -12zM1024 425q0 -8 -6 -14t-14 -6t-14 6t-6 14t6 14t14 6t14 -6t6 -14zM974 461q0 -9 -6 -15t-14 -6t-14.5 6t-6.5 15q0 8 6 14t14 6t14.5 -6t6.5 -14zM922 496q0 -10 -6.5 -17t-16.5 -7t-17 7
t-7 17q0 9 6.5 16t16.5 7q9 0 16.5 -7t7.5 -16zM864 526q0 -11 -7 -18.5t-18 -7.5t-19 7.5t-8 18.5t7.5 18.5t18.5 7.5t18.5 -7.5t7.5 -18.5zM795 554q0 -11 -8 -19t-19 -8t-19 8t-8 19t7.5 19t18.5 8t19.5 -8t8.5 -19zM720 575q0 -11 -8 -19.5t-19 -8.5t-20 8.5t-9 19.5
t8 19.5t20 8.5q11 0 19.5 -8.5t8.5 -19.5zM1030 353l-1 -2.5t-2.5 -5t-3.5 -4.5t-3 -1q-8 5 -17 12q-75 59 -160 99.5t-174 63.5q-12 -25 -21.5 -58t-12.5 -55q-1 -5 -9 -5t-9.5 0.5t-0.5 4.5q2 14 6 33t9 38t11 37t11 31q59 -15 107 -32t90.5 -38t81.5 -46t80 -56
q4 -3 9.5 -8t8.5 -8zM648 749l-1 -62l-54 19v-36q21 -2 36 -20t15 -40q0 -25 -18 -42.5t-43 -17.5q-27 0 -45.5 17.5t-18.5 43.5q0 22 15 39t37 20v36l-53 -19l-3 62l49 -13l-21 65h76l-19 -65zM607 513q0 -11 -7.5 -18.5t-18.5 -7.5q-10 0 -17.5 7.5t-7.5 18.5t7.5 18.5
t18.5 7.5q10 0 17.5 -8t7.5 -18zM495 578q0 -11 -8 -19.5t-19 -8.5t-20 8.5t-9 19.5t8 19.5t20 8.5q11 0 19.5 -8.5t8.5 -19.5zM603 456q0 -9 -6.5 -15t-14.5 -6t-15.5 6t-7.5 15t7 15t15 6t15 -6t7 -15zM600 408q0 -8 -5.5 -13t-12.5 -5t-13 5t-6 13q0 7 5.5 12t12.5 5
t13 -5t6 -12zM421 558q0 -11 -8 -19t-19 -8t-19 8t-8 19t7.5 19t18.5 8t19.5 -8t8.5 -19zM349 530q0 -11 -7 -18.5t-18 -7.5t-19 7.5t-8 18.5t7.5 18.5t18.5 7.5t18.5 -7.5t7.5 -18.5zM545 402q1 -5 -8 -5t-10 2q-5 25 -14 57.5t-21 57.5q-42 -9 -85.5 -24.5t-85.5 -35.5
t-80.5 -43.5t-69.5 -48.5q-5 -4 -11 -9.5t-10 -7.5q-2 -1 -6.5 5.5t-3.5 8.5q2 4 9 10.5t11 9.5q37 29 75 52.5t80 43t89.5 35.5t104.5 30q5 -12 10.5 -30t10.5 -37t9 -37.5t6 -33.5zM288 500q0 -10 -6.5 -17t-16.5 -7t-17 7t-7 17q0 9 6.5 16t16.5 7q9 0 16.5 -7t7.5 -16z
M1146 320q-4 -10 -8.5 -23.5t-9.5 -26.5q-5 -15 -11 -31q4 -17 0.5 -31.5t-8.5 -22.5q-2 -4 -6.5 -9.5t-12.5 -9.5l-43 -101q4 -13 8.5 -34t6.5 -34t-6 -22l-57 -71q-48 22 -100.5 37t-105.5 24t-105.5 13t-101.5 4q-47 0 -102.5 -4t-111.5 -13.5t-108 -24t-93 -35.5
q-10 8 -21.5 18.5t-22.5 19.5q-12 11 -26 21q-8 7 -10 15q-1 2 -1 5.5v5.5q0 5 1 17t2 25t2.5 24.5t1.5 17.5l-30 96q-8 4 -13 10q-14 13 -17.5 33.5t6.5 39.5l-23 67q15 5 41.5 11.5t44.5 9.5q-3 -8 -8 -21.5t-10 -27.5t-9 -25t-4 -13q0 -5 2 -3q13 3 30.5 18.5t26.5 27.5
q7 -32 12.5 -63t12.5 -63q-11 9 -23 14t-28 10q-8 2 -13 2q6 -21 16 -40.5t24 -34.5t32.5 -24t43.5 -9q18 0 35.5 6t32 17t23 27.5t8.5 36.5q0 19 -12.5 37t-33.5 18q-26 0 -37 -15t-11 -39q0 -11 3 -23q-25 4 -35.5 26t-10.5 44q0 35 21.5 60t58.5 25q14 0 22.5 -4
t19.5 -12q-11 17 -14.5 31t-3.5 34q0 21 8.5 40t19.5 35q26 -18 39.5 -41t13.5 -55q0 -11 -2.5 -21t-5.5 -21q12 12 27.5 22.5t33.5 10.5q25 0 42.5 -21t17.5 -45q0 -41 -38 -63q1 2 1 6q0 18 -12 31.5t-32 13.5t-30.5 -14.5t-10.5 -33.5q0 -18 9.5 -32t24 -24t32 -15
t32.5 -5q20 0 40.5 5t37 16t26.5 28.5t10 42.5q0 5 -0.5 8.5t-1.5 8.5q-14 -6 -31.5 -14t-33.5 -16l-4 122q18 -12 32 -21t30 -17q4 -2 3 3q-7 25 -15.5 45t-18.5 43h116q-12 -26 -19.5 -49.5t-12.5 -39.5q-2 -6 2 -4q14 8 31 19t31 22l-3 -123q-16 9 -30 15.5t-31 14.5v-18
q0 -44 24.5 -68.5t67.5 -24.5q18 0 35 5t31 14.5t22.5 24t8.5 34.5q0 17 -10.5 29.5t-28.5 12.5q-15 0 -25.5 -14t-15.5 -25q-11 11 -18 25t-7 29q0 29 14.5 49t46.5 20q17 0 32.5 -12t26.5 -24q-3 18 -3 35q0 32 15 57t38 43q13 -16 20.5 -33t7.5 -37q0 -22 -6.5 -42
t-17.5 -39q11 10 24 18t29 8q26 0 46 -19.5t20 -45.5q0 -14 -6 -28t-16 -26.5t-22.5 -21.5t-25.5 -13q6 7 8.5 20t2.5 21q0 35 -35 35q-11 0 -18.5 -5.5t-12.5 -14.5t-7.5 -19t-2.5 -19q0 -38 21 -54t53 -24q7 -2 14 -3t14 0q49 2 73 29.5t38 84.5q-19 -7 -36 -13t-35 -16
q8 29 17.5 66.5t17.5 64.5q11 -13 23 -26t25 -24q5 -4 5 4q-1 17 -3 33q-2 14 -3.5 27.5t-3.5 23.5q22 -3 42.5 -7.5t36.5 -11.5zM230 465q0 -9 -6 -15t-14 -6t-14.5 6t-6.5 15q0 8 6 14t14 6t14.5 -6t6.5 -14zM181 429q0 -8 -6 -14t-14 -6t-14 6t-6 14t5.5 14t13.5 6
t14.5 -6t6.5 -14zM139 390q0 -7 -5 -12t-12 -5t-12 5t-5 12t4.5 12t11.5 5t12.5 -5t5.5 -12zM968 -113q0 -8 -13 -12q-86 -33 -168.5 -43.5t-178.5 -10.5q-107 0 -203.5 11.5t-196.5 45.5q-11 3 -11 9q0 5 10 9q41 17 89.5 29t98.5 19.5t99.5 10.5t92.5 3q41 0 88.5 -3.5
t96 -10.5t95 -18t86.5 -27q15 -5 15 -12zM1103 223q0 4 -1.5 8.5t-6.5 4.5t-9 -4.5t-7 -10.5t-4.5 -12.5t-1.5 -10.5t1.5 -8.5t6.5 -4.5t9 4.5t7 10.5t4.5 12.5t1.5 10.5zM624 619q-2 12 -10.5 20t-20.5 13q-1 -2 -0.5 -8t0.5 -14v-19q8 -1 15 1t16 7zM572 611l-1 41
q-25 -8 -33 -34q14 -7 34 -7zM618 587q-14 9 -36 9q-9 0 -19 -2t-18 -7q6 -10 18 -14.5t20 -4.5t19 5.5t16 13.5zM1043 -6q0 5 -3.5 17.5t-7.5 20.5l-31 -31l19 -41q6 9 14.5 19t8.5 15zM956 39q0 8 -6 13.5t-14 5.5t-13.5 -5.5t-5.5 -13.5t6 -14t14 -6t13.5 6t5.5 14z
M940 -15q0 8 -6.5 14t-14.5 6t-14 -6t-6 -14t6.5 -14t14.5 -6t14 6t6 14zM864 36q3 20 -13 36t-42 21q-26 4 -46.5 -6.5t-23.5 -30.5q-3 -19 13 -35t42 -21t46.5 6t23.5 30zM599 263q0 7 -5 12t-13 5q-7 0 -11.5 -5t-4.5 -12t5 -12t12 -5t12 5t5 12zM699 81q0 8 -6 13.5
t-14 5.5t-13.5 -5.5t-5.5 -13.5t6 -14t14 -6t13.5 6t5.5 14zM693 25q0 8 -6.5 14t-14.5 6q-9 0 -14.5 -6t-5.5 -14q0 -9 6 -15t14 -6q9 0 15 6t6 15zM612 69l-14 22q-5 8 -10.5 15.5t-7.5 7.5q-3 0 -8 -7.5t-10 -15.5q-6 -10 -12 -22q7 -13 13 -23q5 -9 10 -16t8 -7t8 7
t10 16q6 10 13 23zM499 81q0 8 -6 13.5t-14 5.5t-13.5 -5.5t-5.5 -13.5t6 -14t14 -6t13.5 6t5.5 14zM506 24q0 8 -6.5 14t-14.5 6t-14 -6t-6 -14q0 -9 6.5 -15t14.5 -6t14 6t6 15zM415 57q-3 19 -23 30t-46 6q-26 -4 -42 -20.5t-13 -35.5q3 -20 23 -30.5t46 -6.5
q26 5 42.5 21t12.5 36zM82 202q0 4 -2 10.5t-5 12.5t-7 10.5t-9 4.5t-6 -6t-1 -10t1.5 -10t4.5 -12t7 -10t9 -4t6.5 5t1.5 9zM230 36q0 8 -6 14t-14 6t-13.5 -6t-5.5 -14t6 -13.5t14 -5.5q19 0 19 19zM250 -17q0 8 -6.5 14t-14.5 6t-14 -6t-6 -14t6.5 -14t14.5 -6t14 6t6 14
zM148 1l-33 27q-2 -11 -3.5 -25t-1.5 -16q0 -5 12.5 -15.5t22.5 -18.5q3 9 3 28v20z" />
    <glyph glyph-name="twosuperior" unicode="&#xb2;" horiz-adv-x="443" 
d="M402 326h-362l188 226q21 26 38.5 53.5t17.5 50.5q0 29 -18 43.5t-38 14.5q-58 0 -101 -61l-73 72q36 42 78 66t102 24q33 0 62 -9.5t50.5 -28t34 -47t12.5 -66.5q0 -24 -6.5 -46t-18 -42t-26 -39.5t-29.5 -38.5l-53 -67h142v-105z" />
    <glyph glyph-name="threesuperior" unicode="&#xb3;" horiz-adv-x="455" 
d="M415 474q0 -39 -14.5 -68.5t-38.5 -49t-55.5 -29.5t-66.5 -10q-60 0 -109 24t-91 77l73 75q29 -32 59.5 -53t64.5 -21q29 0 49 14.5t20 43.5q0 20 -11.5 30.5t-29 15.5t-37.5 6t-38 1l-1 83q17 0 36 1t35 6t26.5 15t10.5 29q0 25 -17 37t-42 12q-33 0 -59 -14.5
t-49 -49.5l-75 76q39 48 81.5 69t97.5 21q30 0 60.5 -9.5t55.5 -27.5t41 -44.5t16 -61.5q0 -31 -16.5 -56t-39.5 -41q27 -15 45.5 -41t18.5 -60z" />
    <glyph glyph-name="acute" unicode="&#xb4;" horiz-adv-x="590" 
d="M446 843l-144 -193h-106l90 193h160z" />
    <glyph glyph-name="mu" unicode="&#xb5;" horiz-adv-x="637" 
d="M577 0h-143v48q-14 -15 -33 -26.5t-40 -19.5t-43.5 -12t-41.5 -4q-44 0 -83 13v-250h-143v830h144v-345q0 -27 7.5 -50t22.5 -40t36.5 -27t49.5 -10q72 0 124 49v423h143v-579z" />
    <glyph glyph-name="paragraph" unicode="&#xb6;" horiz-adv-x="631" 
d="M651 717h-67v-995h-102v995h-74v-995h-108v617q-39 3 -61.5 6t-41.5 10q-35 11 -64 33t-49.5 51.5t-32 65t-11.5 74.5q0 64 31 115t85 77q61 29 168 29h327v-83z" />
    <glyph glyph-name="periodcentered" unicode="&#xb7;" horiz-adv-x="268" 
d="M213 300h-153v153h153v-153z" />
    <glyph glyph-name="cedilla" unicode="&#xb8;" horiz-adv-x="644" 
d="M467 -160q0 -17 -7.5 -34t-22 -31t-34 -23t-43.5 -9q-31 0 -54.5 7t-44.5 24l7 34q8 -5 19 -8.5t21 -3.5q26 0 43 15.5t17 35.5q0 23 -16.5 39t-43.5 16q-6 0 -12.5 -1t-11.5 -2l19 97h79l-12 -53q50 -8 73.5 -38t23.5 -65z" />
    <glyph glyph-name="onesuperior" unicode="&#xb9;" horiz-adv-x="252" 
d="M212 329h-102v357l-70 -28v96l172 68v-493z" />
    <glyph glyph-name="ordmasculine" unicode="&#xba;" horiz-adv-x="452" 
d="M402 623q0 -40 -15 -75t-41 -61.5t-61 -41.5t-74 -15q-40 0 -74.5 15t-60.5 41.5t-41 61.5t-15 75t15 75t41 61t60.5 41t74.5 15q39 0 74 -15t61 -41t41 -61t15 -75zM301 623q0 20 -7.5 38t-19.5 31t-28.5 20.5t-34.5 7.5q-37 0 -63.5 -28t-26.5 -69q0 -21 7 -38.5
t19.5 -31t29 -21t34.5 -7.5t34.5 7.5t28.5 21t19.5 31t7.5 38.5z" />
    <glyph glyph-name="guillemotright" unicode="&#xbb;" horiz-adv-x="616" 
d="M596 273l-180 -273h-149l180 273l-180 272h149zM347 273l-178 -273h-149l180 273l-180 272h149z" />
    <glyph glyph-name="onequarter" unicode="&#xbc;" horiz-adv-x="834" 
d="M794 100h-65v-100h-105v100h-211v75l227 305h89v-285h65v-95zM703 795l-536 -846h-125l537 846h124zM212 329h-102v357l-70 -28v96l172 68v-493zM624 195v118l-89 -117z" />
    <glyph glyph-name="onehalf" unicode="&#xbd;" horiz-adv-x="912" 
d="M872 0h-362l188 226q21 26 38.5 53.5t17.5 50.5q0 29 -18 43.5t-38 14.5q-58 0 -101 -61l-73 72q36 42 78 66t102 24q33 0 62 -9.5t50.5 -28t33.5 -47t12 -66.5q0 -49 -24 -88t-55 -78l-53 -68l142 1v-105zM703 795l-536 -846h-125l537 846h124zM212 329h-102v357
l-70 -28v96l172 68v-493z" />
    <glyph glyph-name="threequarters" unicode="&#xbe;" horiz-adv-x="967" 
d="M927 100h-64v-100h-106v100h-211v75l227 305h90v-285h64v-95zM837 795l-537 -846h-124l536 846h125zM415 474q0 -39 -14.5 -68.5t-38.5 -49t-55.5 -29.5t-66.5 -10q-60 0 -109 24t-91 77l73 75q29 -32 59.5 -53t64.5 -21q29 0 49 14.5t20 43.5q0 20 -11.5 30.5t-29 15.5
t-37.5 6t-38 1l-1 83q17 0 36 1t35 6t26.5 15t10.5 29q0 25 -17 37t-42 12q-33 0 -59 -14.5t-49 -49.5l-75 76q39 48 81.5 69t97.5 21q30 0 60.5 -9.5t55.5 -27.5t41 -44.5t16 -61.5q0 -31 -16.5 -56t-39.5 -41q27 -15 45.5 -41t18.5 -60zM757 195v118l-88 -117z" />
    <glyph glyph-name="questiondown" unicode="&#xbf;" horiz-adv-x="564" 
d="M435 651h-149v149h149v-149zM524 73q-41 -41 -100 -65t-133 -24q-53 0 -98.5 15.5t-79.5 44.5t-53.5 69t-19.5 90q0 77 42 133.5t105 85.5l52 24q25 11 37.5 29t12.5 55v48h143v-49q0 -47 -6 -78t-18 -53t-31 -36t-45 -26l-46 -21q-57 -26 -76 -54.5t-19 -56.5
q0 -17 8 -32.5t22 -27.5t34.5 -19.5t45.5 -7.5q38 0 72.5 13t63.5 44z" />
    <glyph glyph-name="Agrave" unicode="&#xc0;" horiz-adv-x="887" 
d="M542 871h-106l-144 193h161zM887 0h-170l-74 160h-388l-75 -160h-170l378 800h121zM582 289l-133 288l-135 -288h268z" />
    <glyph glyph-name="Aacute" unicode="&#xc1;" horiz-adv-x="887" 
d="M600 1064l-144 -193h-106l90 193h160zM887 0h-170l-74 160h-388l-75 -160h-170l378 800h121zM582 289l-133 288l-135 -288h268z" />
    <glyph glyph-name="Acircumflex" unicode="&#xc2;" horiz-adv-x="887" 
d="M642 871h-108l-85 85l-86 -85h-108l129 193h129zM887 0h-170l-74 160h-388l-75 -160h-170l378 800h121zM582 289l-133 288l-135 -288h268z" />
    <glyph glyph-name="Atilde" unicode="&#xc3;" horiz-adv-x="887" 
d="M655 1042q-1 -31 -8 -61.5t-23 -55t-40.5 -39.5t-60.5 -15q-23 0 -43 7t-38.5 15t-37 15t-36.5 7t-27 -14t-11 -30h-86q0 30 7.5 60.5t23 55t40.5 40t60 15.5q22 0 42.5 -7t39.5 -15t36.5 -15t32.5 -7q20 0 30 13t13 31h86zM887 0h-170l-74 160h-388l-75 -160h-170
l378 800h121zM582 289l-133 288l-135 -288h268z" />
    <glyph glyph-name="Adieresis" unicode="&#xc4;" horiz-adv-x="887" 
d="M628 871h-130v130h130v-130zM398 871h-130v130h130v-130zM887 0h-170l-74 160h-388l-75 -160h-170l378 800h121zM582 289l-133 288l-135 -288h268z" />
    <glyph glyph-name="Aring" unicode="&#xc5;" horiz-adv-x="887" 
d="M568 990q0 -25 -9.5 -46.5t-25.5 -37.5t-38 -25.5t-46 -9.5t-45.5 9.5t-37.5 25.5t-25.5 37.5t-9.5 46.5q0 24 9.5 45.5t25.5 37.5t37.5 25.5t45.5 9.5t46 -9.5t38 -25.5t25.5 -37.5t9.5 -45.5zM887 0h-170l-74 160h-388l-75 -160h-170l378 800h121zM493 990
q0 18 -13 30.5t-31 12.5t-31 -12.5t-13 -30.5q0 -19 13 -31.5t31 -12.5t31 12.5t13 31.5zM582 289l-133 288l-135 -288h268z" />
    <glyph glyph-name="AE" unicode="&#xc6;" horiz-adv-x="1085" 
d="M1075 0h-368h-160l-17 160h-268l-92 -160h-170l463 800h120v-1h408l14 -128h-376l19 -191h372l13 -125h-371l23 -220h376zM517 289l-29 269l-153 -269h182z" />
    <glyph glyph-name="Ccedilla" unicode="&#xc7;" horiz-adv-x="812" 
d="M812 144q-55 -66 -130.5 -107.5t-166.5 -49.5l-10 -44q50 -8 73.5 -38t23.5 -65q0 -17 -7.5 -34t-22 -31t-34 -23t-43.5 -9q-31 0 -54.5 7t-44.5 24l7 34q8 -5 19 -8.5t21 -3.5q26 0 43 15.5t17 35.5q0 23 -16.5 39t-43.5 16q-6 0 -12.5 -1t-11.5 -2l17 88
q-82 7 -152.5 42t-122.5 90.5t-81.5 127.5t-29.5 153q0 87 33.5 162.5t91.5 132t136 88.5t167 32q103 0 188.5 -43t142.5 -112l-107 -110q-37 53 -95.5 85.5t-128.5 32.5q-56 0 -105.5 -21.5t-86.5 -58t-58.5 -85t-21.5 -103.5q0 -54 21.5 -102.5t58.5 -85t86.5 -58
t105.5 -21.5q74 0 131 33.5t95 88.5z" />
    <glyph glyph-name="Egrave" unicode="&#xc8;" horiz-adv-x="648" 
d="M432 871h-106l-144 193h161zM608 0h-528v799h528v-128h-376v-191h371v-125h-371v-220h376v-135z" />
    <glyph glyph-name="Eacute" unicode="&#xc9;" horiz-adv-x="648" 
d="M517 1064l-144 -193h-106l90 193h160zM608 0h-528v799h528v-128h-376v-191h371v-125h-371v-220h376v-135z" />
    <glyph glyph-name="Ecircumflex" unicode="&#xca;" horiz-adv-x="648" 
d="M540 871h-108l-85 85l-86 -85h-108l129 193h129zM608 0h-528v799h528v-128h-376v-191h371v-125h-371v-220h376v-135z" />
    <glyph glyph-name="Edieresis" unicode="&#xcb;" horiz-adv-x="648" 
d="M522 871h-130v130h130v-130zM292 871h-130v130h130v-130zM608 0h-528v799h528v-128h-376v-191h371v-125h-371v-220h376v-135z" />
    <glyph glyph-name="Igrave" unicode="&#xcc;" horiz-adv-x="305" 
d="M252 871h-106l-144 193h161zM235 0h-155v799h155v-799z" />
    <glyph glyph-name="Iacute" unicode="&#xcd;" horiz-adv-x="305" 
d="M300 1064l-144 -193h-106l90 193h160zM235 0h-155v799h155v-799z" />
    <glyph glyph-name="Icircumflex" unicode="&#xce;" horiz-adv-x="305" 
d="M352 871h-108l-85 85l-86 -85h-108l129 193h129zM235 0h-155v799h155v-799z" />
    <glyph glyph-name="Idieresis" unicode="&#xcf;" horiz-adv-x="305" 
d="M337 871h-130v130h130v-130zM107 871h-130v130h130v-130zM235 0h-155v799h155v-799z" />
    <glyph glyph-name="Eth" unicode="&#xd0;" horiz-adv-x="831" 
d="M791 400q0 -83 -28 -155.5t-78 -127t-119.5 -86t-151.5 -31.5h-334v336h-60v134h60v330h334q82 0 151.5 -32t119.5 -86t78 -127t28 -155zM633 404q0 51 -17 100.5t-50 88t-82 62t-113 23.5h-136v-208h130v-134h-130v-204h136q62 0 110.5 22t82.5 59.5t51.5 87t17.5 103.5
z" />
    <glyph glyph-name="Ntilde" unicode="&#xd1;" horiz-adv-x="815" 
d="M619 1042q-1 -31 -8 -61.5t-23 -55t-40.5 -39.5t-60.5 -15q-23 0 -43 7t-38.5 15t-37 15t-36.5 7t-27 -14t-11 -30h-86q0 30 7.5 60.5t23 55t40.5 40t60 15.5q22 0 42.5 -7t39.5 -15t36.5 -15t32.5 -7q20 0 30 13t13 31h86zM745 0h-152l-361 561v-561h-152v800h174
l339 -522v522h152v-800z" />
    <glyph glyph-name="Ograve" unicode="&#xd2;" horiz-adv-x="939" 
d="M567 871h-106l-144 193h161zM899 400q0 -86 -33.5 -162t-91.5 -132t-135 -88.5t-164 -32.5t-164.5 32.5t-135.5 88.5t-91.5 131.5t-33.5 162.5t33.5 163t91.5 132t135.5 88t164.5 32t164 -32t135 -88.5t91.5 -132t33.5 -162.5zM743 400q0 55 -21 103.5t-57.5 85t-85.5 58
t-104 21.5q-56 0 -105 -21.5t-85.5 -58t-57.5 -85t-21 -103.5q0 -54 21 -103t57.5 -85.5t85.5 -58t105 -21.5q55 0 104 21.5t85.5 58t57.5 85.5t21 103z" />
    <glyph glyph-name="Oacute" unicode="&#xd3;" horiz-adv-x="939" 
d="M635 1064l-144 -193h-106l90 193h160zM899 400q0 -86 -33.5 -162t-91.5 -132t-135 -88.5t-164 -32.5t-164.5 32.5t-135.5 88.5t-91.5 131.5t-33.5 162.5t33.5 163t91.5 132t135.5 88t164.5 32t164 -32t135 -88.5t91.5 -132t33.5 -162.5zM743 400q0 55 -21 103.5t-57.5 85
t-85.5 58t-104 21.5q-56 0 -105 -21.5t-85.5 -58t-57.5 -85t-21 -103.5q0 -54 21 -103t57.5 -85.5t85.5 -58t105 -21.5q55 0 104 21.5t85.5 58t57.5 85.5t21 103z" />
    <glyph glyph-name="Ocircumflex" unicode="&#xd4;" horiz-adv-x="939" 
d="M668 871h-108l-85 85l-86 -85h-108l129 193h129zM899 400q0 -86 -33.5 -162t-91.5 -132t-135 -88.5t-164 -32.5t-164.5 32.5t-135.5 88.5t-91.5 131.5t-33.5 162.5t33.5 163t91.5 132t135.5 88t164.5 32t164 -32t135 -88.5t91.5 -132t33.5 -162.5zM743 400
q0 55 -21 103.5t-57.5 85t-85.5 58t-104 21.5q-56 0 -105 -21.5t-85.5 -58t-57.5 -85t-21 -103.5q0 -54 21 -103t57.5 -85.5t85.5 -58t105 -21.5q55 0 104 21.5t85.5 58t57.5 85.5t21 103z" />
    <glyph glyph-name="Otilde" unicode="&#xd5;" horiz-adv-x="939" 
d="M680 1042q-1 -31 -8 -61.5t-23 -55t-40.5 -39.5t-60.5 -15q-23 0 -43 7t-38.5 15t-37 15t-36.5 7t-27 -14t-11 -30h-86q0 30 7.5 60.5t23 55t40.5 40t60 15.5q22 0 42.5 -7t39.5 -15t36.5 -15t32.5 -7q20 0 30 13t13 31h86zM899 400q0 -86 -33.5 -162t-91.5 -132
t-135 -88.5t-164 -32.5t-164.5 32.5t-135.5 88.5t-91.5 131.5t-33.5 162.5t33.5 163t91.5 132t135.5 88t164.5 32t164 -32t135 -88.5t91.5 -132t33.5 -162.5zM743 400q0 55 -21 103.5t-57.5 85t-85.5 58t-104 21.5q-56 0 -105 -21.5t-85.5 -58t-57.5 -85t-21 -103.5
q0 -54 21 -103t57.5 -85.5t85.5 -58t105 -21.5q55 0 104 21.5t85.5 58t57.5 85.5t21 103z" />
    <glyph glyph-name="Odieresis" unicode="&#xd6;" horiz-adv-x="939" 
d="M651 871h-130v130h130v-130zM421 871h-130v130h130v-130zM899 400q0 -86 -33.5 -162t-91.5 -132t-135 -88.5t-164 -32.5t-164.5 32.5t-135.5 88.5t-91.5 131.5t-33.5 162.5t33.5 163t91.5 132t135.5 88t164.5 32t164 -32t135 -88.5t91.5 -132t33.5 -162.5zM743 400
q0 55 -21 103.5t-57.5 85t-85.5 58t-104 21.5q-56 0 -105 -21.5t-85.5 -58t-57.5 -85t-21 -103.5q0 -54 21 -103t57.5 -85.5t85.5 -58t105 -21.5q55 0 104 21.5t85.5 58t57.5 85.5t21 103z" />
    <glyph glyph-name="multiply" unicode="&#xd7;" horiz-adv-x="659" 
d="M599 216l-105 -105l-159 159l-150 -151l-107 105l151 152l-159 159l105 105l160 -159l151 151l105 -105l-150 -151z" />
    <glyph glyph-name="Oslash" unicode="&#xd8;" horiz-adv-x="939" 
d="M899 400q0 -86 -33.5 -162t-91.5 -132t-135 -88.5t-164 -32.5q-57 0 -108.5 13.5t-97.5 38.5l-45 -60h-124l87 118q-63 57 -100 135.5t-37 169.5q0 87 33.5 163t91.5 132t135.5 88t164.5 32q56 0 107.5 -13.5t98.5 -38.5l44 60h124l-86 -118q63 -57 99.5 -135t36.5 -170z
M743 400q0 53 -19 99.5t-53 82.5l-313 -424q55 -26 117 -26q55 0 104 21.5t85.5 58t57.5 85.5t21 103zM591 642q-54 26 -116 26q-56 0 -105 -21.5t-85.5 -58t-57.5 -85t-21 -103.5q0 -52 19 -98.5t53 -83.5z" />
    <glyph glyph-name="Ugrave" unicode="&#xd9;" horiz-adv-x="831" 
d="M518 871h-106l-144 193h161zM781 800v-434q0 -80 -24 -149t-69.5 -120.5t-111 -81t-149.5 -29.5q-82 0 -148 29t-112.5 79.5t-71.5 119t-25 147.5v439h155v-440q0 -46 13 -86.5t38 -70.5t62.5 -47.5t85.5 -17.5q51 0 88.5 16.5t62 46t37 69.5t12.5 88v442h157z" />
    <glyph glyph-name="Uacute" unicode="&#xda;" horiz-adv-x="831" 
d="M580 1064l-144 -193h-106l90 193h160zM781 800v-434q0 -80 -24 -149t-69.5 -120.5t-111 -81t-149.5 -29.5q-82 0 -148 29t-112.5 79.5t-71.5 119t-25 147.5v439h155v-440q0 -46 13 -86.5t38 -70.5t62.5 -47.5t85.5 -17.5q51 0 88.5 16.5t62 46t37 69.5t12.5 88v442h157z
" />
    <glyph glyph-name="Ucircumflex" unicode="&#xdb;" horiz-adv-x="831" 
d="M619 871h-108l-85 85l-86 -85h-108l129 193h129zM781 800v-434q0 -80 -24 -149t-69.5 -120.5t-111 -81t-149.5 -29.5q-82 0 -148 29t-112.5 79.5t-71.5 119t-25 147.5v439h155v-440q0 -46 13 -86.5t38 -70.5t62.5 -47.5t85.5 -17.5q51 0 88.5 16.5t62 46t37 69.5t12.5 88
v442h157z" />
    <glyph glyph-name="Udieresis" unicode="&#xdc;" horiz-adv-x="831" 
d="M604 871h-130v130h130v-130zM374 871h-130v130h130v-130zM781 800v-434q0 -80 -24 -149t-69.5 -120.5t-111 -81t-149.5 -29.5q-82 0 -148 29t-112.5 79.5t-71.5 119t-25 147.5v439h155v-440q0 -46 13 -86.5t38 -70.5t62.5 -47.5t85.5 -17.5q51 0 88.5 16.5t62 46t37 69.5
t12.5 88v442h157z" />
    <glyph glyph-name="Yacute" unicode="&#xdd;" horiz-adv-x="812" 
d="M567 1064l-144 -193h-106l90 193h160zM807 799l-326 -472v-328h-157v330l-309 470h180l208 -336l217 336h187z" />
    <glyph glyph-name="Thorn" unicode="&#xde;" horiz-adv-x="628" 
d="M608 400q0 -56 -21 -102.5t-58 -79.5t-86 -51.5t-105 -18.5h-103v-148h-155v799h155v-148h103q56 0 105 -18.5t86 -51.5t58 -79t21 -102zM456 402q0 31 -11.5 55t-31.5 41t-47 26t-58 9h-73v-261h73q31 0 58 9t47 25.5t31.5 41t11.5 54.5z" />
    <glyph glyph-name="germandbls" unicode="&#xdf;" horiz-adv-x="605" 
d="M575 244q0 -121 -62 -190t-183 -69q-19 0 -36 2.5t-36 8.5v127q19 -7 33 -9t30 -2q28 0 48.5 11.5t33.5 30.5t19.5 44t6.5 53q0 40 -13 66.5t-35.5 42.5t-53 21t-64.5 1v116q68 -3 97.5 29.5t29.5 83.5q0 45 -21.5 74.5t-69.5 29.5q-55 0 -75 -39t-20 -122v-554h-144v577
q0 61 13.5 110.5t43.5 83.5t77 52.5t113 18.5q46 0 87 -15t72.5 -43t50 -67.5t18.5 -88.5q0 -63 -29 -107t-77 -67q27 -10 53 -27.5t46.5 -43.5t33.5 -61t13 -78z" />
    <glyph glyph-name="agrave" unicode="&#xe0;" horiz-adv-x="580" 
d="M369 650h-106l-144 193h161zM530 0h-145v31q-38 -26 -80.5 -36t-87.5 -10q-42 0 -76 12.5t-59 36t-38.5 55.5t-13.5 71q0 49 21.5 85.5t58.5 61t86.5 36.5t106.5 12h83q0 51 -33 81t-95 30q-30 0 -62 -11t-64 -40l-85 86q46 44 106.5 68t124.5 24q60 0 107 -19t76 -49
q38 -38 53.5 -85t15.5 -120v-320zM385 144v107h-66q-30 0 -56.5 -4t-46 -13.5t-31 -24.5t-11.5 -36q0 -30 23.5 -49t60.5 -19q32 0 63.5 10t63.5 29z" />
    <glyph glyph-name="aacute" unicode="&#xe1;" horiz-adv-x="580" 
d="M456 843l-144 -193h-106l90 193h160zM530 0h-145v31q-38 -26 -80.5 -36t-87.5 -10q-42 0 -76 12.5t-59 36t-38.5 55.5t-13.5 71q0 49 21.5 85.5t58.5 61t86.5 36.5t106.5 12h83q0 51 -33 81t-95 30q-30 0 -62 -11t-64 -40l-85 86q46 44 106.5 68t124.5 24q60 0 107 -19
t76 -49q38 -38 53.5 -85t15.5 -120v-320zM385 144v107h-66q-30 0 -56.5 -4t-46 -13.5t-31 -24.5t-11.5 -36q0 -30 23.5 -49t60.5 -19q32 0 63.5 10t63.5 29z" />
    <glyph glyph-name="acircumflex" unicode="&#xe2;" horiz-adv-x="580" 
d="M478 650h-108l-85 85l-86 -85h-108l129 193h129zM530 0h-145v31q-38 -26 -80.5 -36t-87.5 -10q-42 0 -76 12.5t-59 36t-38.5 55.5t-13.5 71q0 49 21.5 86t58.5 61.5t86.5 36.5t106.5 11h83q0 52 -32.5 81.5t-95.5 29.5q-30 0 -62 -11t-64 -40l-85 86q46 44 106.5 68
t124.5 24q60 0 107 -19t76 -49q38 -38 53.5 -85t15.5 -120v-320zM385 144v107h-66q-30 0 -56.5 -4t-46 -13.5t-31 -24.5t-11.5 -36q0 -30 23.5 -49t60.5 -19q32 0 63.5 10t63.5 29z" />
    <glyph glyph-name="atilde" unicode="&#xe3;" horiz-adv-x="580" 
d="M498 821q-1 -31 -8 -61.5t-23 -55t-40.5 -39.5t-60.5 -15q-23 0 -43 7t-39 15t-37 15t-36 7t-27 -14t-11 -30h-86q0 30 7.5 60.5t23 55t40.5 40t60 15.5q22 0 42.5 -7t39.5 -15t36.5 -15t32.5 -7q20 0 30 13t13 31h86zM530 0h-145v31q-38 -26 -80.5 -36t-87.5 -10
q-42 0 -76 12.5t-59 36t-38.5 55.5t-13.5 71q0 49 21.5 85.5t58.5 61t86.5 36.5t106.5 12h83q0 51 -33 81t-95 30q-30 0 -62 -11t-64 -40l-85 86q46 44 106.5 68t124.5 24q60 0 107 -19t76 -49q38 -38 53.5 -85t15.5 -120v-320zM385 144v107h-66q-30 0 -56.5 -4t-46 -13.5
t-31 -24.5t-11.5 -36q0 -30 23.5 -49t60.5 -19q32 0 63.5 10t63.5 29z" />
    <glyph glyph-name="adieresis" unicode="&#xe4;" horiz-adv-x="580" 
d="M462 650h-130v130h130v-130zM232 650h-130v130h130v-130zM530 0h-145v31q-38 -26 -80.5 -36t-87.5 -10q-42 0 -76 12.5t-59 36t-38.5 55.5t-13.5 71q0 49 21.5 85.5t58.5 61t86.5 36.5t106.5 12h83q0 51 -33 81t-95 30q-30 0 -62 -11t-64 -40l-85 86q46 44 106.5 68
t124.5 24q60 0 107 -19t76 -49q38 -38 53.5 -85t15.5 -120v-320zM385 144v107h-66q-30 0 -56.5 -4t-46 -13.5t-31 -24.5t-11.5 -36q0 -30 23.5 -49t60.5 -19q32 0 63.5 10t63.5 29z" />
    <glyph glyph-name="aring" unicode="&#xe5;" horiz-adv-x="580" 
d="M406 769q0 -25 -9.5 -46.5t-25.5 -37.5t-38 -25.5t-46 -9.5t-45.5 9.5t-37.5 25.5t-25.5 37.5t-9.5 46.5q0 24 9.5 45.5t25.5 37.5t37.5 25.5t45.5 9.5t46 -9.5t38 -25.5t25.5 -37.5t9.5 -45.5zM530 0h-145v31q-38 -26 -80.5 -36t-87.5 -10q-42 0 -76 12.5t-59 36
t-38.5 55.5t-13.5 71q0 49 21.5 86t58.5 61.5t86.5 36.5t106.5 11h83q0 52 -32.5 81.5t-95.5 29.5q-30 0 -62 -11t-64 -40l-85 86q46 44 106.5 68t124.5 24q60 0 107 -19t76 -49q38 -38 53.5 -85t15.5 -120v-320zM331 769q0 18 -13 30.5t-31 12.5t-31 -12.5t-13 -30.5
q0 -19 13 -31.5t31 -12.5t31 12.5t13 31.5zM385 144v107h-66q-30 0 -56.5 -4t-46 -13.5t-31 -24.5t-11.5 -36q0 -30 23.5 -49t60.5 -19q32 0 63.5 10t63.5 29z" />
    <glyph glyph-name="ae" unicode="&#xe6;" horiz-adv-x="1017" 
d="M987 290q0 -14 -1.5 -29t-3.5 -31h-462q8 -25 22.5 -47.5t35.5 -39t47.5 -26t58.5 -9.5q39 0 78 13.5t65 36.5l91 -91q-60 -45 -117.5 -63.5t-121.5 -18.5q-45 0 -84.5 11t-74.5 31v-27h-135v31q-38 -26 -77.5 -36t-90.5 -10q-42 0 -76 12.5t-59 36t-38.5 55.5t-13.5 71
q0 49 21.5 85.5t58.5 61t86.5 36.5t106.5 12h83q0 111 -128 111q-30 0 -62 -11t-64 -40l-85 86q46 44 106.5 68t124.5 24q60 0 107 -19t76 -49q7 -7 10 -11q42 37 94.5 58t112.5 21q61 0 117 -22.5t99 -62.5t68 -95.5t25 -122.5zM836 346q-17 55 -60.5 88.5t-98.5 33.5
q-54 0 -97 -33.5t-60 -88.5h316zM385 144v107h-66q-30 0 -56.5 -4t-46 -13.5t-31 -24.5t-11.5 -36q0 -30 23.5 -49t60.5 -19q32 0 63.5 10t63.5 29z" />
    <glyph glyph-name="ccedilla" unicode="&#xe7;" horiz-adv-x="592" 
d="M582 87q-38 -42 -89 -67.5t-108 -32.5l-10 -44q50 -8 73.5 -38t23.5 -65q0 -17 -7.5 -34t-22 -31t-34 -23t-43.5 -9q-31 0 -54.5 7t-44.5 24l7 34q8 -5 19 -8.5t21 -3.5q26 0 43 15.5t17 35.5q0 23 -16.5 39t-43.5 16q-6 0 -12.5 -1t-11.5 -2l17 88q-56 7 -104.5 32.5
t-84.5 65.5t-56.5 92t-20.5 112q0 64 24 119.5t65 96.5t97 64.5t120 23.5q66 0 125.5 -24t103.5 -73l-97 -99q-22 29 -53.5 48t-76.5 19q-33 0 -62.5 -14t-52 -37.5t-35.5 -55.5t-13 -68t13 -68t35 -55.5t52 -37.5t63 -14q43 0 78 20.5t56 52.5z" />
    <glyph glyph-name="egrave" unicode="&#xe8;" 
d="M436 650h-106l-144 193h161zM657 290q0 -14 -1.5 -29t-3.5 -31h-462q8 -25 22.5 -47.5t35.5 -39t47.5 -26t58.5 -9.5q39 0 78 13.5t65 36.5l91 -91q-60 -45 -117.5 -63.5t-121.5 -18.5q-65 0 -121.5 24t-98 65t-65.5 96.5t-24 118.5t24 118.5t66 96.5t98 65t120 24
q61 0 117 -22.5t99 -62.5t68 -95.5t25 -122.5zM506 346q-17 55 -60.5 88.5t-98.5 33.5q-54 0 -97 -33.5t-60 -88.5h316z" />
    <glyph glyph-name="eacute" unicode="&#xe9;" 
d="M507 843l-144 -193h-106l90 193h160zM657 290q0 -14 -1.5 -29t-3.5 -31h-462q8 -25 22.5 -47.5t35.5 -39t47.5 -26t58.5 -9.5q39 0 78 13.5t65 36.5l91 -91q-60 -45 -117.5 -63.5t-121.5 -18.5q-65 0 -121.5 24t-98 65t-65.5 96.5t-24 118.5t24 118.5t66 96.5t98 65
t120 24q61 0 117 -22.5t99 -62.5t68 -95.5t25 -122.5zM506 346q-17 55 -60.5 88.5t-98.5 33.5q-54 0 -97 -33.5t-60 -88.5h316z" />
    <glyph glyph-name="ecircumflex" unicode="&#xea;" 
d="M540 650h-108l-85 85l-86 -85h-108l129 193h129zM657 290q0 -14 -1.5 -29t-3.5 -31h-462q8 -25 22.5 -47.5t35.5 -39t47.5 -26t58.5 -9.5q39 0 78 13.5t65 36.5l91 -91q-60 -45 -117.5 -63.5t-121.5 -18.5q-65 0 -121.5 24t-98 65t-65.5 96.5t-24 118.5t24 118.5t66 96.5
t98 65t120 24q61 0 117 -22.5t99 -62.5t68 -95.5t25 -122.5zM506 346q-17 55 -60.5 88.5t-98.5 33.5q-54 0 -97 -33.5t-60 -88.5h316z" />
    <glyph glyph-name="edieresis" unicode="&#xeb;" 
d="M525 650h-130v130h130v-130zM295 650h-130v130h130v-130zM657 290q0 -14 -1.5 -29t-3.5 -31h-462q8 -25 22.5 -47.5t35.5 -39t47.5 -26t58.5 -9.5q39 0 78 13.5t65 36.5l91 -91q-60 -45 -117.5 -63.5t-121.5 -18.5q-65 0 -121.5 24t-98 65t-65.5 96.5t-24 118.5t24 118.5
t66 96.5t98 65t120 24q61 0 117 -22.5t99 -62.5t68 -95.5t25 -122.5zM506 346q-17 55 -60.5 88.5t-98.5 33.5q-54 0 -97 -33.5t-60 -88.5h316z" />
    <glyph glyph-name="igrave" unicode="&#xec;" horiz-adv-x="280" 
d="M240 650h-106l-144 193h161zM208 0h-146v579h146v-579z" />
    <glyph glyph-name="iacute" unicode="&#xed;" horiz-adv-x="280" 
d="M280 843l-144 -193h-106l90 193h160zM208 0h-146v579h146v-579z" />
    <glyph glyph-name="icircumflex" unicode="&#xee;" horiz-adv-x="280" 
d="M328 650h-108l-85 85l-86 -85h-108l129 193h129zM208 0h-146v579h146v-579z" />
    <glyph glyph-name="idieresis" unicode="&#xef;" horiz-adv-x="280" 
d="M316 650h-130v130h130v-130zM86 650h-130v130h130v-130zM208 0h-146v579h146v-579z" />
    <glyph glyph-name="eth" unicode="&#xf0;" horiz-adv-x="674" 
d="M644 314q0 -95 -25.5 -158t-68 -101t-98.5 -54t-116 -16q-63 0 -117 22t-93.5 59t-62.5 84.5t-23 98.5q0 60 24 109.5t65 85t95 55.5t114 20q52 0 92 -17q-13 31 -38.5 61.5t-60.5 56.5l-112 -82l-59 82l78 57q-27 12 -55 20t-56 10l109 108q65 -12 128 -46l98 72l60 -82
l-70 -50q40 -33 75.5 -75.5t61 -92.5t40.5 -107t15 -120zM490 257q0 27 -12 51t-32.5 41.5t-48 28t-57.5 10.5q-31 0 -57.5 -10.5t-46 -28t-30.5 -41.5t-11 -51t11 -51t30.5 -42t46 -28.5t57.5 -10.5q30 0 57.5 10.5t48 28.5t32.5 42t12 51z" />
    <glyph glyph-name="ntilde" unicode="&#xf1;" horiz-adv-x="636" 
d="M532 821q-1 -31 -8 -61.5t-23 -55t-40.5 -39.5t-60.5 -15q-23 0 -43 7t-39 15t-37 15t-36 7t-27 -14t-11 -30h-86q0 30 7.5 60.5t23 55t40.5 40t60 15.5q22 0 42.5 -7t39.5 -15t36.5 -15t32.5 -7q20 0 30 13t13 31h86zM586 0h-144v345q0 31 -9.5 54.5t-25.5 39t-36.5 23
t-42.5 7.5q-33 0 -65 -11.5t-58 -36.5v-421h-145v578h145v-43q13 13 32 24t39.5 18.5t42 11.5t41.5 4q44 0 84.5 -14t72 -43t50.5 -75t19 -109v-352z" />
    <glyph glyph-name="ograve" unicode="&#xf2;" 
d="M443 650h-106l-144 193h161zM657 289q0 -65 -24 -120.5t-66 -96t-98.5 -64t-120.5 -23.5t-120 23.5t-98 64.5t-66 96.5t-24 119.5q0 63 24.5 118.5t66.5 97t98 65t119 23.5q64 0 120.5 -23.5t98.5 -64t66 -96.5t24 -120zM513 289q0 37 -13 69t-35.5 56t-52.5 37.5
t-64 13.5t-64 -13.5t-52.5 -37.5t-35.5 -56t-13 -69t13 -69t35.5 -56t52.5 -37.5t64 -13.5t64 13.5t52.5 37.5t35.5 56t13 69z" />
    <glyph glyph-name="oacute" unicode="&#xf3;" 
d="M506 843l-144 -193h-106l90 193h160zM657 289q0 -65 -24 -120.5t-66 -96t-98.5 -64t-120.5 -23.5t-120 23.5t-98 64.5t-66 96.5t-24 119.5q0 63 24.5 118.5t66.5 97t98 65t119 23.5q64 0 120.5 -23.5t98.5 -64t66 -96.5t24 -120zM513 289q0 37 -13 69t-35.5 56
t-52.5 37.5t-64 13.5t-64 -13.5t-52.5 -37.5t-35.5 -56t-13 -69t13 -69t35.5 -56t52.5 -37.5t64 -13.5t64 13.5t52.5 37.5t35.5 56t13 69z" />
    <glyph glyph-name="ocircumflex" unicode="&#xf4;" 
d="M542 650h-108l-85 85l-86 -85h-108l129 193h129zM657 289q0 -65 -24 -120.5t-66 -96t-98.5 -64t-120.5 -23.5t-120 23.5t-98 64.5t-66 96.5t-24 119.5q0 63 24.5 118.5t66.5 97t98 65t119 23.5q64 0 120.5 -23.5t98.5 -64t66 -96.5t24 -120zM513 289q0 37 -13 69
t-35.5 56t-52.5 37.5t-64 13.5t-64 -13.5t-52.5 -37.5t-35.5 -56t-13 -69t13 -69t35.5 -56t52.5 -37.5t64 -13.5t64 13.5t52.5 37.5t35.5 56t13 69z" />
    <glyph glyph-name="otilde" unicode="&#xf5;" 
d="M555 821q-1 -31 -8 -61.5t-23 -55t-40.5 -39.5t-60.5 -15q-23 0 -43 7t-39 15t-37 15t-36 7t-27 -14t-11 -30h-86q0 30 7.5 60.5t23 55t40.5 40t60 15.5q22 0 42.5 -7t39.5 -15t36.5 -15t32.5 -7q20 0 30 13t13 31h86zM657 289q0 -65 -24 -120.5t-66 -96t-98.5 -64
t-120.5 -23.5t-120 23.5t-98 64.5t-66 96.5t-24 119.5q0 63 24.5 118.5t66.5 97t98 65t119 23.5q64 0 120.5 -23.5t98.5 -64t66 -96.5t24 -120zM513 289q0 37 -13 69t-35.5 56t-52.5 37.5t-64 13.5t-64 -13.5t-52.5 -37.5t-35.5 -56t-13 -69t13 -69t35.5 -56t52.5 -37.5
t64 -13.5t64 13.5t52.5 37.5t35.5 56t13 69z" />
    <glyph glyph-name="odieresis" unicode="&#xf6;" 
d="M528 650h-130v130h130v-130zM298 650h-130v130h130v-130zM657 289q0 -65 -24 -120.5t-66 -96t-98.5 -64t-120.5 -23.5t-120 23.5t-98 64.5t-66 96.5t-24 119.5q0 63 24.5 118.5t66.5 97t98 65t119 23.5q64 0 120.5 -23.5t98.5 -64t66 -96.5t24 -120zM513 289q0 37 -13 69
t-35.5 56t-52.5 37.5t-64 13.5t-64 -13.5t-52.5 -37.5t-35.5 -56t-13 -69t13 -69t35.5 -56t52.5 -37.5t64 -13.5t64 13.5t52.5 37.5t35.5 56t13 69z" />
    <glyph glyph-name="divide" unicode="&#xf7;" horiz-adv-x="641" 
d="M399 523h-149v149h149v-149zM591 301h-531v151h531v-151zM399 83h-149v149h149v-149z" />
    <glyph glyph-name="oslash" unicode="&#xf8;" 
d="M657 289q0 -65 -24 -120.5t-66 -96t-98.5 -64t-120.5 -23.5q-77 0 -142 34l-32 -42h-112l70 95q-43 42 -67.5 97t-24.5 120q0 63 24.5 118.5t66.5 97t98 65t119 23.5q78 0 144 -34l30 42h113l-69 -94q42 -42 66.5 -97t24.5 -121zM513 289q0 29 -8.5 55.5t-23.5 48.5
l-196 -267q31 -13 63 -13q34 0 64 13.5t52.5 37.5t35.5 56t13 69zM412 451q-31 14 -64 14q-34 0 -64 -13.5t-52.5 -37.5t-35.5 -56t-13 -69q0 -29 8.5 -55.5t23.5 -48.5z" />
    <glyph glyph-name="ugrave" unicode="&#xf9;" horiz-adv-x="632" 
d="M409 650h-106l-144 193h161zM572 0h-144v44q-14 -14 -32.5 -24.5t-39 -18t-42 -11.5t-40.5 -4q-44 0 -84.5 14t-71.5 43t-49.5 75t-18.5 109v351h144v-344q0 -31 9.5 -54.5t25 -39t36 -23t42.5 -7.5q70 0 121 48v420h144v-578z" />
    <glyph glyph-name="uacute" unicode="&#xfa;" horiz-adv-x="632" 
d="M461 843l-144 -193h-106l90 193h160zM572 0h-144v44q-14 -14 -32.5 -24.5t-39 -18t-42 -11.5t-40.5 -4q-44 0 -84.5 14t-71.5 43t-49.5 75t-18.5 109v351h144v-344q0 -31 9.5 -54.5t25 -39t36 -23t42.5 -7.5q70 0 121 48v420h144v-578z" />
    <glyph glyph-name="ucircumflex" unicode="&#xfb;" horiz-adv-x="632" 
d="M502 650h-108l-85 85l-86 -85h-108l129 193h129zM572 0h-144v44q-14 -14 -32.5 -24.5t-39 -18t-42 -11.5t-40.5 -4q-44 0 -84.5 14t-71.5 43t-49.5 75t-18.5 109v351h144v-344q0 -31 9.5 -54.5t25 -39t36 -23t42.5 -7.5q70 0 121 48v420h144v-578z" />
    <glyph glyph-name="udieresis" unicode="&#xfc;" horiz-adv-x="632" 
d="M487 650h-130v130h130v-130zM257 650h-130v130h130v-130zM572 0h-144v44q-14 -14 -32.5 -24.5t-39 -18t-42 -11.5t-40.5 -4q-44 0 -84.5 14t-71.5 43t-49.5 75t-18.5 109v351h144v-344q0 -31 9.5 -54.5t25 -39t36 -23t42.5 -7.5q70 0 121 48v420h144v-578z" />
    <glyph glyph-name="yacute" unicode="&#xfd;" horiz-adv-x="590" 
d="M456 843l-144 -193h-106l90 193h160zM585 579l-260 -687q-29 -77 -76 -111t-112 -34q-10 0 -22 1.5t-23 4.5l-48 134q17 -8 35 -12.5t34 -4.5q34 0 62 15.5t43 57.5l20 58l-223 578h157l133 -372l125 372h155z" />
    <glyph glyph-name="thorn" unicode="&#xfe;" horiz-adv-x="646" 
d="M626 289q0 -61 -20.5 -116t-57.5 -97t-88 -66.5t-112 -24.5q-38 0 -71 10.5t-62 33.5v-280h-145v1051h146v-251q25 21 59.5 33t72.5 12q53 0 103 -23.5t89 -64.5t62.5 -97t23.5 -120zM490 288q0 40 -12.5 73t-35 56.5t-53 36t-67.5 12.5q-23 0 -54.5 -9t-51.5 -25v-278
q49 -43 109 -43q36 0 66 13.5t52 37t34.5 56t12.5 70.5z" />
    <glyph glyph-name="ydieresis" unicode="&#xff;" horiz-adv-x="590" 
d="M481 650h-130v130h130v-130zM251 650h-130v130h130v-130zM585 579l-260 -687q-29 -77 -76 -111t-112 -34q-10 0 -22 1.5t-23 4.5l-48 134q17 -8 35 -12.5t34 -4.5q34 0 62 15.5t43 57.5l20 58l-223 578h157l133 -372l125 372h155z" />
    <glyph glyph-name="Amacron" unicode="&#x100;" horiz-adv-x="887" 
d="M665 871h-434v115h434v-115zM887 0h-170l-74 160h-388l-75 -160h-170l378 800h121zM582 289l-133 288l-135 -288h268z" />
    <glyph glyph-name="amacron" unicode="&#x101;" horiz-adv-x="580" 
d="M510 650h-434v115h434v-115zM530 0h-145v31q-38 -26 -80.5 -36t-87.5 -10q-42 0 -76 12.5t-59 36t-38.5 55.5t-13.5 71q0 49 21.5 85.5t58.5 61t86.5 36.5t106.5 12h83q0 51 -33 81t-95 30q-30 0 -62 -11t-64 -40l-85 86q46 44 106.5 68t124.5 24q60 0 107 -19t76 -49
q38 -38 53.5 -85t15.5 -120v-320zM385 144v107h-66q-30 0 -56.5 -4t-46 -13.5t-31 -24.5t-11.5 -36q0 -30 23.5 -49t60.5 -19q32 0 63.5 10t63.5 29z" />
    <glyph glyph-name="_294" unicode="&#x102;" horiz-adv-x="887" 
d="M631 1049q-5 -46 -22.5 -80t-42 -56t-55 -32.5t-62.5 -10.5q-33 0 -63.5 11t-55 33t-41.5 55.5t-23 79.5h116q7 -39 28.5 -53.5t40.5 -14.5q18 0 38 14.5t27 53.5h115zM887 0h-170l-74 160h-388l-75 -160h-170l378 800h121zM582 289l-133 288l-135 -288h268z" />
    <glyph glyph-name="_295" unicode="&#x103;" horiz-adv-x="580" 
d="M462 829q-6 -46 -23 -80t-42 -56t-55.5 -32.5t-62.5 -10.5q-33 0 -63.5 11t-55 33t-41.5 55.5t-23 79.5h116q7 -39 28.5 -53.5t40.5 -14.5q18 0 38 14.5t27 53.5h116zM530 0h-145v31q-38 -26 -80.5 -36t-87.5 -10q-42 0 -76 12.5t-59 36t-38.5 55.5t-13.5 71
q0 49 21.5 85.5t58.5 61t86.5 36.5t106.5 12h83q0 51 -33 81t-95 30q-30 0 -62 -11t-64 -40l-85 86q46 44 106.5 68t124.5 24q60 0 107 -19t76 -49q38 -38 53.5 -85t15.5 -120v-320zM385 144v107h-66q-30 0 -56.5 -4t-46 -13.5t-31 -24.5t-11.5 -36q0 -30 23.5 -49t60.5 -19
q32 0 63.5 10t63.5 29z" />
    <glyph glyph-name="Aogonek" unicode="&#x104;" horiz-adv-x="887" 
d="M887 0q-26 0 -45 -7q-14 -5 -30 -12.5t-29 -15.5q-35 -22 -49 -43.5t-14 -51.5q0 -16 6 -28.5t16 -21t21.5 -13t22.5 -4.5q23 0 43.5 3.5t44.5 11.5l-26 -75q-22 -10 -46 -15.5t-59 -5.5q-19 0 -44.5 7t-48.5 22.5t-39.5 40.5t-17.5 61q-1 26 9 48.5t27.5 41t40 33
t47.5 24.5l-74 160h-388l-75 -160h-170l378 800h121zM582 289l-133 288l-135 -288h268z" />
    <glyph glyph-name="aogonek" unicode="&#x105;" horiz-adv-x="580" 
d="M532 -182l-26 -75q-18 -10 -41 -15.5t-54 -5.5q-19 0 -44.5 7t-48.5 22.5t-39.5 40.5t-17.5 61q-1 26 9 48.5t27.5 41.5t40 33t47.5 24v31q-38 -26 -77.5 -36t-90.5 -10q-42 0 -76 12.5t-59 36t-38.5 55.5t-13.5 71q0 49 21.5 85.5t58.5 61t86.5 36.5t106.5 12h83
q0 111 -128 111q-30 0 -62 -11t-64 -40l-85 86q46 44 106.5 68t124.5 24q60 0 107 -19t76 -49q38 -38 53.5 -85t15.5 -120v-320q-25 -9 -45 -18t-34 -17q-35 -22 -49 -43.5t-14 -51.5q0 -16 6.5 -28.5t16 -21t21.5 -13t23 -4.5q20 0 38 3.5t39 11.5zM385 144v107h-66
q-30 0 -56.5 -4t-46 -13.5t-31 -24.5t-11.5 -36q0 -30 23.5 -49t60.5 -19q32 0 63.5 10t63.5 29z" />
    <glyph glyph-name="Cacute" unicode="&#x106;" horiz-adv-x="812" 
d="M617 1064l-144 -193h-106l90 193h160zM812 144q-60 -73 -145.5 -116t-188.5 -43q-89 0 -167 32.5t-136 88.5t-91.5 131.5t-33.5 162.5t33.5 162.5t91.5 132t136 88.5t167 32q103 0 188.5 -43t142.5 -112l-107 -110q-37 53 -95.5 85.5t-128.5 32.5q-56 0 -105.5 -21.5
t-86.5 -58t-58.5 -85t-21.5 -103.5q0 -54 21.5 -102.5t58.5 -85t86.5 -58t105.5 -21.5q74 0 131 33.5t95 88.5z" />
    <glyph glyph-name="cacute" unicode="&#x107;" horiz-adv-x="592" 
d="M484 843l-144 -193h-106l90 193h160zM582 87q-44 -50 -106 -76t-130 -26q-63 0 -119 23t-97.5 63.5t-65.5 96.5t-24 121q0 64 24 119.5t65 96.5t97 64.5t120 23.5q66 0 125.5 -24t103.5 -73l-97 -99q-22 29 -53.5 48t-76.5 19q-33 0 -62.5 -14t-52 -37.5t-35.5 -55.5
t-13 -68t13 -68t35 -55.5t52 -37.5t63 -14q43 0 78 20.5t56 52.5z" />
    <glyph glyph-name="Cdotaccent" unicode="&#x10a;" horiz-adv-x="812" 
d="M544 872h-145v145h145v-145zM812 144q-60 -73 -145.5 -116t-188.5 -43q-89 0 -167 32.5t-136 88.5t-91.5 131.5t-33.5 162.5t33.5 162.5t91.5 132t136 88.5t167 32q103 0 188.5 -43t142.5 -112l-107 -110q-37 53 -95.5 85.5t-128.5 32.5q-56 0 -105.5 -21.5t-86.5 -58
t-58.5 -85t-21.5 -103.5q0 -54 21.5 -102.5t58.5 -85t86.5 -58t105.5 -21.5q74 0 131 33.5t95 88.5z" />
    <glyph glyph-name="cdotaccent" unicode="&#x10b;" horiz-adv-x="592" 
d="M410 650h-145v145h145v-145zM582 87q-44 -50 -106 -76t-130 -26q-63 0 -119 23t-97.5 63.5t-65.5 96.5t-24 121q0 64 24 119.5t65 96.5t97 64.5t120 23.5q66 0 125.5 -24t103.5 -73l-97 -99q-22 29 -53.5 48t-76.5 19q-33 0 -62.5 -14t-52 -37.5t-35.5 -55.5t-13 -68
t13 -68t35 -55.5t52 -37.5t63 -14q43 0 78 20.5t56 52.5z" />
    <glyph glyph-name="Ccaron" unicode="&#x10c;" horiz-adv-x="812" 
d="M661 1064l-129 -193h-129l-129 193h108l85 -85l86 85h108zM812 144q-60 -73 -145.5 -116t-188.5 -43q-89 0 -167 32.5t-136 88.5t-91.5 131.5t-33.5 162.5t33.5 162.5t91.5 132t136 88.5t167 32q103 0 188.5 -43t142.5 -112l-107 -110q-37 53 -95.5 85.5t-128.5 32.5
q-56 0 -105.5 -21.5t-86.5 -58t-58.5 -85t-21.5 -103.5q0 -54 21.5 -102.5t58.5 -85t86.5 -58t105.5 -21.5q74 0 131 33.5t95 88.5z" />
    <glyph glyph-name="ccaron" unicode="&#x10d;" horiz-adv-x="592" 
d="M529 843l-129 -193h-128l-130 193h108l86 -85l86 85h107zM582 87q-44 -50 -106 -76t-130 -26q-63 0 -119 23t-97.5 63.5t-65.5 96.5t-24 121q0 64 24 119.5t65 96.5t97 64.5t120 23.5q66 0 125.5 -24t103.5 -73l-97 -99q-22 29 -53.5 48t-76.5 19q-33 0 -62.5 -14
t-52 -37.5t-35.5 -55.5t-13 -68t13 -68t35 -55.5t52 -37.5t63 -14q43 0 78 20.5t56 52.5z" />
    <glyph glyph-name="Dcaron" unicode="&#x10e;" horiz-adv-x="831" 
d="M591 1064l-129 -193h-129l-129 193h108l85 -85l86 85h108zM791 400q0 -83 -28 -155.5t-78 -127t-119.5 -86t-151.5 -31.5h-334v800h334q82 0 151.5 -32t119.5 -86t78 -127t28 -155zM634 404q1 56 -17 106t-52 87.5t-83.5 59t-111.5 21.5h-135v-546h135q61 0 109.5 20.5
t82.5 57t52.5 86t19.5 108.5z" />
    <glyph glyph-name="dcaron" unicode="&#x10f;" horiz-adv-x="764" 
d="M784 878q0 -24 -7 -45.5t-20.5 -38t-34 -26t-47.5 -9.5q-10 0 -19.5 2t-17.5 4v11q29 5 47 27t18 51q0 5 -1 12t-3 12h-64v149h149v-149zM596 0h-147v30q-28 -23 -61 -33.5t-70 -10.5q-61 0 -112 24.5t-88 66t-57.5 96.5t-20.5 116q0 65 23.5 120.5t62.5 96.5t89 64.5
t103 23.5q37 0 72 -10t60 -28v274h146v-830zM451 155v278q-10 7 -23 13.5t-27 11t-28 7t-25 2.5q-36 0 -65.5 -12.5t-51.5 -36t-34 -56.5t-12 -73q0 -39 12 -71.5t33 -56t50.5 -36.5t64.5 -13q57 0 106 43z" />
    <glyph glyph-name="Dcroat" unicode="&#x110;" horiz-adv-x="831" 
d="M791 400q0 -83 -28 -155.5t-78 -127t-119.5 -86t-151.5 -31.5h-334v336h-60v134h60v330h334q82 0 151.5 -32t119.5 -86t78 -127t28 -155zM633 404q0 56 -17.5 105.5t-51.5 87t-82.5 59.5t-110.5 22h-136v-208h130v-134h-130v-204h136q61 0 109.5 21.5t82.5 58.5t52 86.5
t18 105.5z" />
    <glyph glyph-name="dcroat" unicode="&#x111;" horiz-adv-x="656" 
d="M656 656h-60v-656h-147v30q-28 -23 -61 -33.5t-70 -10.5q-61 0 -112 24.5t-88 66t-57.5 96.5t-20.5 116q0 65 23.5 120.5t62.5 96.5t89 64.5t103 23.5q37 0 72 -10t60 -28v100h-129v124h129v50h146v-50h60v-124zM451 155v278q-10 7 -23 13.5t-27 11t-28 7t-25 2.5
q-36 0 -65.5 -12.5t-51.5 -36t-34 -56.5t-12 -73q0 -39 12 -71.5t33 -56t50.5 -36.5t64.5 -13q57 0 106 43z" />
    <glyph glyph-name="Emacron" unicode="&#x112;" horiz-adv-x="648" 
d="M565 871h-434v115h434v-115zM608 0h-528v799h528v-128h-376v-191h371v-125h-371v-220h376v-135z" />
    <glyph glyph-name="emacron" unicode="&#x113;" 
d="M564 650h-434v115h434v-115zM657 290q0 -14 -1.5 -29t-3.5 -31h-462q8 -25 22.5 -47.5t35.5 -39t47.5 -26t58.5 -9.5q39 0 78 13.5t65 36.5l91 -91q-60 -45 -117.5 -63.5t-121.5 -18.5q-65 0 -121.5 24t-98 65t-65.5 96.5t-24 118.5t24 118.5t66 96.5t98 65t120 24
q61 0 117 -22.5t99 -62.5t68 -95.5t25 -122.5zM506 346q-17 55 -60.5 88.5t-98.5 33.5q-54 0 -97 -33.5t-60 -88.5h316z" />
    <glyph glyph-name="Edotaccent" unicode="&#x116;" horiz-adv-x="648" 
d="M414 872h-145v145h145v-145zM608 0h-528v799h528v-128h-376v-191h371v-125h-371v-220h376v-135z" />
    <glyph glyph-name="edotaccent" unicode="&#x117;" 
d="M420 652h-145v145h145v-145zM657 290q0 -14 -1.5 -29t-3.5 -31h-462q8 -25 22.5 -47.5t35.5 -39t47.5 -26t58.5 -9.5q39 0 78 13.5t65 36.5l91 -91q-60 -45 -117.5 -63.5t-121.5 -18.5q-65 0 -121.5 24t-98 65t-65.5 96.5t-24 118.5t24 118.5t66 96.5t98 65t120 24
q61 0 117 -22.5t99 -62.5t68 -95.5t25 -122.5zM506 346q-17 55 -60.5 88.5t-98.5 33.5q-54 0 -97 -33.5t-60 -88.5h316z" />
    <glyph glyph-name="Eogonek" unicode="&#x118;" horiz-adv-x="648" 
d="M608 0q-4 0 -11.5 -1.5t-14.5 -3.5q-45 -16 -69 -30q-35 -22 -49 -43.5t-14 -51.5q0 -16 6 -28.5t16 -21t21.5 -13t22.5 -4.5q23 0 43.5 3.5t44.5 11.5l-26 -75q-22 -10 -46 -15.5t-59 -5.5q-19 0 -44.5 7t-48.5 22.5t-39.5 40.5t-17.5 61q-1 26 9 48.5t27.5 41t40 33
t47.5 24.5h-367v799h528v-128h-376v-191h371v-125h-371v-220h376v-135z" />
    <glyph glyph-name="eogonek" unicode="&#x119;" 
d="M657 290q0 -14 -1.5 -29t-3.5 -31h-462q8 -25 22.5 -47.5t35.5 -39t47.5 -26t58.5 -9.5q39 0 78 13.5t65 36.5l91 -91q-19 -14 -36 -24.5t-33 -18.5q-20 -11 -39 -20.5t-38 -27.5q-29 -28 -40.5 -52t-11.5 -54q0 -32 20.5 -49.5t45.5 -17.5q23 0 43.5 3.5t44.5 11.5
l-26 -75q-22 -10 -46 -15.5t-59 -5.5q-19 0 -44.5 7t-48.5 22.5t-39.5 40.5t-17.5 61q-1 22 7 41.5t21.5 36t32 30t39.5 24.5q-63 -4 -121.5 17.5t-103.5 62.5t-71.5 98.5t-26.5 125.5q0 63 24 118.5t66 96.5t98 65t120 24q61 0 117 -22.5t99 -62.5t68 -95.5t25 -122.5z
M506 346q-17 55 -60.5 88.5t-98.5 33.5q-54 0 -97 -33.5t-60 -88.5h316z" />
    <glyph glyph-name="Ecaron" unicode="&#x11a;" horiz-adv-x="648" 
d="M540 1064l-129 -193h-129l-129 193h108l85 -85l86 85h108zM608 0h-528v799h528v-128h-376v-191h371v-125h-371v-220h376v-135z" />
    <glyph glyph-name="ecaron" unicode="&#x11b;" 
d="M540 843l-129 -193h-128l-130 193h108l86 -85l86 85h107zM657 290q0 -14 -1.5 -29t-3.5 -31h-462q8 -25 22.5 -47.5t35.5 -39t47.5 -26t58.5 -9.5q39 0 78 13.5t65 36.5l91 -91q-60 -45 -117.5 -63.5t-121.5 -18.5q-65 0 -121.5 24t-98 65t-65.5 96.5t-24 118.5t24 118.5
t66 96.5t98 65t120 24q61 0 117 -22.5t99 -62.5t68 -95.5t25 -122.5zM506 346q-17 55 -60.5 88.5t-98.5 33.5q-54 0 -97 -33.5t-60 -88.5h316z" />
    <glyph glyph-name="Gbreve" unicode="&#x11e;" horiz-adv-x="856" 
d="M652 1049q-5 -46 -22.5 -80t-42 -56t-55 -32.5t-62.5 -10.5q-33 0 -63.5 11t-55 33t-41.5 55.5t-23 79.5h116q7 -39 28.5 -53.5t40.5 -14.5q18 0 38 14.5t27 53.5h115zM816 147q-34 -42 -74 -72.5t-83.5 -50.5t-89 -29.5t-90.5 -9.5q-89 0 -167 32t-136 88t-92 132
t-34 164q0 86 33.5 161.5t92 131.5t136.5 88.5t167 32.5q103 0 187.5 -42t143.5 -112l-105 -107q-45 61 -101 87.5t-125 26.5q-57 0 -107 -21t-87.5 -57.5t-59 -85t-21.5 -103.5q0 -56 21.5 -104.5t59 -85.5t87.5 -58t107 -21q54 0 102 20t86 53v77h-164v132h313v-267z" />
    <glyph glyph-name="gbreve" unicode="&#x11f;" horiz-adv-x="601" 
d="M482 829q-6 -46 -23 -80t-42 -56t-55.5 -32.5t-62.5 -10.5q-33 0 -63.5 11t-55 33t-41.5 55.5t-23 79.5h116q7 -39 28.5 -53.5t40.5 -14.5q18 0 38 14.5t27 53.5h116zM591 464h-61q23 -45 23 -96q0 -39 -14.5 -75.5t-41.5 -66.5t-65.5 -51t-86.5 -28q-33 -5 -49.5 -15.5
t-16.5 -21t16.5 -19.5t49.5 -12q112 -10 173.5 -56t61.5 -122q0 -39 -19 -72t-54.5 -57t-85.5 -37t-112 -13q-63 0 -113.5 13t-86.5 36.5t-55 56.5t-19 73q0 60 34.5 100.5t112.5 60.5q-24 9 -34.5 24.5t-9.5 31.5t13.5 30.5t35.5 22.5q-26 12 -49.5 31t-42.5 44t-30 56
t-11 66q0 47 20 88t54 71.5t79 48t95 17.5q49 0 91 -15h198v-114zM410 368q0 22 -8.5 41t-23 33.5t-34 23t-41.5 8.5t-41 -8.5t-33.5 -23t-23 -33.5t-8.5 -41t8.5 -41.5t23 -34t33.5 -23t41 -8.5t41.5 8.5t34 23t23 34t8.5 41.5zM436 -99q0 35 -35.5 51t-91.5 16
q-60 0 -94.5 -17t-34.5 -50q0 -34 36 -51t93 -17q58 0 92.5 16.5t34.5 51.5z" />
    <glyph glyph-name="Gdotaccent" unicode="&#x120;" horiz-adv-x="856" 
d="M544 872h-145v145h145v-145zM816 147q-34 -42 -74 -72.5t-83.5 -50.5t-89 -29.5t-90.5 -9.5q-89 0 -167 32t-136 88t-92 132t-34 164q0 86 33.5 161.5t92 131.5t136.5 88.5t167 32.5q103 0 187.5 -42t143.5 -112l-105 -107q-45 61 -101 87.5t-125 26.5q-57 0 -107 -21
t-87.5 -57.5t-59 -85t-21.5 -103.5q0 -56 21.5 -104.5t59 -85.5t87.5 -58t107 -21q54 0 102 20t86 53v77h-164v132h313v-267z" />
    <glyph glyph-name="gdotaccent" unicode="&#x121;" horiz-adv-x="601" 
d="M380 652h-145v145h145v-145zM591 464h-61q23 -45 23 -96q0 -39 -14.5 -75.5t-41.5 -66.5t-65.5 -51t-86.5 -28q-33 -5 -49.5 -15.5t-16.5 -21t16.5 -19.5t49.5 -12q112 -10 173.5 -56t61.5 -122q0 -39 -19 -72t-54.5 -57t-85.5 -37t-112 -13q-63 0 -113.5 13t-86.5 36.5
t-55 56.5t-19 73q0 60 34.5 100.5t112.5 60.5q-24 9 -34.5 24.5t-9.5 31.5t13.5 30.5t35.5 22.5q-26 12 -49.5 31t-42.5 44t-30 56t-11 66q0 47 20 88t54 71.5t79 48t95 17.5q49 0 91 -15h198v-114zM410 368q0 22 -8.5 41t-23 33.5t-34 23t-41.5 8.5t-41 -8.5t-33.5 -23
t-23 -33.5t-8.5 -41t8.5 -41.5t23 -34t33.5 -23t41 -8.5t41.5 8.5t34 23t23 34t8.5 41.5zM436 -99q0 35 -35.5 51t-91.5 16q-60 0 -94.5 -17t-34.5 -50q0 -34 36 -51t93 -17q58 0 92.5 16.5t34.5 51.5z" />
    <glyph glyph-name="uni0122" unicode="&#x122;" horiz-adv-x="856" 
d="M816 147q-34 -42 -74 -72.5t-83.5 -50.5t-89 -29.5t-90.5 -9.5q-89 0 -167 32t-136 88t-92 132t-34 164q0 86 33.5 161.5t92 131.5t136.5 88.5t167 32.5q103 0 187.5 -42t143.5 -112l-105 -107q-45 61 -101 87.5t-125 26.5q-57 0 -107 -21t-87.5 -57.5t-59 -85
t-21.5 -103.5q0 -56 21.5 -104.5t59 -85.5t87.5 -58t107 -21q54 0 102 20t86 53v77h-164v132h313v-267zM545 -200q0 -21 -6.5 -40.5t-19 -34.5t-31 -24t-42.5 -9q-8 0 -17 2t-16 4v10q26 5 42.5 24.5t16.5 45.5q0 4 -1 10.5t-3 11.5h-58v134h135v-134z" />
    <glyph glyph-name="uni0123" unicode="&#x123;" horiz-adv-x="601" 
d="M382 650h-134v134q0 21 6 40.5t18.5 34.5t31 23.5t42.5 8.5q9 0 18 -1.5t15 -3.5v-10q-26 -5 -42 -24.5t-16 -45.5q0 -5 0.5 -11t2.5 -11h58v-134zM591 464h-61q23 -45 23 -96q0 -39 -14.5 -75.5t-41.5 -66.5t-65.5 -51t-86.5 -28q-33 -5 -49.5 -15.5t-16.5 -21
t16.5 -19.5t49.5 -12q112 -10 173.5 -56t61.5 -122q0 -39 -19 -72t-54.5 -57t-85.5 -37t-112 -13q-63 0 -113.5 13t-86.5 36.5t-55 56.5t-19 73q0 60 34.5 100.5t112.5 60.5q-24 9 -34.5 24.5t-9.5 31.5t13.5 30.5t35.5 22.5q-26 12 -49.5 31t-42.5 44t-30 56t-11 66
q0 47 20 88t54 71.5t79 48t95 17.5q49 0 91 -15h198v-114zM410 368q0 22 -8.5 41t-23 33.5t-34 23t-41.5 8.5t-41 -8.5t-33.5 -23t-23 -33.5t-8.5 -41t8.5 -41.5t23 -34t33.5 -23t41 -8.5t41.5 8.5t34 23t23 34t8.5 41.5zM436 -99q0 35 -35.5 51t-91.5 16q-60 0 -94.5 -17
t-34.5 -50q0 -34 36 -51t93 -17q58 0 92.5 16.5t34.5 51.5z" />
    <glyph glyph-name="Imacron" unicode="&#x12a;" horiz-adv-x="305" 
d="M375 871h-434v115h434v-115zM235 0h-155v799h155v-799z" />
    <glyph glyph-name="imacron" unicode="&#x12b;" horiz-adv-x="280" 
d="M348 650h-434v115h434v-115zM208 0h-146v579h146v-579z" />
    <glyph glyph-name="Iogonek" unicode="&#x12e;" horiz-adv-x="305" 
d="M235 0q-29 -8 -48.5 -17.5t-33.5 -17.5q-35 -22 -49 -43.5t-14 -51.5q0 -16 6 -28.5t16 -21t21.5 -13t22.5 -4.5q38 0 79 15l-26 -75q-23 -11 -42.5 -16t-53.5 -5q-19 0 -44.5 7t-48.5 22.5t-39.5 40.5t-17.5 61q-1 27 10 50t28 42t38 33t41 22v799h155v-799z" />
    <glyph glyph-name="iogonek" unicode="&#x12f;" horiz-adv-x="280" 
d="M210 679h-150v150h150v-150zM211 -182l-26 -75q-21 -11 -41.5 -16t-53.5 -5q-19 0 -44.5 7t-48.5 22.5t-39.5 40.5t-17.5 61q-1 26 9 48.5t27 41t39.5 32.5t46.5 24v579l146 1v-579q-25 -7 -44.5 -17t-33.5 -18q-35 -22 -49 -43.5t-14 -51.5q0 -16 6 -28.5t16 -21
t21.5 -13t22.5 -4.5q20 0 37.5 3t40.5 12z" />
    <glyph glyph-name="Idotaccent" unicode="&#x130;" horiz-adv-x="305" 
d="M230 871h-145v145h145v-145zM235 0h-155v799h155v-799z" />
    <glyph glyph-name="dotlessi" unicode="&#x131;" horiz-adv-x="280" 
d="M208 0h-146v579h146v-579z" />
    <glyph glyph-name="uni0136" unicode="&#x136;" horiz-adv-x="747" 
d="M757 0h-202l-320 354v-354h-155v800h155v-357l327 357h184l-361 -393zM465 -200q0 -21 -6.5 -40.5t-19 -34.5t-31 -24t-42.5 -9q-8 0 -17 2t-16 4v10q26 5 42.5 24.5t16.5 45.5q0 4 -1 10.5t-3 11.5h-58v134h135v-134z" />
    <glyph glyph-name="uni0137" unicode="&#x137;" horiz-adv-x="600" 
d="M610 0h-171l-232 259v-259h-147v829h147v-496l202 245h168l-237 -281zM395 -200q0 -21 -6.5 -40.5t-19 -34.5t-31 -24t-42.5 -9q-8 0 -17 2t-16 4v10q26 5 42.5 24.5t16.5 45.5q0 4 -1 10.5t-3 11.5h-58v134h135v-134z" />
    <glyph glyph-name="Lacute" unicode="&#x139;" horiz-adv-x="631" 
d="M353 1064l-144 -193h-106l90 193h160zM621 0h-541v799h158v-649h383v-150z" />
    <glyph glyph-name="lacute" unicode="&#x13a;" horiz-adv-x="314" 
d="M311 1064l-144 -193h-106l90 193h160zM304 3q-17 -8 -38.5 -13t-44.5 -5q-32 0 -61.5 8.5t-51.5 27.5t-35 49.5t-13 73.5v686h147v-661q0 -36 14.5 -49.5t34.5 -13.5q25 0 48 15v-118z" />
    <glyph glyph-name="uni013B" unicode="&#x13b;" horiz-adv-x="631" 
d="M621 0h-541v799h158v-649h383v-150zM435 -200q0 -21 -6.5 -40.5t-19 -34.5t-31 -24t-42.5 -9q-8 0 -17 2t-16 4v10q26 5 42.5 24.5t16.5 45.5q0 4 -1 10.5t-3 11.5h-58v134h135v-134z" />
    <glyph glyph-name="uni013C" unicode="&#x13c;" horiz-adv-x="314" 
d="M304 3q-17 -8 -38.5 -13t-44.5 -5q-32 0 -61.5 8.5t-51.5 27.5t-35 49.5t-13 73.5v686h147v-661q0 -36 14.5 -49.5t34.5 -13.5q25 0 48 15v-118zM251 -200q0 -21 -6.5 -40.5t-19 -34.5t-31 -24t-42.5 -9q-8 0 -17 2t-16 4v10q26 5 42.5 24.5t16.5 45.5q0 4 -1 10.5
t-3 11.5h-58v134h135v-134z" />
    <glyph glyph-name="Lcaron" unicode="&#x13d;" horiz-adv-x="631" 
d="M534 651q0 -24 -7 -45.5t-20.5 -38t-34 -26t-47.5 -9.5q-10 0 -19.5 2t-17.5 4v11q29 5 47 27t18 51q0 5 -1 12t-3 12h-64v149h149v-149zM621 0h-541v799h158v-649h383v-150z" />
    <glyph glyph-name="lcaron" unicode="&#x13e;" horiz-adv-x="404" 
d="M424 681q0 -24 -7 -45.5t-20.5 -38t-34 -26t-47.5 -9.5q-10 0 -19.5 2t-17.5 4v11q29 5 47 27t18 51q0 5 -1 12t-3 12h-64v149h149v-149zM304 3q-17 -8 -38.5 -13t-44.5 -5q-32 0 -61.5 8.5t-51.5 27.5t-35 49.5t-13 73.5v686h147v-661q0 -36 14.5 -49.5t34.5 -13.5
q25 0 48 15v-118z" />
    <glyph glyph-name="Ldot" unicode="&#x13f;" horiz-adv-x="631" 
d="M469 362h-145v145h145v-145zM621 0h-541v799h158v-649h383v-150z" />
    <glyph glyph-name="ldot" unicode="&#x140;" horiz-adv-x="419" 
d="M409 362h-145v145h145v-145zM304 3q-17 -8 -38.5 -13t-44.5 -5q-32 0 -61.5 8.5t-51.5 27.5t-35 49.5t-13 73.5v686h147v-661q0 -36 14.5 -49.5t34.5 -13.5q25 0 48 15v-118z" />
    <glyph glyph-name="Lslash" unicode="&#x141;" horiz-adv-x="631" 
d="M621 0h-541v295l-60 -29v134l60 29v370h158v-295l117 56v-134l-117 -56v-220h383v-150z" />
    <glyph glyph-name="lslash" unicode="&#x142;" horiz-adv-x="314" 
d="M304 3q-17 -8 -38.5 -13t-44.5 -5q-32 0 -61.5 8.5t-51.5 27.5t-35 49.5t-13 73.5v151l-40 -19v134l40 19v401h147v-329l77 37v-134l-77 -37v-198q0 -36 14.5 -49.5t34.5 -13.5q25 0 48 15v-118z" />
    <glyph glyph-name="Nacute" unicode="&#x143;" horiz-adv-x="815" 
d="M562 1064l-144 -193h-106l90 193h160zM745 0h-152l-361 561v-561h-152v800h174l339 -522v522h152v-800z" />
    <glyph glyph-name="nacute" unicode="&#x144;" horiz-adv-x="636" 
d="M479 843l-144 -193h-106l90 193h160zM586 0h-144v345q0 31 -9.5 54.5t-25.5 39t-36.5 23t-42.5 7.5q-33 0 -65 -11.5t-58 -36.5v-421h-145v578h145v-43q13 13 32 24t39.5 18.5t42 11.5t41.5 4q44 0 84.5 -14t72 -43t50.5 -75t19 -109v-352z" />
    <glyph glyph-name="uni0145" unicode="&#x145;" horiz-adv-x="815" 
d="M745 0h-152l-361 561v-561h-152v800h174l339 -522v522h152v-800zM495 -200q0 -21 -6.5 -40.5t-19 -34.5t-31 -24t-42.5 -9q-8 0 -17 2t-16 4v10q26 5 42.5 24.5t16.5 45.5q0 4 -1 10.5t-3 11.5h-58v134h135v-134z" />
    <glyph glyph-name="uni0146" unicode="&#x146;" horiz-adv-x="636" 
d="M586 0h-144v345q0 31 -9.5 54.5t-25.5 39t-36.5 23t-42.5 7.5q-33 0 -65 -11.5t-58 -36.5v-421h-145v578h145v-43q13 13 32 24t39.5 18.5t42 11.5t41.5 4q44 0 84.5 -14t72 -43t50.5 -75t19 -109v-352zM393 -200q0 -21 -6.5 -40.5t-19 -34.5t-31 -24t-42.5 -9q-8 0 -17 2
t-16 4v10q26 5 42.5 24.5t16.5 45.5q0 4 -1 10.5t-3 11.5h-58v134h135v-134z" />
    <glyph glyph-name="Ncaron" unicode="&#x147;" horiz-adv-x="815" 
d="M617 1064l-129 -193h-129l-129 193h108l85 -85l86 85h108zM745 0h-152l-361 561v-561h-152v800h174l339 -522v522h152v-800z" />
    <glyph glyph-name="ncaron" unicode="&#x148;" horiz-adv-x="636" 
d="M518 843l-129 -193h-128l-130 193h108l86 -85l86 85h107zM586 0h-144v345q0 31 -9.5 54.5t-25.5 39t-36.5 23t-42.5 7.5q-33 0 -65 -11.5t-58 -36.5v-421h-145v578h145v-43q13 13 32 24t39.5 18.5t42 11.5t41.5 4q44 0 84.5 -14t72 -43t50.5 -75t19 -109v-352z" />
    <glyph glyph-name="Omacron" unicode="&#x14c;" horiz-adv-x="939" 
d="M691 873h-434v115h434v-115zM899 400q0 -86 -33.5 -162t-91.5 -132t-135 -88.5t-164 -32.5t-164.5 32.5t-135.5 88.5t-91.5 131.5t-33.5 162.5t33.5 163t91.5 132t135.5 88t164.5 32t164 -32t135 -88.5t91.5 -132t33.5 -162.5zM743 400q0 55 -21 103.5t-57.5 85t-85.5 58
t-104 21.5q-56 0 -105 -21.5t-85.5 -58t-57.5 -85t-21 -103.5q0 -54 21 -103t57.5 -85.5t85.5 -58t105 -21.5q55 0 104 21.5t85.5 58t57.5 85.5t21 103z" />
    <glyph glyph-name="omacron" unicode="&#x14d;" 
d="M564 650h-434v115h434v-115zM657 289q0 -65 -24 -120.5t-66 -96t-98.5 -64t-120.5 -23.5t-120 23.5t-98 64.5t-66 96.5t-24 119.5q0 63 24.5 118.5t66.5 97t98 65t119 23.5q64 0 120.5 -23.5t98.5 -64t66 -96.5t24 -120zM513 289q0 37 -13 69t-35.5 56t-52.5 37.5
t-64 13.5t-64 -13.5t-52.5 -37.5t-35.5 -56t-13 -69t13 -69t35.5 -56t52.5 -37.5t64 -13.5t64 13.5t52.5 37.5t35.5 56t13 69z" />
    <glyph glyph-name="_296" unicode="&#x150;" horiz-adv-x="939" 
d="M761 1064l-148 -192h-103l83 192h168zM542 1064l-148 -192h-103l83 192h168zM899 400q0 -86 -33.5 -162t-91.5 -132t-135 -88.5t-164 -32.5t-164.5 32.5t-135.5 88.5t-91.5 131.5t-33.5 162.5t33.5 163t91.5 132t135.5 88t164.5 32t164 -32t135 -88.5t91.5 -132
t33.5 -162.5zM743 400q0 55 -21 103.5t-57.5 85t-85.5 58t-104 21.5q-56 0 -105 -21.5t-85.5 -58t-57.5 -85t-21 -103.5q0 -54 21 -103t57.5 -85.5t85.5 -58t105 -21.5q55 0 104 21.5t85.5 58t57.5 85.5t21 103z" />
    <glyph glyph-name="ohungarumlaut" unicode="&#x151;" 
d="M630 842l-149 -192h-103l84 192h168zM411 842l-149 -192h-103l84 192h168zM657 289q0 -65 -24 -120.5t-66 -96t-98.5 -64t-120.5 -23.5t-120 23.5t-98 64.5t-66 96.5t-24 119.5q0 63 24.5 118.5t66.5 97t98 65t119 23.5q64 0 120.5 -23.5t98.5 -64t66 -96.5t24 -120z
M513 289q0 37 -13 69t-35.5 56t-52.5 37.5t-64 13.5t-64 -13.5t-52.5 -37.5t-35.5 -56t-13 -69t13 -69t35.5 -56t52.5 -37.5t64 -13.5t64 13.5t52.5 37.5t35.5 56t13 69z" />
    <glyph glyph-name="OE" unicode="&#x152;" horiz-adv-x="1311" 
d="M1271 0h-528v79q-55 -45 -123.5 -69.5t-144.5 -24.5q-87 0 -164.5 32.5t-135.5 88.5t-91.5 131.5t-33.5 162.5t33.5 163t91.5 132t135.5 88t164.5 32q76 0 144.5 -24.5t123.5 -68.5v77h528v-128h-376v-191h371v-125h-371v-220h376v-135zM743 400q0 55 -21 103.5t-57.5 85
t-85.5 58t-104 21.5q-56 0 -105 -21.5t-85.5 -58t-57.5 -85t-21 -103.5q0 -54 21 -103t57.5 -85.5t85.5 -58t105 -21.5q55 0 104 21.5t85.5 58t57.5 85.5t21 103z" />
    <glyph glyph-name="oe" unicode="&#x153;" horiz-adv-x="1141" 
d="M1111 290q0 -14 -1.5 -29t-3.5 -31h-462q8 -25 22.5 -47.5t35.5 -39t47.5 -26t58.5 -9.5q39 0 78 13.5t65 36.5l91 -91q-60 -45 -117.5 -63.5t-121.5 -18.5q-69 0 -127 25.5t-100 70.5q-42 -45 -100.5 -70.5t-127.5 -25.5q-64 0 -120 23.5t-98 64.5t-66 96.5t-24 119.5
q0 63 24.5 118.5t66.5 97t98 65t119 23.5q69 0 127.5 -26t100.5 -71q42 45 100.5 71t125.5 26q61 0 117 -22.5t99 -62.5t68 -95.5t25 -122.5zM960 346q-17 55 -60.5 88.5t-98.5 33.5q-54 0 -97 -33.5t-60 -88.5h316zM513 289q0 37 -13 69t-35.5 56t-52.5 37.5t-64 13.5
t-64 -13.5t-52.5 -37.5t-35.5 -56t-13 -69t13 -69t35.5 -56t52.5 -37.5t64 -13.5t64 13.5t52.5 37.5t35.5 56t13 69z" />
    <glyph glyph-name="Racute" unicode="&#x154;" horiz-adv-x="697" 
d="M497 1064l-144 -193h-106l90 193h160zM682 0h-171l-57 182q-9 30 -22.5 55t-32.5 43t-45.5 28t-62.5 10h-58v-318h-153v799l316 1q51 0 95 -17.5t76 -48.5t50 -73t18 -91q0 -35 -11 -68t-31 -61t-47.5 -49.5t-60.5 -32.5q38 -14 62 -40.5t38 -63.5q7 -17 13 -34
t12.5 -35.5t14 -40t16.5 -47.5q11 -33 20.5 -56.5t20.5 -41.5zM479 559q0 28 -10.5 51t-28.5 40t-42.5 26.5t-52.5 9.5h-112v-249h112q28 0 52.5 8.5t42.5 24.5t28.5 38.5t10.5 50.5z" />
    <glyph glyph-name="racute" unicode="&#x155;" horiz-adv-x="466" 
d="M406 843l-144 -193h-106l90 193h160zM476 518l-77 -122q-21 23 -46.5 40.5t-51.5 17.5q-14 0 -30.5 -6.5t-31 -21.5t-24.5 -39.5t-10 -60.5v-326h-145v578h145v-62q26 37 57.5 57t70.5 20q38 0 74.5 -20.5t68.5 -54.5z" />
    <glyph glyph-name="Rcaron" unicode="&#x158;" horiz-adv-x="697" 
d="M528 1063l-129 -192h-129l-129 192h108l85 -84l86 84h108zM682 0h-171l-57 182q-9 30 -22.5 55t-32.5 43t-45.5 28t-62.5 10h-58v-318h-153v799l316 1q51 0 95 -17.5t76 -48.5t50 -73t18 -91q0 -35 -11 -68t-31 -61t-47.5 -49.5t-60.5 -32.5q38 -14 62 -40.5t38 -63.5
q7 -17 13 -34t12.5 -35.5t14 -40t16.5 -47.5q11 -33 20.5 -56.5t20.5 -41.5zM479 559q0 28 -10.5 51t-28.5 40t-42.5 26.5t-52.5 9.5h-112v-249h112q28 0 52.5 8.5t42.5 24.5t28.5 38.5t10.5 50.5z" />
    <glyph glyph-name="rcaron" unicode="&#x159;" horiz-adv-x="466" 
d="M446 843l-129 -193h-128l-130 193h108l86 -85l86 85h107zM476 518l-77 -122q-21 23 -46.5 40.5t-51.5 17.5q-14 0 -30.5 -6.5t-31 -21.5t-24.5 -39.5t-10 -60.5v-326h-145v578h145v-62q26 37 57.5 57t70.5 20q38 0 74.5 -20.5t68.5 -54.5z" />
    <glyph glyph-name="Sacute" unicode="&#x15a;" horiz-adv-x="644" 
d="M489 1064l-144 -193h-106l90 193h160zM614 210q0 -45 -19.5 -85.5t-54.5 -71.5t-83 -49.5t-106 -18.5q-52 0 -93.5 6t-78 19t-70 33.5t-69.5 49.5l110 111q48 -40 94 -56.5t100 -16.5q22 0 41.5 6.5t34 17.5t23 26t8.5 33q0 19 -7 34t-25 29t-50 28.5t-82 32.5
q-44 16 -84.5 36.5t-71 49.5t-49 68t-18.5 92q0 51 20.5 94t56 73.5t83 47.5t102.5 17q92 0 155 -24t112 -70l-108 -109q-30 29 -67 44.5t-87 15.5q-23 0 -42.5 -7t-33.5 -18.5t-22.5 -27t-8.5 -32.5q0 -19 8 -34.5t27 -30t50.5 -29t78.5 -31.5q60 -21 103 -46t70.5 -55
t40 -67.5t12.5 -84.5z" />
    <glyph glyph-name="sacute" unicode="&#x15b;" horiz-adv-x="513" 
d="M408 843l-144 -193h-106l90 193h160zM483 162q0 -43 -20 -76.5t-52 -56t-72 -34t-79 -11.5q-66 0 -121.5 24.5t-97.5 78.5l87 88q26 -33 60 -51.5t73 -18.5q34 0 56.5 12.5t22.5 37.5q0 26 -32 43.5t-90 34.5q-34 10 -66 25.5t-57 38t-40 51.5t-15 67q0 42 19.5 75.5
t51 56t71.5 34.5t81 12q132 0 216 -100l-86 -87q-25 31 -57 49t-70 18q-13 0 -27.5 -3.5t-27 -10t-20.5 -17t-8 -23.5q0 -23 30.5 -40t87.5 -34q37 -11 70 -28t58 -39.5t39.5 -51t14.5 -64.5z" />
    <glyph glyph-name="Scedilla" unicode="&#x15e;" horiz-adv-x="644" 
d="M614 210q0 -42 -17 -80t-48 -68.5t-74 -50.5t-95 -25l-10 -43q50 -8 73.5 -38t23.5 -65q0 -17 -7.5 -34t-22 -31t-34 -23t-43.5 -9q-31 0 -54.5 7t-44.5 24l7 34q8 -5 19 -8.5t21 -3.5q26 0 43 15.5t17 35.5q0 23 -16.5 39t-43.5 16q-6 0 -12.5 -1t-11.5 -2l17 88
q-41 2 -75 9.5t-65 20.5t-60.5 31.5t-60.5 44.5l110 111q48 -40 94 -56.5t100 -16.5q22 0 41.5 6.5t34 17.5t23 26t8.5 33q0 19 -7 34t-25 29t-50 28.5t-82 32.5q-44 16 -84.5 36.5t-71 49.5t-49 68t-18.5 92q0 51 20.5 94t56 73.5t83 47.5t102.5 17q92 0 155 -24t112 -70
l-108 -109q-30 29 -67 44.5t-87 15.5q-23 0 -42.5 -7t-33.5 -18.5t-22.5 -27t-8.5 -32.5q0 -19 8 -34.5t27 -30t50.5 -29t78.5 -31.5q60 -21 103 -46t70.5 -55t40 -67.5t12.5 -84.5z" />
    <glyph glyph-name="scedilla" unicode="&#x15f;" horiz-adv-x="513" 
d="M483 162q0 -36 -14 -65t-37 -50.5t-53.5 -36t-63.5 -21.5l-10 -46q50 -8 73.5 -38t23.5 -65q0 -17 -7.5 -34t-22 -31t-34 -23t-43.5 -9q-31 0 -54.5 7t-44.5 24l7 34q8 -5 19 -8.5t21 -3.5q26 0 43 15.5t17 35.5q0 23 -16.5 39t-43.5 16q-6 0 -12.5 -1t-11.5 -2l16 86
q-58 4 -107 28.5t-87 73.5l87 88q26 -33 60 -51.5t73 -18.5q34 0 56.5 12.5t22.5 37.5q0 26 -32 43.5t-90 34.5q-34 10 -66 25.5t-57 38t-40 51.5t-15 67q0 42 19.5 75.5t51 56t71.5 34.5t81 12q132 0 216 -100l-86 -87q-25 31 -57 49t-70 18q-13 0 -27.5 -3.5t-27 -10
t-20.5 -17t-8 -23.5q0 -23 30.5 -40t87.5 -34q37 -11 70 -28t58 -39.5t39.5 -51t14.5 -64.5z" />
    <glyph glyph-name="Scaron" unicode="&#x160;" horiz-adv-x="644" 
d="M520 1064l-129 -193h-129l-129 193h108l85 -85l86 85h108zM614 210q0 -45 -19.5 -85.5t-54.5 -71.5t-83 -49.5t-106 -18.5q-52 0 -93.5 6t-78 19t-70 33.5t-69.5 49.5l110 111q48 -40 94 -56.5t100 -16.5q22 0 41.5 6.5t34 17.5t23 26t8.5 33q0 19 -7 34t-25 29t-50 28.5
t-82 32.5q-44 16 -84.5 36.5t-71 49.5t-49 68t-18.5 92q0 51 20.5 94t56 73.5t83 47.5t102.5 17q92 0 155 -24t112 -70l-108 -109q-30 29 -67 44.5t-87 15.5q-23 0 -42.5 -7t-33.5 -18.5t-22.5 -27t-8.5 -32.5q0 -19 8 -34.5t27 -30t50.5 -29t78.5 -31.5q60 -21 103 -46
t70.5 -55t40 -67.5t12.5 -84.5z" />
    <glyph glyph-name="scaron" unicode="&#x161;" horiz-adv-x="513" 
d="M456 843l-129 -193h-128l-130 193h108l86 -85l86 85h107zM483 162q0 -43 -20 -76.5t-52 -56t-72 -34t-79 -11.5q-66 0 -121.5 24.5t-97.5 78.5l87 88q26 -33 60 -51.5t73 -18.5q34 0 56.5 12.5t22.5 37.5q0 26 -32 43.5t-90 34.5q-34 10 -66 25.5t-57 38t-40 51.5t-15 67
q0 42 19.5 75.5t51 56t71.5 34.5t81 12q132 0 216 -100l-86 -87q-25 31 -57 49t-70 18q-13 0 -27.5 -3.5t-27 -10t-20.5 -17t-8 -23.5q0 -23 30.5 -40t87.5 -34q37 -11 70 -28t58 -39.5t39.5 -51t14.5 -64.5z" />
    <glyph glyph-name="uni0162" unicode="&#x162;" horiz-adv-x="649" 
d="M629 661h-220v-661h-36l-13 -57q50 -8 73.5 -38t23.5 -65q0 -17 -7.5 -34t-22 -31t-34 -23t-43.5 -9q-31 0 -54 7t-45 24l7 34q8 -5 19 -8.5t21 -3.5q26 0 43 15.5t17 35.5q0 23 -16.5 39t-43.5 16q-6 0 -12.5 -1t-11.5 -3l20 102h-43v661h-221v138h599v-138z" />
    <glyph glyph-name="uni0163" unicode="&#x163;" horiz-adv-x="407" 
d="M382 13q-22 -14 -51 -21t-58 -7l-9 -42q50 -8 73.5 -38t23.5 -65q0 -17 -7.5 -34t-22 -31t-34 -23t-43.5 -9q-31 0 -54 7t-45 24l7 34q8 -5 19 -8.5t21 -3.5q26 0 43 15.5t17 35.5q0 23 -16.5 39t-43.5 16q-6 0 -12.5 -1t-11.5 -3l18 96q-58 17 -81.5 66.5t-23.5 135.5
v253h-76v65q73 29 117 92t56 142h47v-169h146v-130h-146v-263q0 -22 5.5 -36t14.5 -22t20.5 -11t24.5 -3q17 0 40.5 6t41.5 20v-127z" />
    <glyph glyph-name="Tcaron" unicode="&#x164;" horiz-adv-x="649" 
d="M522 1064l-129 -193h-129l-129 193h108l85 -85l86 85h108zM629 661h-221v-661h-157v661h-221v138h599v-138z" />
    <glyph glyph-name="tcaron" unicode="&#x165;" horiz-adv-x="534" 
d="M554 681q0 -24 -7 -45.5t-20.5 -38t-34 -26t-47.5 -9.5q-10 0 -19.5 2t-17.5 4v11q29 5 47 27t18 51q0 5 -1 12t-3 12h-64v149h149v-149zM382 13q-22 -14 -51 -21t-58 -7q-51 0 -86 12.5t-56 38.5t-30.5 66t-9.5 94v253h-76v65q70 29 113.5 86t59.5 148h47v-169h146v-130
h-146v-263q0 -22 5.5 -36t14.5 -22t20.5 -11t24.5 -3q17 0 41 6t41 20v-127z" />
    <glyph glyph-name="Umacron" unicode="&#x16a;" horiz-adv-x="831" 
d="M641 871h-434v115h434v-115zM781 800v-434q0 -80 -24 -149t-69.5 -120.5t-111 -81t-149.5 -29.5q-82 0 -148 29t-112.5 79.5t-71.5 119t-25 147.5v439h155v-440q0 -46 13 -86.5t38 -70.5t62.5 -47.5t85.5 -17.5q51 0 88.5 16.5t62 46t37 69.5t12.5 88v442h157z" />
    <glyph glyph-name="umacron" unicode="&#x16b;" horiz-adv-x="632" 
d="M528 650h-434v115h434v-115zM572 0h-144v44q-14 -14 -32.5 -24.5t-39 -18t-42 -11.5t-40.5 -4q-44 0 -84.5 14t-71.5 43t-49.5 75t-18.5 109v351h144v-344q0 -31 9.5 -54.5t25 -39t36 -23t42.5 -7.5q70 0 121 48v420h144v-578z" />
    <glyph glyph-name="Uring" unicode="&#x16e;" horiz-adv-x="831" 
d="M542 990q0 -25 -9.5 -46.5t-25.5 -37.5t-38 -25.5t-46 -9.5t-45.5 9.5t-37.5 25.5t-25.5 37.5t-9.5 46.5q0 24 9.5 45.5t25.5 37.5t37.5 25.5t45.5 9.5t46 -9.5t38 -25.5t25.5 -37.5t9.5 -45.5zM781 800v-434q0 -80 -24 -149t-69.5 -120.5t-111 -81t-149.5 -29.5
q-82 0 -148 29t-112.5 79.5t-71.5 119t-25 147.5v439h155v-440q0 -46 13 -86.5t38 -70.5t62.5 -47.5t85.5 -17.5q51 0 88.5 16.5t62 46t37 69.5t12.5 88v442h157zM467 990q0 18 -13 30.5t-31 12.5t-31 -12.5t-13 -30.5q0 -19 13 -31.5t31 -12.5t31 12.5t13 31.5z" />
    <glyph glyph-name="uring" unicode="&#x16f;" horiz-adv-x="632" 
d="M426 769q0 -25 -9.5 -46.5t-25.5 -37.5t-38 -25.5t-46 -9.5t-45.5 9.5t-37.5 25.5t-25.5 37.5t-9.5 46.5q0 24 9.5 45.5t25.5 37.5t37.5 25.5t45.5 9.5t46 -9.5t38 -25.5t25.5 -37.5t9.5 -45.5zM572 0h-144v44q-14 -14 -32.5 -24.5t-39 -18t-42 -11.5t-40.5 -4
q-44 0 -84.5 14t-71.5 43t-49.5 75t-18.5 109v351h144v-344q0 -31 9.5 -54.5t25 -39t36 -23t42.5 -7.5q70 0 121 48v420h144v-578zM351 769q0 18 -13 30.5t-31 12.5t-31 -12.5t-13 -30.5q0 -19 13 -31.5t31 -12.5t31 12.5t13 31.5z" />
    <glyph glyph-name="Uhungarumlaut" unicode="&#x170;" horiz-adv-x="831" 
d="M713 1063l-148 -192h-103l83 192h168zM494 1063l-148 -192h-103l83 192h168zM781 800v-434q0 -80 -24 -149t-69.5 -120.5t-111 -81t-149.5 -29.5q-82 0 -148 29t-112.5 79.5t-71.5 119t-25 147.5v439h155v-440q0 -46 13 -86.5t38 -70.5t62.5 -47.5t85.5 -17.5
q51 0 88.5 16.5t62 46t37 69.5t12.5 88v442h157z" />
    <glyph glyph-name="uhungarumlaut" unicode="&#x171;" horiz-adv-x="632" 
d="M606 842l-149 -192h-103l84 192h168zM387 842l-149 -192h-103l84 192h168zM572 0h-144v44q-14 -14 -32.5 -24.5t-39 -18t-42 -11.5t-40.5 -4q-44 0 -84.5 14t-71.5 43t-49.5 75t-18.5 109v351h144v-344q0 -31 9.5 -54.5t25 -39t36 -23t42.5 -7.5q70 0 121 48v420h144
v-578z" />
    <glyph glyph-name="Uogonek" unicode="&#x172;" horiz-adv-x="831" 
d="M781 800v-434q0 -63 -15.5 -120t-44.5 -104t-72 -82t-98 -54q-23 -8 -44.5 -19t-32.5 -19q-35 -23 -49.5 -45.5t-14.5 -52.5q0 -16 6 -28.5t16 -21t21.5 -13t22.5 -4.5q23 0 43.5 3.5t44.5 11.5l-26 -75q-22 -10 -46 -15.5t-59 -5.5q-19 0 -44.5 7t-48.5 22.5t-39.5 40.5
t-17.5 61q-1 23 7 43t21.5 37t31.5 31t39 25q-72 8 -130 39.5t-98.5 81t-62 114t-21.5 137.5v439h155v-440q0 -46 13 -86.5t38 -70.5t62.5 -47.5t85.5 -17.5q51 0 88.5 16.5t62 46t37 69.5t12.5 88v442h157z" />
    <glyph glyph-name="uogonek" unicode="&#x173;" horiz-adv-x="632" 
d="M574 -182l-26 -75q-21 -11 -43 -16t-52 -5q-19 0 -44.5 7t-48.5 22.5t-39.5 40.5t-17.5 61q-1 26 9.5 48.5t27.5 41.5t40 33.5t48 24.5v43q-14 -14 -32.5 -24.5t-39 -18t-42 -11.5t-40.5 -4q-44 0 -84.5 14t-71.5 43t-49.5 75t-18.5 109v351h144v-344q0 -31 9.5 -54.5
t25 -39t36 -23t42.5 -7.5q70 0 121 48v420h144v-578q-25 -9 -45 -18t-34 -17q-35 -22 -49 -43.5t-14 -51.5q0 -16 6 -28.5t16 -21t21.5 -13t22.5 -4.5q20 0 37 3t41 12z" />
    <glyph glyph-name="Wcircumflex" unicode="&#x174;" horiz-adv-x="1107" 
d="M751 871h-108l-85 85l-86 -85h-108l129 193h129zM1102 800l-260 -800h-136l-147 494l-148 -494h-136l-260 800h164l169 -517l146 517h128l146 -518l171 518h163z" />
    <glyph glyph-name="wcircumflex" unicode="&#x175;" horiz-adv-x="889" 
d="M640 650h-108l-85 85l-86 -85h-108l129 193h129zM884 579l-194 -580h-125l-115 345l-115 -345h-125l-195 580h152l109 -362l109 362h128l110 -362l109 362h152z" />
    <glyph glyph-name="Ycircumflex" unicode="&#x176;" horiz-adv-x="812" 
d="M599 871h-108l-85 85l-86 -85h-108l129 193h129zM807 799l-326 -472v-328h-157v330l-309 470h180l208 -336l217 336h187z" />
    <glyph glyph-name="ycircumflex" unicode="&#x177;" horiz-adv-x="590" 
d="M493 650h-108l-85 85l-86 -85h-108l129 193h129zM585 579l-260 -687q-29 -77 -76 -111t-112 -34q-10 0 -22 1.5t-23 4.5l-48 134q17 -8 35 -12.5t34 -4.5q34 0 62 15.5t43 57.5l20 58l-223 578h157l133 -372l125 372h155z" />
    <glyph glyph-name="Ydieresis" unicode="&#x178;" horiz-adv-x="812" 
d="M584 871h-130v130h130v-130zM354 871h-130v130h130v-130zM807 799l-326 -472v-328h-157v330l-309 470h180l208 -336l217 336h187z" />
    <glyph glyph-name="Zacute" unicode="&#x179;" horiz-adv-x="724" 
d="M537 1064l-144 -193h-106l90 193h160zM694 800l-387 -647h384v-153h-651l396 662l-381 -1v139h639z" />
    <glyph glyph-name="zacute" unicode="&#x17a;" horiz-adv-x="557" 
d="M444 843l-144 -193h-106l90 193h160zM542 579l-287 -450h276v-129h-511l281 450h-254v129h495z" />
    <glyph glyph-name="Zdotaccent" unicode="&#x17b;" horiz-adv-x="724" 
d="M435 872h-145v145h145v-145zM694 800l-387 -647h384v-153h-651l396 662l-381 -1v139h639z" />
    <glyph glyph-name="zdotaccent" unicode="&#x17c;" horiz-adv-x="557" 
d="M360 652h-145v145h145v-145zM542 579l-287 -450h276v-129h-511l281 450h-254v129h495z" />
    <glyph glyph-name="Zcaron" unicode="&#x17d;" horiz-adv-x="724" 
d="M568 1064l-129 -193h-129l-129 193h108l85 -85l86 85h108zM694 800l-387 -647h384v-153h-651l396 662l-381 -1v139h639z" />
    <glyph glyph-name="zcaron" unicode="&#x17e;" horiz-adv-x="557" 
d="M483 843l-129 -193h-128l-130 193h108l86 -85l86 85h107zM542 579l-287 -450h276v-129h-511l281 450h-254v129h495z" />
    <glyph glyph-name="florin" unicode="&#x192;" horiz-adv-x="487" 
d="M522 948l-26 -120q-18 7 -33 9.5t-35 2.5q-43 0 -65 -23t-33 -74l-9 -44h89l-27 -127h-89l-118 -552q-18 -88 -73.5 -133.5t-148.5 -45.5q-29 0 -55 4t-49 11l25 120q18 -7 33.5 -9.5t34.5 -2.5q43 0 65.5 23t33.5 74l108 511h-70l27 127h71l9 43q23 109 75.5 165
t154.5 56q29 0 55.5 -4t49.5 -11z" />
    <glyph glyph-name="Aringacute" unicode="&#x1fa;" horiz-adv-x="887" 
d="M612 1263l-144 -193h-106l90 193h160zM888 0h-171l-74 160h-388l-74 -160h-171l378 800q-26 15 -41.5 42t-15.5 60q0 24 9.5 45.5t25.5 37.5t37.5 25.5t45.5 9.5t46 -9.5t38 -25.5t25.5 -37.5t9.5 -45.5q0 -33 -16.5 -60t-42.5 -43zM493 902q0 18 -13 30.5t-31 12.5
t-30.5 -12.5t-12.5 -30.5q0 -19 12.5 -31.5t30.5 -12.5t31 12.5t13 31.5zM582 289l-133 289l-135 -289h268z" />
    <glyph glyph-name="aringacute" unicode="&#x1fb;" horiz-adv-x="580" 
d="M446 1109l-144 -193h-106l90 193h160zM406 754q0 -25 -9.5 -46.5t-25.5 -37.5t-38 -25.5t-46 -9.5t-45.5 9.5t-37.5 25.5t-25.5 37.5t-9.5 46.5q0 24 9.5 45.5t25.5 37.5t37.5 25.5t45.5 9.5t46 -9.5t38 -25.5t25.5 -37.5t9.5 -45.5zM530 0h-145v31q-38 -26 -80.5 -36
t-87.5 -10q-42 0 -76 12.5t-59 36t-38.5 55.5t-13.5 71q0 49 21.5 86t58.5 61.5t86.5 36.5t106.5 11h83q0 52 -32.5 81.5t-95.5 29.5q-30 0 -62 -11t-64 -40l-85 86q46 44 106.5 68t124.5 24q60 0 107 -19t76 -49q38 -38 53.5 -85t15.5 -120v-320zM331 754q0 18 -13 30.5
t-31 12.5t-31 -12.5t-13 -30.5q0 -19 13 -31.5t31 -12.5t31 12.5t13 31.5zM385 144v107h-66q-30 0 -56.5 -4t-46 -13.5t-31 -24.5t-11.5 -36q0 -30 23.5 -49t60.5 -19q32 0 63.5 10t63.5 29z" />
    <glyph glyph-name="AEacute" unicode="&#x1fc;" horiz-adv-x="1085" 
d="M759 1066l-153 -193h-106l99 193h160zM1075 0h-368h-160l-17 160h-268l-92 -160h-170l463 800h120v-1h408l14 -128h-376l19 -191h372l13 -125h-371l23 -220h376zM517 289l-29 269l-153 -269h182z" />
    <glyph glyph-name="aeacute" unicode="&#x1fd;" horiz-adv-x="1017" 
d="M676 843l-144 -193h-106l90 193h160zM987 290q0 -14 -1.5 -29t-3.5 -31h-462q8 -25 22.5 -47.5t35.5 -39t47.5 -26t58.5 -9.5q39 0 78 13.5t65 36.5l91 -91q-60 -45 -117.5 -63.5t-121.5 -18.5q-45 0 -84.5 11t-74.5 31v-27h-135v31q-38 -26 -77.5 -36t-90.5 -10
q-42 0 -76 12.5t-59 36t-38.5 55.5t-13.5 71q0 49 21.5 85.5t58.5 61t86.5 36.5t106.5 12h83q0 111 -128 111q-30 0 -62 -11t-64 -40l-85 86q46 44 106.5 68t124.5 24q60 0 107 -19t76 -49q7 -7 10 -11q42 37 94.5 58t112.5 21q61 0 117 -22.5t99 -62.5t68 -95.5t25 -122.5z
M836 346q-17 55 -60.5 88.5t-98.5 33.5q-54 0 -97 -33.5t-60 -88.5h316zM385 144v107h-66q-30 0 -56.5 -4t-46 -13.5t-31 -24.5t-11.5 -36q0 -30 23.5 -49t60.5 -19q32 0 63.5 10t63.5 29z" />
    <glyph glyph-name="Oslashacute" unicode="&#x1fe;" horiz-adv-x="939" 
d="M635 1064l-144 -193h-106l90 193h160zM899 400q0 -86 -33.5 -162t-91.5 -132t-135 -88.5t-164 -32.5q-57 0 -108.5 13.5t-97.5 38.5l-45 -60h-124l87 118q-63 57 -100 135.5t-37 169.5q0 87 33.5 163t91.5 132t135.5 88t164.5 32q56 0 107.5 -13.5t98.5 -38.5l44 60h124
l-86 -118q63 -57 99.5 -135t36.5 -170zM743 400q0 53 -19 99.5t-53 82.5l-313 -424q55 -26 117 -26q55 0 104 21.5t85.5 58t57.5 85.5t21 103zM591 642q-54 26 -116 26q-56 0 -105 -21.5t-85.5 -58t-57.5 -85t-21 -103.5q0 -52 19 -98.5t53 -83.5z" />
    <glyph glyph-name="oslashacute" unicode="&#x1ff;" 
d="M506 843l-144 -193h-106l90 193h160zM657 289q0 -65 -24 -120.5t-66 -96t-98.5 -64t-120.5 -23.5q-77 0 -142 34l-32 -42h-112l70 95q-43 42 -67.5 97t-24.5 120q0 63 24.5 118.5t66.5 97t98 65t119 23.5q78 0 144 -34l30 42h113l-69 -94q42 -42 66.5 -97t24.5 -121z
M513 289q0 29 -8.5 55.5t-23.5 48.5l-196 -267q31 -13 63 -13q34 0 64 13.5t52.5 37.5t35.5 56t13 69zM412 451q-31 14 -64 14q-34 0 -64 -13.5t-52.5 -37.5t-35.5 -56t-13 -69q0 -29 8.5 -55.5t23.5 -48.5z" />
    <glyph glyph-name="uni0218" unicode="&#x218;" horiz-adv-x="644" 
d="M614 210q0 -45 -19.5 -85.5t-54.5 -71.5t-83 -49.5t-106 -18.5q-52 0 -93.5 6t-78 19t-70 33.5t-69.5 49.5l110 111q48 -40 94 -56.5t100 -16.5q22 0 41.5 6.5t34 17.5t23 26t8.5 33q0 19 -7 34t-25 29t-50 28.5t-82 32.5q-44 16 -84.5 36.5t-71 49.5t-49 68t-18.5 92
q0 51 20.5 94t56 73.5t83 47.5t102.5 17q92 0 155 -24t112 -70l-108 -109q-30 29 -67 44.5t-87 15.5q-23 0 -42.5 -7t-33.5 -18.5t-22.5 -27t-8.5 -32.5q0 -19 8 -34.5t27 -30t50.5 -29t78.5 -31.5q60 -21 103 -46t70.5 -55t40 -67.5t12.5 -84.5zM416 -200q0 -21 -6.5 -40.5
t-19 -34.5t-31 -24t-42.5 -9q-8 0 -17 2t-16 4v10q26 5 42.5 24.5t16.5 45.5q0 4 -1 10.5t-3 11.5h-58v134h135v-134z" />
    <glyph glyph-name="uni0219" unicode="&#x219;" horiz-adv-x="513" 
d="M483 162q0 -43 -20 -76.5t-52 -56t-72 -34t-79 -11.5q-66 0 -121.5 24.5t-97.5 78.5l87 88q26 -33 60 -51.5t73 -18.5q34 0 56.5 12.5t22.5 37.5q0 26 -32 43.5t-90 34.5q-34 10 -66 25.5t-57 38t-40 51.5t-15 67q0 42 19.5 75.5t51 56t71.5 34.5t81 12q132 0 216 -100
l-86 -87q-25 31 -57 49t-70 18q-13 0 -27.5 -3.5t-27 -10t-20.5 -17t-8 -23.5q0 -23 30.5 -40t87.5 -34q37 -11 70 -28t58 -39.5t39.5 -51t14.5 -64.5zM332 -200q0 -21 -6.5 -40.5t-19 -34.5t-31 -24t-42.5 -9q-8 0 -17 2t-16 4v10q26 5 42.5 24.5t16.5 45.5q0 4 -1 10.5
t-3 11.5h-58v134h135v-134z" />
    <glyph glyph-name="uni021A" unicode="&#x21a;" horiz-adv-x="649" 
d="M629 661h-221v-661h-157v661h-221v138h599v-138zM397 -200q0 -21 -6.5 -40.5t-19 -34.5t-31 -24t-42.5 -9q-8 0 -17 2t-16 4v10q26 5 42.5 24.5t16.5 45.5q0 4 -1 10.5t-3 11.5h-58v134h135v-134z" />
    <glyph glyph-name="uni021B" unicode="&#x21b;" horiz-adv-x="407" 
d="M382 13q-22 -14 -51 -21t-58 -7q-51 0 -86 12.5t-56 38.5t-30.5 66t-9.5 94v253h-76v65q70 29 113.5 86t59.5 148h47v-169h146v-130h-146v-263q0 -22 5.5 -36t14.5 -22t20.5 -11t24.5 -3q17 0 41 6t41 20v-127zM317 -200q0 -21 -6.5 -40.5t-19 -34.5t-31 -24t-42.5 -9
q-8 0 -17 2t-16 4v10q26 5 42.5 24.5t16.5 45.5q0 4 -1 10.5t-3 11.5h-58v134h135v-134z" />
    <glyph glyph-name="circumflex" unicode="&#x2c6;" horiz-adv-x="580" 
d="M478 650h-108l-85 85l-86 -85h-108l129 193h129z" />
    <glyph glyph-name="caron" unicode="&#x2c7;" horiz-adv-x="580" 
d="M478 843l-129 -193h-128l-130 193h108l86 -85l86 85h107z" />
    <glyph glyph-name="breve" unicode="&#x2d8;" horiz-adv-x="601" 
d="M482 829q-6 -46 -23 -80t-42 -56t-55.5 -32.5t-62.5 -10.5q-33 0 -63.5 11t-55 33t-41.5 55.5t-23 79.5h116q7 -39 28.5 -53.5t40.5 -14.5q18 0 38 14.5t27 53.5h116z" />
    <glyph glyph-name="dotaccent" unicode="&#x2d9;" horiz-adv-x="307" 
d="M462 650h-145v145h145v-145z" />
    <glyph glyph-name="ring" unicode="&#x2da;" horiz-adv-x="580" 
d="M406 769q0 -25 -9.5 -46.5t-25.5 -37.5t-38 -25.5t-46 -9.5t-45.5 9.5t-37.5 25.5t-25.5 37.5t-9.5 46.5q0 24 9.5 45.5t25.5 37.5t37.5 25.5t45.5 9.5t46 -9.5t38 -25.5t25.5 -37.5t9.5 -45.5zM331 769q0 18 -13 30.5t-31 12.5t-31 -12.5t-13 -30.5q0 -19 13 -31.5
t31 -12.5t31 12.5t13 31.5z" />
    <glyph glyph-name="ogonek" unicode="&#x2db;" horiz-adv-x="887" 
d="M784 -182l-26 -75q-22 -10 -46 -15.5t-59 -5.5q-19 0 -44.5 7t-48.5 22.5t-39.5 40.5t-17.5 61q-1 27 10 50t29 42t42 33.5t50 24.5h148q-25 -9 -50 -19.5t-39 -18.5q-35 -22 -49 -43.5t-14 -51.5q0 -16 6 -28.5t16 -21t21.5 -13t22.5 -4.5q23 0 43.5 3.5t44.5 11.5z" />
    <glyph glyph-name="tilde" unicode="&#x2dc;" horiz-adv-x="580" 
d="M498 821q-1 -31 -8 -61.5t-23 -55t-40.5 -39.5t-60.5 -15q-23 0 -43 7t-39 15t-37 15t-36 7t-27 -14t-11 -30h-86q0 30 7.5 60.5t23 55t40.5 40t60 15.5q22 0 42.5 -7t39.5 -15t36.5 -15t32.5 -7q20 0 30 13t13 31h86z" />
    <glyph glyph-name="hungarumlaut" unicode="&#x2dd;" horiz-adv-x="792" 
d="M650 842l-149 -192h-103l84 192h168zM431 842l-149 -192h-103l84 192h168z" />
    <glyph glyph-name="pi" unicode="&#x3c0;" horiz-adv-x="720" 
d="M690 16q-19 -14 -45 -23t-64 -9q-48 0 -78.5 17t-47.5 43.5t-23 59.5t-6 65v282h-134v-263q0 -54 -7.5 -103.5t-24.5 -84.5h-146q22 48 28.5 99t6.5 96v257h-99v127h625v-128h-107v-285q0 -20 4.5 -32.5t12 -20t16 -10t16.5 -2.5q11 0 19 2.5t20 10.5z" />
    <glyph glyph-name="uni1E02" unicode="&#x1e02;" horiz-adv-x="680" 
d="M404 872h-145v145h145v-145zM650 229q0 -50 -20.5 -92.5t-54.5 -73t-78.5 -47.5t-93.5 -17l-323 1v800h288q52 0 96.5 -15.5t77.5 -45t51.5 -72t18.5 -95.5q0 -45 -20 -87t-53 -71q26 -13 46.5 -33t35 -44.5t22 -52t7.5 -55.5zM459 569q0 29 -11 50t-29.5 35t-42.5 21
t-50 7h-91v-220q25 -1 45 -1h46t50 6t42.5 19t29.5 33.5t11 49.5zM489 238q0 25 -9.5 46t-26 35.5t-38 22.5t-46.5 8q-34 1 -67 0.5t-67 -0.5v-221h116q25 0 50 6t44.5 19.5t31.5 34t12 49.5z" />
    <glyph glyph-name="uni1E03" unicode="&#x1e03;" horiz-adv-x="646" 
d="M419 650h-145v145h145v-145zM616 289q0 -61 -20.5 -116t-57.5 -96.5t-88 -66t-112 -24.5q-38 0 -71 10.5t-62 33.5v-30h-145v830h146v-280q25 20 59.5 32t72.5 12q53 0 103 -23.5t89 -64.5t62.5 -96.5t23.5 -120.5zM470 289q0 40 -12 73t-33.5 56.5t-51 36t-65.5 12.5
q-23 0 -53 -9.5t-50 -24.5v-278q47 -43 106 -43q34 0 63.5 13t50.5 36.5t33 56t12 71.5z" />
    <glyph glyph-name="uni1E0A" unicode="&#x1e0a;" horiz-adv-x="831" 
d="M454 872h-145v145h145v-145zM791 400q0 -83 -28 -155.5t-78 -127t-119.5 -86t-151.5 -31.5h-334v800h334q82 0 151.5 -32t119.5 -86t78 -127t28 -155zM634 404q0 51 -20.5 100.5t-56 88t-83.5 62t-104 23.5h-135v-546h135q55 0 103.5 22t84 59.5t56 87t20.5 103.5z" />
    <glyph glyph-name="uni1E0B" unicode="&#x1e0b;" horiz-adv-x="656" 
d="M382 650h-145v145h145v-145zM596 0h-147v30q-28 -23 -61 -33.5t-70 -10.5q-61 0 -112 24.5t-88 66t-57.5 96.5t-20.5 116q0 65 23.5 120.5t62.5 96.5t89 64.5t103 23.5q37 0 72 -10t60 -28v274h146v-830zM451 155v278q-10 7 -23 13.5t-27 11t-28 7t-25 2.5
q-36 0 -65.5 -12.5t-51.5 -36t-34 -56.5t-12 -73q0 -39 12 -71.5t33 -56t50.5 -36.5t64.5 -13q57 0 106 43z" />
    <glyph glyph-name="uni1E1E" unicode="&#x1e1e;" horiz-adv-x="628" 
d="M414 872h-145v145h145v-145zM608 666h-376v-186h371v-126h-371v-354h-152v799h528v-133z" />
    <glyph glyph-name="uni1E1F" unicode="&#x1e1f;" horiz-adv-x="367" 
d="M324 902h-145v145h145v-145zM382 698q-21 8 -37 10.5t-35 2.5q-42 0 -59.5 -19t-17.5 -69v-46h91v-126h-91v-451h-143v451h-70v126h70v44q0 109 40.5 166t142.5 57q58 0 109 -14v-132z" />
    <glyph glyph-name="uni1E40" unicode="&#x1e40;" horiz-adv-x="948" 
d="M544 872h-145v145h145v-145zM878 0h-152v534l-252 -425l-242 429v-538h-152v800h175l222 -397l232 397h169v-800z" />
    <glyph glyph-name="uni1E41" unicode="&#x1e41;" horiz-adv-x="965" 
d="M562 650h-145v145h145v-145zM915 0h-143v345q0 61 -29.5 92.5t-72.5 31.5q-33 0 -62.5 -10.5t-57.5 -34.5q9 -35 9 -79v-345h-144v345q0 61 -29.5 92.5t-71.5 31.5q-33 0 -58 -11.5t-52 -36.5v-421h-144v578h144v-43q27 26 63.5 42t74.5 16q42 0 84.5 -19t74.5 -55
q45 40 91 57t101 17q45 0 85.5 -13.5t70.5 -43t48 -75t18 -109.5v-352z" />
    <glyph glyph-name="uni1E56" unicode="&#x1e56;" horiz-adv-x="660" 
d="M404 872h-145v145h145v-145zM640 531q0 -57 -21.5 -106.5t-58.5 -86t-87 -57t-106 -20.5h-132v-261h-155v799h287q56 0 106 -20.5t87 -56.5t58.5 -85t21.5 -106zM486 533q0 31 -11.5 58t-31.5 47t-47 32t-58 12h-103v-302h103q31 0 58 12.5t47 33.5t31.5 48.5t11.5 58.5z
" />
    <glyph glyph-name="uni1E57" unicode="&#x1e57;" horiz-adv-x="646" 
d="M397 650h-145v145h145v-145zM616 288q0 -61 -20.5 -116t-57.5 -96.5t-88 -66t-112 -24.5q-38 0 -71 10.5t-62 33.5l1 -280h-146v830h146v-30q25 20 59.5 32t72.5 12q53 0 103 -23.5t89 -64.5t62.5 -96.5t23.5 -120.5zM469 287q0 41 -12 74t-33.5 56.5t-51 36t-65.5 12.5
q-23 0 -52.5 -9.5t-49.5 -25.5v-277q47 -43 105 -43q34 0 63.5 13t50.5 36.5t33 56t12 70.5z" />
    <glyph glyph-name="uni1E60" unicode="&#x1e60;" horiz-adv-x="644" 
d="M396 872h-145v145h145v-145zM614 210q0 -45 -19.5 -85.5t-54.5 -71.5t-83 -49.5t-106 -18.5q-52 0 -93.5 6t-78 19t-70 33.5t-69.5 49.5l110 111q48 -40 94 -56.5t100 -16.5q22 0 41.5 6.5t34 17.5t23 26t8.5 33q0 19 -7 34t-25 29t-50 28.5t-82 32.5q-44 16 -84.5 36.5
t-71 49.5t-49 68t-18.5 92q0 51 20.5 94t56 73.5t83 47.5t102.5 17q92 0 155 -24t112 -70l-108 -109q-30 29 -67 44.5t-87 15.5q-23 0 -42.5 -7t-33.5 -18.5t-22.5 -27t-8.5 -32.5q0 -19 8 -34.5t27 -30t50.5 -29t78.5 -31.5q60 -21 103 -46t70.5 -55t40 -67.5t12.5 -84.5z
" />
    <glyph glyph-name="uni1E61" unicode="&#x1e61;" horiz-adv-x="513" 
d="M330 650h-145v145h145v-145zM483 162q0 -43 -20 -76.5t-52 -56t-72 -34t-79 -11.5q-66 0 -121.5 24.5t-97.5 78.5l87 88q26 -33 60 -51.5t73 -18.5q34 0 56.5 12.5t22.5 37.5q0 26 -32 43.5t-90 34.5q-34 10 -66 25.5t-57 38t-40 51.5t-15 67q0 42 19.5 75.5t51 56
t71.5 34.5t81 12q132 0 216 -100l-86 -87q-25 31 -57 49t-70 18q-13 0 -27.5 -3.5t-27 -10t-20.5 -17t-8 -23.5q0 -23 30.5 -40t87.5 -34q37 -11 70 -28t58 -39.5t39.5 -51t14.5 -64.5z" />
    <glyph glyph-name="uni1E6A" unicode="&#x1e6a;" horiz-adv-x="649" 
d="M404 872h-145v145h145v-145zM629 661h-221v-661h-157v661h-221v138h599v-138z" />
    <glyph glyph-name="uni1E6B" unicode="&#x1e6b;" horiz-adv-x="407" 
d="M235 800h-145v145h145v-145zM382 13q-21 -14 -50.5 -21t-58.5 -7q-51 0 -86 12.5t-56 38t-30.5 65.5t-9.5 94v256h-76v126h76v156h144v-156h146v-126h-146v-261q0 -45 18.5 -60.5t47.5 -15.5q17 0 41 7t40 19v-127z" />
    <glyph glyph-name="Wgrave" unicode="&#x1e80;" horiz-adv-x="1107" 
d="M647 871h-106l-144 193h161zM1102 800l-260 -800h-136l-147 494l-148 -494h-136l-260 800h164l169 -517l146 517h128l146 -518l171 518h163z" />
    <glyph glyph-name="wgrave" unicode="&#x1e81;" horiz-adv-x="889" 
d="M529 650h-106l-144 193h161zM884 579l-194 -580h-125l-115 345l-115 -345h-125l-195 580h152l109 -362l109 362h128l110 -362l109 362h152z" />
    <glyph glyph-name="Wacute" unicode="&#x1e82;" horiz-adv-x="1107" 
d="M720 1064l-144 -193h-106l90 193h160zM1102 800l-260 -800h-136l-147 494l-148 -494h-136l-260 800h164l169 -517l146 517h128l146 -518l171 518h163z" />
    <glyph glyph-name="wacute" unicode="&#x1e83;" horiz-adv-x="889" 
d="M606 843l-144 -193h-106l90 193h160zM884 579l-194 -580h-125l-115 345l-115 -345h-125l-195 580h152l109 -362l109 362h128l110 -362l109 362h152z" />
    <glyph glyph-name="Wdieresis" unicode="&#x1e84;" horiz-adv-x="1107" 
d="M739 871h-130v130h130v-130zM509 871h-130v130h130v-130zM1102 800l-260 -800h-136l-147 494l-148 -494h-136l-260 800h164l169 -517l146 517h128l146 -518l171 518h163z" />
    <glyph glyph-name="wdieresis" unicode="&#x1e85;" horiz-adv-x="889" 
d="M629 650h-130v130h130v-130zM399 650h-130v130h130v-130zM884 579l-194 -580h-125l-115 345l-115 -345h-125l-195 580h152l109 -362l109 362h128l110 -362l109 362h152z" />
    <glyph glyph-name="Ygrave" unicode="&#x1ef2;" horiz-adv-x="812" 
d="M472 871h-106l-144 193h161zM807 799l-326 -472v-328h-157v330l-309 470h180l208 -336l217 336h187z" />
    <glyph glyph-name="ygrave" unicode="&#x1ef3;" horiz-adv-x="590" 
d="M369 650h-106l-144 193h161zM585 579l-260 -687q-29 -77 -76 -111t-112 -34q-10 0 -22 1.5t-23 4.5l-48 134q17 -8 35 -12.5t34 -4.5q34 0 62 15.5t43 57.5l20 58l-223 578h157l133 -372l125 372h155z" />
    <glyph glyph-name="endash" unicode="&#x2013;" horiz-adv-x="587" 
d="M557 260h-527v134h527v-134z" />
    <glyph glyph-name="emdash" unicode="&#x2014;" horiz-adv-x="919" 
d="M889 260h-859v134h859v-134z" />
    <glyph glyph-name="quoteleft" unicode="&#x2018;" horiz-adv-x="194" 
d="M174 562h-149v149q0 24 7 45.5t20.5 38t34 26t47.5 9.5q10 0 19.5 -2t17.5 -4v-11q-29 -5 -47 -27t-18 -51q0 -5 1 -12t3 -12h64v-149z" />
    <glyph glyph-name="quoteright" unicode="&#x2019;" horiz-adv-x="194" 
d="M174 681q0 -24 -7 -45.5t-20.5 -38t-34 -26t-47.5 -9.5q-10 0 -19.5 2t-17.5 4v11q29 5 47 27t18 51q0 5 -1 12t-3 12h-64v149h149v-149z" />
    <glyph glyph-name="quotesinglbase" unicode="&#x201a;" horiz-adv-x="199" 
d="M174 0q0 -24 -7 -45.5t-20.5 -38t-34 -26t-47.5 -9.5q-10 0 -19.5 2t-17.5 4v11q29 5 47 27t18 51q0 5 -1 12t-3 12h-64v149h149v-149z" />
    <glyph glyph-name="quotedblleft" unicode="&#x201c;" horiz-adv-x="404" 
d="M379 562h-149v149q0 24 7 45.5t20.5 38t34 26t47.5 9.5q10 0 19.5 -2t17.5 -4v-11q-29 -5 -47 -27t-18 -51q0 -5 1 -12t3 -12h64v-149zM179 562h-149v149q0 24 7 45.5t20.5 38t34 26t47.5 9.5q10 0 19.5 -2t17.5 -4v-11q-29 -5 -47 -27t-18 -51q0 -5 1 -12t3 -12h64v-149
z" />
    <glyph glyph-name="quotedblright" unicode="&#x201d;" horiz-adv-x="404" 
d="M379 681q0 -24 -7 -45.5t-20.5 -38t-34 -26t-47.5 -9.5q-10 0 -19.5 2t-17.5 4v11q29 5 47 27t18 51q0 5 -1 12t-3 12h-64v149h149v-149zM179 681q0 -24 -7 -45.5t-20.5 -38t-34 -26t-47.5 -9.5q-10 0 -19.5 2t-17.5 4v11q29 5 47 27t18 51q0 5 -1 12t-3 12h-64v149h149
v-149z" />
    <glyph glyph-name="quotedblbase" unicode="&#x201e;" horiz-adv-x="399" 
d="M374 0q0 -24 -7 -45.5t-20.5 -38t-34 -26t-47.5 -9.5q-10 0 -19.5 2t-17.5 4v11q29 5 47 27t18 51q0 5 -1 12t-3 12h-64v149h149v-149zM174 0q0 -24 -7 -45.5t-20.5 -38t-34 -26t-47.5 -9.5q-10 0 -19.5 2t-17.5 4v11q29 5 47 27t18 51q0 5 -1 12t-3 12h-64v149h149v-149
z" />
    <glyph glyph-name="dagger" unicode="&#x2020;" horiz-adv-x="407" 
d="M382 13q-21 -14 -50.5 -21t-58.5 -7q-51 0 -86 12.5t-56 38t-30.5 65.5t-9.5 94v258h-76v126h76v154h144v-154h146v-126h-146v-263q0 -45 18.5 -60.5t47.5 -15.5q17 0 41 7t40 19v-127z" />
    <glyph glyph-name="daggerdbl" unicode="&#x2021;" horiz-adv-x="908" 
d="M883 415q0 -89 -33.5 -167t-92 -136.5t-136.5 -92t-167 -33.5t-167 33.5t-136.5 92t-92 136.5t-33.5 167t33.5 167t92 136.5t136.5 92t167 33.5t167 -33.5t136.5 -92t92 -136.5t33.5 -167zM801 415q0 72 -27.5 135t-74.5 110t-110 74.5t-135 27.5t-135 -27.5t-110 -74.5
t-74.5 -110t-27.5 -135t27.5 -135t74.5 -110t110 -74.5t135 -27.5t135 27.5t110 74.5t74.5 110t27.5 135zM671 500q0 -38 -14 -70.5t-39 -57.5t-58 -39t-70 -14h-90v-174h-102v536h192q37 0 70 -14t58 -39t39 -58t14 -70zM571 502q0 21 -8 39.5t-21.5 32t-32 21.5t-39.5 8
h-70v-203h70q21 0 39.5 8t32 22t21.5 32.5t8 39.5z" />
    <glyph glyph-name="bullet" unicode="&#x2022;" horiz-adv-x="381" 
d="M301 226h-301v301h301v-301z" />
    <glyph glyph-name="ellipsis" unicode="&#x2026;" horiz-adv-x="769" 
d="M709 0h-149v149h149v-149zM459 0h-149v149h149v-149zM209 0h-149v149h149v-149z" />
    <glyph glyph-name="perthousand" unicode="&#x2030;" horiz-adv-x="1384" 
d="M1344 182q0 -41 -16 -77.5t-43 -63.5t-63.5 -43t-77.5 -16q-42 0 -78.5 16t-63.5 43t-42.5 63.5t-15.5 77.5q0 42 15.5 78.5t42.5 63.5t63.5 42.5t78.5 15.5q41 0 77.5 -15.5t63.5 -42.5t43 -63.5t16 -78.5zM894 182q0 -41 -16 -77.5t-43 -63.5t-63.5 -43t-77.5 -16
q-42 0 -78.5 16t-63.5 43t-42.5 63.5t-15.5 77.5q0 42 15.5 78.5t42.5 63.5t63.5 42.5t78.5 15.5q41 0 77.5 -15.5t63.5 -42.5t43 -63.5t16 -78.5zM440 616q0 -41 -16 -77.5t-43 -63.5t-63.5 -43t-77.5 -16t-77.5 16t-63.5 43t-43 63.5t-16 77.5t16 77.5t43 63.5t63.5 43
t77.5 16t77.5 -16t63.5 -43t43 -63.5t16 -77.5zM783 800l-536 -846h-125l536 846h125zM1224 182q0 33 -23.5 56.5t-56.5 23.5t-56.5 -23.5t-23.5 -56.5t23.5 -56.5t56.5 -23.5t56.5 23.5t23.5 56.5zM774 182q0 33 -23.5 56.5t-56.5 23.5t-56.5 -23.5t-23.5 -56.5t23.5 -56.5
t56.5 -23.5t56.5 23.5t23.5 56.5zM320 616q0 33 -23.5 56.5t-56.5 23.5t-56.5 -23.5t-23.5 -56.5t23.5 -56.5t56.5 -23.5t56.5 23.5t23.5 56.5z" />
    <glyph glyph-name="guilsinglleft" unicode="&#x2039;" horiz-adv-x="369" 
d="M349 545l-180 -272l179 -273h-148l-180 273l180 272h149z" />
    <glyph glyph-name="guilsinglright" unicode="&#x203a;" horiz-adv-x="367" 
d="M347 273l-178 -273h-149l180 273l-180 272h149z" />
    <glyph glyph-name="fraction" unicode="&#x2044;" horiz-adv-x="621" 
d="M641 795l-536 -846h-125l536 846h125z" />
    <glyph glyph-name="uni204A" unicode="&#x204a;" horiz-adv-x="482" 
d="M442 0h-144v448h-258v131h402v-579z" />
    <glyph glyph-name="euro" unicode="&#x20ac;" horiz-adv-x="807" 
d="M767 40q-46 -26 -100.5 -40.5t-115.5 -14.5q-72 0 -136.5 20.5t-117.5 57t-93 86.5t-62 109h-112l59 101h30q-1 10 -1.5 19.5t-0.5 18.5v18t1 18h-88l59 101h50q21 62 60 114t92.5 89t119.5 57.5t140 20.5q60 0 113.5 -15t101.5 -41l-74 -129q-31 18 -66.5 28t-74.5 10
q-81 0 -144.5 -36t-98.5 -98h335l-59 -101h-309q-1 -8 -1 -16v-17q0 -22 3 -41l269 -1l-58 -101h-174q35 -57 96.5 -90.5t140.5 -33.5q37 0 75 9t67 28z" />
    <glyph glyph-name="indianrupeesign" unicode="&#x20b9;" horiz-adv-x="673" 
d="M658 615l-41 -115h-104q-16 -45 -50.5 -84t-82.5 -64q35 -15 55 -37.5t34 -59.5q7 -17 13 -34t12.5 -35.5t14 -40t16.5 -47.5q11 -33 20.5 -56.5t20.5 -41.5h-170l-57 182q-9 30 -21.5 55t-31 43t-44.5 28t-62 10h-95v102h147q40 0 72.5 22.5t49.5 57.5h-294l41 115h254
q-16 36 -49 59.5t-74 23.5h-172h1h-1l36 101h562l-36 -101h-139q25 -38 34 -83h141z" />
    <glyph glyph-name="trademark" unicode="&#x2122;" horiz-adv-x="834" 
d="M784 400h-76v267l-126 -213l-121 215v-269h-76v400h90l108 -194l114 194h87v-400zM330 732h-110v-332h-80v332h-110v68h300v-68z" />
    <glyph glyph-name="Omega" unicode="&#x2126;" horiz-adv-x="782" 
d="M732 459q0 -53 -10.5 -98.5t-28 -84.5t-40.5 -71.5t-48 -57.5h125v-147h-291v135q23 22 46.5 50t43 64.5t31.5 83t12 105.5q0 115 -47.5 180.5t-130.5 65.5q-42 0 -76 -17.5t-58.5 -49.5t-38 -77.5t-13.5 -102.5t12 -103t31.5 -82.5t43.5 -65t49 -51.5v-135h-292v147h123
q-22 22 -44.5 52.5t-40.5 68.5t-29 85t-11 104q0 75 25 140.5t70.5 114t109 76t141.5 27.5q80 0 142.5 -26.5t105.5 -74t65.5 -113t22.5 -142.5z" />
    <glyph glyph-name="partialdiff" unicode="&#x2202;" horiz-adv-x="908" 
d="M883 415q0 -89 -33.5 -167t-92 -136.5t-136.5 -92t-167 -33.5t-167 33.5t-136.5 92t-92 136.5t-33.5 167t33.5 167t92 136.5t136.5 92t167 33.5t167 -33.5t136.5 -92t92 -136.5t33.5 -167zM801 415q0 72 -27.5 135t-74.5 110t-110 74.5t-135 27.5t-135 -27.5t-110 -74.5
t-74.5 -110t-27.5 -135t27.5 -135t74.5 -110t110 -74.5t135 -27.5t135 27.5t110 74.5t74.5 110t27.5 135zM664 225q-39 -45 -94 -70.5t-118 -25.5q-59 0 -110.5 22.5t-89.5 61.5t-60.5 91t-22.5 111t22.5 111t60.5 91t89.5 61.5t110.5 22.5q62 0 115 -24t92 -66l-89 -89
q-20 26 -50.5 43t-67.5 17q-32 0 -60 -13t-49 -36t-33.5 -53.5t-12.5 -64.5q0 -35 12 -65t33 -53t49.5 -36t60.5 -13q38 0 70.5 18.5t52.5 47.5z" />
    <glyph glyph-name="Delta" unicode="&#x2206;" horiz-adv-x="726" 
d="M716 -21h-706l269 821h172zM512 113l-152 490l-152 -490h304z" />
    <glyph glyph-name="product" unicode="&#x220f;" horiz-adv-x="742" 
d="M682 -278h-154v940h-314v-940h-154v1078h622v-1078z" />
    <glyph glyph-name="summation" unicode="&#x2211;" horiz-adv-x="718" 
d="M698 -277h-693l363 544l-340 534h656v-139h-405l258 -393l-275 -407h436v-139z" />
    <glyph glyph-name="minus" unicode="&#x2212;" horiz-adv-x="641" 
d="M591 301h-531v151h531v-151z" />
    <glyph glyph-name="radical" unicode="&#x221a;" horiz-adv-x="675" 
d="M650 718h-109l-165 -762h-144l-156 429h-76v128h188l105 -287l133 620h224v-128z" />
    <glyph glyph-name="infinity" unicode="&#x221e;" horiz-adv-x="684" 
d="M654 213q0 -45 -23.5 -86t-64 -72.5t-94.5 -50t-116 -18.5q-96 0 -177 42t-139 114l107 108q19 -26 45 -48t55.5 -38.5t61.5 -26t63 -9.5q27 0 49.5 7t39 18.5t25.5 26.5t9 31q0 19 -11 35.5t-35 31t-61.5 28.5t-90.5 29q-47 14 -91.5 34.5t-79 50.5t-55.5 70.5t-21 94.5
q0 51 23.5 93.5t63.5 73t93 47.5t112 17q101 0 172.5 -38t122.5 -104l-107 -106q-32 47 -84 76t-121 29q-22 0 -42.5 -6t-36.5 -17t-25.5 -26t-9.5 -33q0 -21 11 -37t34 -29t60 -25.5t88 -27.5q129 -38 189.5 -102t60.5 -157z" />
    <glyph glyph-name="integral" unicode="&#x222b;" horiz-adv-x="389" 
d="M419 833q-9 -30 -16 -55t-17 -62q-22 10 -34.5 13t-23.5 3q-26 0 -42 -18t-16 -63v-707q0 -46 -11.5 -85.5t-35.5 -69t-61 -46.5t-88 -17q-21 0 -49 5t-55 16l30 121q24 -9 35.5 -11.5t23.5 -2.5q28 0 43 17.5t15 62.5v707q0 46 12 86t36.5 69.5t62.5 46.5t89 17
q23 0 51 -6t51 -21z" />
    <glyph glyph-name="approxequal" unicode="&#x2248;" horiz-adv-x="659" 
d="M599 216l-105 -105l-159 159l-150 -151l-107 105l151 152l-159 159l105 105l160 -159l151 151l105 -105l-150 -151z" />
    <glyph glyph-name="notequal" unicode="&#x2260;" horiz-adv-x="712" 
d="M642 189h-308l-50 -135h-106l50 135h-158v134h207l41 110h-248v134h297l47 127h106l-47 -127h169v-134h-218l-41 -110h259v-134z" />
    <glyph glyph-name="lessequal" unicode="&#x2264;" horiz-adv-x="607" 
d="M557 163l-507 227v104l507 227v-144l-314 -135l314 -136v-143zM557 0h-507v134h507v-134z" />
    <glyph glyph-name="greaterequal" unicode="&#x2265;" horiz-adv-x="607" 
d="M557 389l-507 -226v144l313 135l-313 135v144l507 -227v-105zM557 0h-507v134h507v-134z" />
    <glyph glyph-name="lozenge" unicode="&#x25ca;" horiz-adv-x="829" 
d="M809 400l-394 -495l-395 495l395 496zM624 400l-209 262l-210 -262l210 -260z" />
    <glyph glyph-name="apple" unicode="&#xf8ff;" horiz-adv-x="880" 
d="M880 1h-192l-301 401l298 398h195v-799zM328 1h-328v799h325l-298 -397z" />
    <glyph glyph-name="fi" unicode="&#xfb01;" horiz-adv-x="647" 
d="M577 679h-150v150h150v-150zM575 0h-146v579h146v-579zM382 698q-21 8 -37 10.5t-35 2.5q-42 0 -59.5 -19t-17.5 -69v-43h90l1 -2v-126l-1 -2h-90v-450h-143v450h-70v130h70v41q0 109 40.5 166t142.5 57q58 0 109 -14v-132z" />
    <glyph glyph-name="fl" unicode="&#xfb02;" horiz-adv-x="681" 
d="M671 3q-17 -8 -38.5 -13t-44.5 -5q-32 0 -61.5 8.5t-51.5 27.5t-35 49.5t-13 73.5v686h147v-661q0 -36 14.5 -49.5t34.5 -13.5q25 0 48 15v-118zM382 698q-21 8 -37 10.5t-35 2.5q-42 0 -59.5 -19t-17.5 -69v-43h90l1 -2v-126l-1 -2h-90v-450h-143v450h-70v130h70v41
q0 109 40.5 166t142.5 57q58 0 109 -14v-132z" />
    <glyph glyph-name="_375" horiz-adv-x="1000" 
 />
    </font>
</defs>
</svg>
