<?xml version="1.0" standalone="no"?>
<!DOCTYPE svg PUBLIC "-//W3C//DTD SVG 1.1//EN" "http://www.w3.org/Graphics/SVG/1.1/DTD/svg11.dtd" >
<svg xmlns="http://www.w3.org/2000/svg" xmlns:xlink="http://www.w3.org/1999/xlink" version="1.1">
<metadata>
Created by FontForge 20201107 at Thu Apr 13 01:07:53 2023
 By Unknown
Copyright 2020 The Geologica Project Authors (https://github.com/googlefonts/geologica)
</metadata>
<defs>
<font id="GeologicaRoman-Light" horiz-adv-x="0" >
  <font-face 
    font-family="Geologica Roman Light"
    font-weight="300"
    font-stretch="normal"
    units-per-em="2000"
    panose-1="0 0 0 0 0 0 0 0 0 0"
    ascent="1600"
    descent="-400"
    x-height="980"
    cap-height="1400"
    bbox="-398 -699 2889 2426"
    underline-thickness="50"
    underline-position="-125"
    unicode-range="U+000D-FB02"
  />
<missing-glyph horiz-adv-x="1263" 
d="M159 0v1400h945v-1400h-945zM324 146h615v1110h-615v-1110z" />
    <glyph glyph-name="f_f" unicode="ff" horiz-adv-x="1510" 
d="M260 0v1166q0 142 81.5 223t222.5 81q53 0 95.5 -11.5t76.5 -30.5l-38 -148q-29 15 -56.5 21.5t-53.5 6.5q-64 0 -104.5 -33t-40.5 -116v-179h263v-156h-263v-824h-183zM54 824v156h234v-156h-234zM1015 0v1166q0 142 81.5 223t222.5 81q53 0 95.5 -11.5t76.5 -30.5
l-38 -148q-29 15 -56.5 21.5t-53.5 6.5q-64 0 -104.5 -33t-40.5 -116v-179h263v-156h-263v-824h-183zM809 824v156h234v-156h-234z" />
    <glyph glyph-name="f_f_i" unicode="ffi" horiz-adv-x="2012" 
d="M260 0v1166q0 142 81.5 223t222.5 81q53 0 95.5 -11.5t76.5 -30.5l-38 -148q-29 15 -56.5 21.5t-53.5 6.5q-64 0 -104.5 -33t-40.5 -116v-179h263v-156h-263v-824h-183zM54 824v156h234v-156h-234zM1015 0v1166q0 142 81.5 223t222.5 81q53 0 95.5 -11.5t76.5 -30.5
l-38 -148q-29 15 -56.5 21.5t-53.5 6.5q-64 0 -104.5 -33t-40.5 -116v-179h263v-156h-263v-824h-183zM809 824v156h234v-156h-234zM1669 0v980h184v-980h-184zM1761 1165q-52 0 -90 35t-38 89t38 88.5t90 34.5q53 0 90.5 -34.5t37.5 -88.5t-37.5 -89t-90.5 -35z" />
    <glyph glyph-name="f_f_l" unicode="ffl" horiz-adv-x="2012" 
d="M260 0v1166q0 142 81.5 223t222.5 81q53 0 95.5 -11.5t76.5 -30.5l-38 -148q-29 15 -56.5 21.5t-53.5 6.5q-64 0 -104.5 -33t-40.5 -116v-179h263v-156h-263v-824h-183zM54 824v156h234v-156h-234zM1015 0v1166q0 142 81.5 223t222.5 81q53 0 95.5 -11.5t76.5 -30.5
l-38 -148q-29 15 -56.5 21.5t-53.5 6.5q-64 0 -104.5 -33t-40.5 -116v-179h263v-156h-263v-824h-183zM809 824v156h234v-156h-234zM1669 0v1440h184v-1440h-184z" />
    <glyph glyph-name="fi" unicode="fi" horiz-adv-x="1257" 
d="M260 0v1166q0 142 81.5 223t222.5 81q53 0 95.5 -11.5t76.5 -30.5l-38 -148q-29 15 -56.5 21.5t-53.5 6.5q-64 0 -104.5 -33t-40.5 -116v-179h263v-156h-263v-824h-183zM54 824v156h234v-156h-234zM914 0v980h184v-980h-184zM1006 1165q-52 0 -90 35t-38 89t38 88.5
t90 34.5q53 0 90.5 -34.5t37.5 -88.5t-37.5 -89t-90.5 -35z" />
    <glyph glyph-name="fl" unicode="fl" horiz-adv-x="1257" 
d="M260 0v1166q0 142 81.5 223t222.5 81q53 0 95.5 -11.5t76.5 -30.5l-38 -148q-29 15 -56.5 21.5t-53.5 6.5q-64 0 -104.5 -33t-40.5 -116v-179h263v-156h-263v-824h-183zM54 824v156h234v-156h-234zM914 0v1440h184v-1440h-184z" />
    <glyph glyph-name=".notdef" horiz-adv-x="1263" 
d="M159 0v1400h945v-1400h-945zM324 146h615v1110h-615v-1110z" />
    <glyph glyph-name="A" unicode="A" horiz-adv-x="1366" 
d="M26 0l551 1400h195l568 -1400h-212l-139 351h-624l-133 -351h-206zM418 515h516l-264 652z" />
    <glyph glyph-name="Aacute" unicode="&#xc1;" horiz-adv-x="1366" 
d="M26 0l551 1400h195l568 -1400h-212l-139 351h-624l-133 -351h-206zM418 515h516l-264 652zM574 1573l193 323h194l-212 -323h-175z" />
    <glyph glyph-name="Abreve" unicode="&#x102;" horiz-adv-x="1366" 
d="M26 0l551 1400h195l568 -1400h-212l-139 351h-624l-133 -351h-206zM418 515h516l-264 652zM675 1563q-111 0 -194.5 42.5t-129.5 118t-43 172.5h161q-4 -89 53 -143.5t153 -54.5t151 54.5t50 143.5h162q2 -97 -44.5 -172.5t-129.5 -118t-189 -42.5z" />
    <glyph glyph-name="uni1EAE" unicode="&#x1eae;" horiz-adv-x="1366" 
d="M26 0l551 1400h195l568 -1400h-212l-139 351h-624l-133 -351h-206zM418 515h516l-264 652zM675 1563q-111 0 -194.5 42.5t-129.5 118t-43 172.5h161q-4 -89 53 -143.5t153 -54.5t151 54.5t50 143.5h162q2 -97 -44.5 -172.5t-129.5 -118t-189 -42.5zM574 1987l193 323h194
l-212 -323h-175z" />
    <glyph glyph-name="uni1EB6" unicode="&#x1eb6;" horiz-adv-x="1366" 
d="M26 0l551 1400h195l568 -1400h-212l-139 351h-624l-133 -351h-206zM418 515h516l-264 652zM674 -493q-52 0 -90 34.5t-38 88.5t38 89t90 35q53 0 90.5 -35t37.5 -89t-37.5 -88.5t-90.5 -34.5zM675 1563q-111 0 -194.5 42.5t-129.5 118t-43 172.5h161q-4 -89 53 -143.5
t153 -54.5t151 54.5t50 143.5h162q2 -97 -44.5 -172.5t-129.5 -118t-189 -42.5z" />
    <glyph glyph-name="uni1EB0" unicode="&#x1eb0;" horiz-adv-x="1366" 
d="M26 0l551 1400h195l568 -1400h-212l-139 351h-624l-133 -351h-206zM418 515h516l-264 652zM675 1563q-111 0 -194.5 42.5t-129.5 118t-43 172.5h161q-4 -89 53 -143.5t153 -54.5t151 54.5t50 143.5h162q2 -97 -44.5 -172.5t-129.5 -118t-189 -42.5zM607 1987l-210 323
h200l191 -323h-181z" />
    <glyph glyph-name="uni1EB2" unicode="&#x1eb2;" horiz-adv-x="1366" 
d="M26 0l551 1400h195l568 -1400h-212l-139 351h-624l-133 -351h-206zM418 515h516l-264 652zM675 1563q-111 0 -194.5 42.5t-129.5 118t-43 172.5h161q-4 -89 53 -143.5t153 -54.5t151 54.5t50 143.5h162q2 -97 -44.5 -172.5t-129.5 -118t-189 -42.5zM596 1987
q-35 62 -15 104.5t99 67.5q65 22 86 35.5t21 39.5q0 32 -38 51t-96 19q-51 0 -99.5 -10t-84.5 -27l-41 102q52 25 117 37.5t131 12.5q77 0 136 -20t93 -55.5t34 -81.5q0 -54 -30 -86.5t-112 -67.5q-63 -26 -78 -50t10 -71h-133z" />
    <glyph glyph-name="uni1EB4" unicode="&#x1eb4;" horiz-adv-x="1366" 
d="M26 0l551 1400h195l568 -1400h-212l-139 351h-624l-133 -351h-206zM418 515h516l-264 652zM675 1563q-111 0 -194.5 42.5t-129.5 118t-43 172.5h161q-4 -89 53 -143.5t153 -54.5t151 54.5t50 143.5h162q2 -97 -44.5 -172.5t-129.5 -118t-189 -42.5zM386 2008l-95 75
q36 87 94 136.5t135 49.5q61 0 114 -24.5t102 -49.5t97 -25q44 0 77 30.5t54 87.5l94 -77q-29 -87 -88.5 -134t-135.5 -47q-60 0 -114.5 24t-104 48.5t-96.5 24.5q-43 0 -76.5 -29t-56.5 -90z" />
    <glyph glyph-name="uni01CD" unicode="&#x1cd;" horiz-adv-x="1366" 
d="M26 0l551 1400h195l568 -1400h-212l-139 351h-624l-133 -351h-206zM418 515h516l-264 652zM577 1573l-270 323h188l177 -210l183 210h187l-283 -323h-182z" />
    <glyph glyph-name="Acircumflex" unicode="&#xc2;" horiz-adv-x="1366" 
d="M26 0l551 1400h195l568 -1400h-212l-139 351h-624l-133 -351h-206zM418 515h516l-264 652zM307 1573l282 323h184l269 -323h-188l-177 210l-183 -210h-187z" />
    <glyph glyph-name="uni1EA4" unicode="&#x1ea4;" horiz-adv-x="1366" 
d="M26 0l551 1400h195l568 -1400h-212l-139 351h-624l-133 -351h-206zM418 515h516l-264 652zM307 1573l282 323h184l269 -323h-188l-177 210l-183 -210h-187zM937 1842l193 323h194l-212 -323h-175z" />
    <glyph glyph-name="uni1EAC" unicode="&#x1eac;" horiz-adv-x="1366" 
d="M26 0l551 1400h195l568 -1400h-212l-139 351h-624l-133 -351h-206zM418 515h516l-264 652zM674 -493q-52 0 -90 34.5t-38 88.5t38 89t90 35q53 0 90.5 -35t37.5 -89t-37.5 -88.5t-90.5 -34.5zM307 1573l282 323h184l269 -323h-188l-177 210l-183 -210h-187z" />
    <glyph glyph-name="uni1EA6" unicode="&#x1ea6;" horiz-adv-x="1366" 
d="M26 0l551 1400h195l568 -1400h-212l-139 351h-624l-133 -351h-206zM418 515h516l-264 652zM307 1573l282 323h184l269 -323h-188l-177 210l-183 -210h-187zM970 1842l-210 323h200l191 -323h-181z" />
    <glyph glyph-name="uni1EA8" unicode="&#x1ea8;" horiz-adv-x="1366" 
d="M26 0l551 1400h195l568 -1400h-212l-139 351h-624l-133 -351h-206zM418 515h516l-264 652zM307 1573l282 323h184l269 -323h-188l-177 210l-183 -210h-187zM959 1842q-35 62 -15 104.5t99 67.5q65 22 86 35.5t21 39.5q0 32 -38 51t-96 19q-51 0 -99.5 -10t-84.5 -27
l-41 102q52 25 117 37.5t131 12.5q77 0 136 -20t93 -55.5t34 -81.5q0 -54 -30 -86.5t-112 -67.5q-63 -26 -78 -50t10 -71h-133z" />
    <glyph glyph-name="uni1EAA" unicode="&#x1eaa;" horiz-adv-x="1366" 
d="M26 0l551 1400h195l568 -1400h-212l-139 351h-624l-133 -351h-206zM418 515h516l-264 652zM307 1573l282 323h184l269 -323h-188l-177 210l-183 -210h-187zM386 2033l-95 75q36 87 94 136.5t135 49.5q61 0 114 -24.5t102 -49.5t97 -25q44 0 77 30.5t54 87.5l94 -77
q-29 -87 -88.5 -134t-135.5 -47q-60 0 -114.5 24t-104 48.5t-96.5 24.5q-43 0 -76.5 -29t-56.5 -90z" />
    <glyph glyph-name="uni0200" unicode="&#x200;" horiz-adv-x="1366" 
d="M26 0l551 1400h195l568 -1400h-212l-139 351h-624l-133 -351h-206zM418 515h516l-264 652zM969 1573h-175l-211 323h194zM567 1573h-175l-212 323h194z" />
    <glyph glyph-name="Adieresis" unicode="&#xc4;" horiz-adv-x="1366" 
d="M26 0l551 1400h195l568 -1400h-212l-139 351h-624l-133 -351h-206zM418 515h516l-264 652zM464 1568q-51 0 -89 34.5t-38 86.5q0 34 17.5 61t46.5 42.5t63 15.5q50 0 88.5 -33.5t38.5 -85.5q0 -35 -17.5 -62.5t-46.5 -43t-63 -15.5zM887 1568q-51 0 -89 34.5t-38 86.5
q0 34 17 61t46 42.5t64 15.5q50 0 88 -33.5t38 -85.5q0 -35 -17.5 -62.5t-46.5 -43t-62 -15.5z" />
    <glyph glyph-name="uni1EA0" unicode="&#x1ea0;" horiz-adv-x="1366" 
d="M26 0l551 1400h195l568 -1400h-212l-139 351h-624l-133 -351h-206zM418 515h516l-264 652zM674 -493q-52 0 -90 34.5t-38 88.5t38 89t90 35q53 0 90.5 -35t37.5 -89t-37.5 -88.5t-90.5 -34.5z" />
    <glyph glyph-name="Agrave" unicode="&#xc0;" horiz-adv-x="1366" 
d="M26 0l551 1400h195l568 -1400h-212l-139 351h-624l-133 -351h-206zM418 515h516l-264 652zM607 1573l-210 323h200l191 -323h-181z" />
    <glyph glyph-name="uni1EA2" unicode="&#x1ea2;" horiz-adv-x="1366" 
d="M26 0l551 1400h195l568 -1400h-212l-139 351h-624l-133 -351h-206zM418 515h516l-264 652zM596 1573q-35 62 -15 104.5t99 67.5q65 22 86 35.5t21 39.5q0 32 -38 51t-96 19q-51 0 -99.5 -10t-84.5 -27l-41 102q52 25 117 37.5t131 12.5q77 0 136 -20t93 -55.5t34 -81.5
q0 -54 -30 -86.5t-112 -67.5q-63 -26 -78 -50t10 -71h-133z" />
    <glyph glyph-name="uni0202" unicode="&#x202;" horiz-adv-x="1366" 
d="M26 0l551 1400h195l568 -1400h-212l-139 351h-624l-133 -351h-206zM418 515h516l-264 652zM308 1573q-3 100 44 174.5t131 116.5t192 42q107 0 190 -43t129 -118.5t44 -171.5h-162q5 89 -51 143.5t-150 54.5q-96 0 -153 -54.5t-53 -143.5h-161z" />
    <glyph glyph-name="Amacron" unicode="&#x100;" horiz-adv-x="1366" 
d="M26 0l551 1400h195l568 -1400h-212l-139 351h-624l-133 -351h-206zM418 515h516l-264 652zM351 1629v134h647v-134h-647z" />
    <glyph glyph-name="Aogonek" unicode="&#x104;" horiz-adv-x="1366" 
d="M26 0l551 1400h195l568 -1400h-212l-139 351h-624l-133 -351h-206zM418 515h516l-264 652zM1142 -450q-102 0 -158 59.5t-55 144.5q2 87 50.5 154t129.5 111t180 61l35 -80q-75 -14 -130 -41t-85 -68.5t-31 -98.5q-1 -43 20.5 -72.5t71.5 -29.5q29 0 55.5 8.5t48.5 23.5
l53 -121q-42 -24 -89.5 -37.5t-95.5 -13.5z" />
    <glyph glyph-name="Aring" unicode="&#xc5;" horiz-adv-x="1366" 
d="M26 0l551 1400h195l568 -1400h-212l-139 351h-624l-133 -351h-206zM418 515h516l-264 652zM674 1466q-79 0 -145.5 36.5t-106.5 99.5t-40 141t40 141t106.5 100t145.5 37q80 0 146 -37t106 -100t40 -141t-40 -141t-106 -99.5t-146 -36.5zM674 1587q70 0 116 44t46 112
t-46 112t-116 44q-69 0 -115.5 -44t-46.5 -112t46.5 -112t115.5 -44z" />
    <glyph glyph-name="Aringacute" unicode="&#x1fa;" horiz-adv-x="1366" 
d="M26 0l551 1400h195l568 -1400h-212l-139 351h-624l-133 -351h-206zM418 515h516l-264 652zM674 1466q-79 0 -145.5 36.5t-106.5 99.5t-40 141t40 141t106.5 100t145.5 37q80 0 146 -37t106 -100t40 -141t-40 -141t-106 -99.5t-146 -36.5zM674 1587q70 0 116 44t46 112
t-46 112t-116 44q-69 0 -115.5 -44t-46.5 -112t46.5 -112t115.5 -44zM574 2103l193 323h194l-212 -323h-175z" />
    <glyph glyph-name="Atilde" unicode="&#xc3;" horiz-adv-x="1366" 
d="M26 0l551 1400h195l568 -1400h-212l-139 351h-624l-133 -351h-206zM418 515h516l-264 652zM386 1594l-95 75q36 87 94 136.5t135 49.5q61 0 114 -24.5t102 -49.5t97 -25q44 0 77 30.5t54 87.5l94 -77q-29 -87 -88.5 -134t-135.5 -47q-60 0 -114.5 24t-104 48.5
t-96.5 24.5q-43 0 -76.5 -29t-56.5 -90z" />
    <glyph glyph-name="AE" unicode="&#xc6;" horiz-adv-x="1767" 
d="M-33 0l685 1400h969v-168h-660v-417h588v-161h-588v-485h668v-169h-856v348h-440l-165 -348h-201zM400 505h373v758z" />
    <glyph glyph-name="AEacute" unicode="&#x1fc;" horiz-adv-x="1767" 
d="M-33 0l685 1400h969v-168h-660v-417h588v-161h-588v-485h668v-169h-856v348h-440l-165 -348h-201zM400 505h373v758zM1041 1573l193 323h194l-212 -323h-175z" />
    <glyph glyph-name="B" unicode="B" horiz-adv-x="1252" 
d="M188 0v1400h460q197 0 319.5 -89.5t122.5 -263.5q0 -67 -33 -128.5t-84.5 -107.5t-106.5 -65q115 -34 193.5 -127t78.5 -231q0 -113 -56.5 -200t-161 -137.5t-247.5 -50.5h-485zM376 154h263q155 0 230.5 60t75.5 184q0 121 -76.5 184.5t-238.5 63.5h-254v-492zM376 794
h241q87 0 152 28t100.5 80.5t35.5 126.5q0 106 -75.5 162t-215.5 56h-238v-453z" />
    <glyph glyph-name="C" unicode="C" horiz-adv-x="1394" 
d="M822 -30q-217 0 -379.5 90.5t-252 255t-89.5 384.5q0 159 53 292.5t150 231.5t229.5 152t289.5 54q155 0 271 -38.5t200 -109.5l-100 -154q-68 61 -158 91t-199 30q-123 0 -223 -38t-170.5 -109.5t-108.5 -172.5t-38 -227q0 -174 67.5 -297t191.5 -187.5t293 -64.5
q109 0 209.5 32.5t188.5 106.5l88 -160q-103 -81 -230.5 -121.5t-282.5 -40.5z" />
    <glyph glyph-name="Cacute" unicode="&#x106;" horiz-adv-x="1394" 
d="M822 -30q-217 0 -379.5 90.5t-252 255t-89.5 384.5q0 159 53 292.5t150 231.5t229.5 152t289.5 54q155 0 271 -38.5t200 -109.5l-100 -154q-68 61 -158 91t-199 30q-123 0 -223 -38t-170.5 -109.5t-108.5 -172.5t-38 -227q0 -174 67.5 -297t191.5 -187.5t293 -64.5
q109 0 209.5 32.5t188.5 106.5l88 -160q-103 -81 -230.5 -121.5t-282.5 -40.5zM681 1573l193 323h194l-212 -323h-175z" />
    <glyph glyph-name="Ccaron" unicode="&#x10c;" horiz-adv-x="1394" 
d="M822 -30q-217 0 -379.5 90.5t-252 255t-89.5 384.5q0 159 53 292.5t150 231.5t229.5 152t289.5 54q155 0 271 -38.5t200 -109.5l-100 -154q-68 61 -158 91t-199 30q-123 0 -223 -38t-170.5 -109.5t-108.5 -172.5t-38 -227q0 -174 67.5 -297t191.5 -187.5t293 -64.5
q109 0 209.5 32.5t188.5 106.5l88 -160q-103 -81 -230.5 -121.5t-282.5 -40.5zM685 1573l-270 323h188l177 -210l183 210h187l-283 -323h-182z" />
    <glyph glyph-name="Ccedilla" unicode="&#xc7;" horiz-adv-x="1394" 
d="M822 -30q-217 0 -379.5 90.5t-252 255t-89.5 384.5q0 159 53 292.5t150 231.5t229.5 152t289.5 54q155 0 271 -38.5t200 -109.5l-100 -154q-68 61 -158 91t-199 30q-123 0 -223 -38t-170.5 -109.5t-108.5 -172.5t-38 -227q0 -174 67.5 -297t191.5 -187.5t293 -64.5
q109 0 209.5 32.5t188.5 106.5l88 -160q-103 -81 -230.5 -121.5t-282.5 -40.5zM764 -450q-67 0 -123.5 16.5t-100.5 44.5l45 106q23 -24 74.5 -39t97.5 -15q44 0 80.5 17t36.5 57q0 44 -51 61t-112 8l-43 79l54 155h113l-38 -123q100 -8 163 -52t63 -125q0 -69 -41.5 -111
t-102 -60.5t-115.5 -18.5z" />
    <glyph glyph-name="Ccircumflex" unicode="&#x108;" horiz-adv-x="1394" 
d="M822 -30q-217 0 -379.5 90.5t-252 255t-89.5 384.5q0 159 53 292.5t150 231.5t229.5 152t289.5 54q155 0 271 -38.5t200 -109.5l-100 -154q-68 61 -158 91t-199 30q-123 0 -223 -38t-170.5 -109.5t-108.5 -172.5t-38 -227q0 -174 67.5 -297t191.5 -187.5t293 -64.5
q109 0 209.5 32.5t188.5 106.5l88 -160q-103 -81 -230.5 -121.5t-282.5 -40.5zM415 1573l282 323h184l269 -323h-188l-177 210l-183 -210h-187z" />
    <glyph glyph-name="Cdotaccent" unicode="&#x10a;" horiz-adv-x="1394" 
d="M822 -30q-217 0 -379.5 90.5t-252 255t-89.5 384.5q0 159 53 292.5t150 231.5t229.5 152t289.5 54q155 0 271 -38.5t200 -109.5l-100 -154q-68 61 -158 91t-199 30q-123 0 -223 -38t-170.5 -109.5t-108.5 -172.5t-38 -227q0 -174 67.5 -297t191.5 -187.5t293 -64.5
q109 0 209.5 32.5t188.5 106.5l88 -160q-103 -81 -230.5 -121.5t-282.5 -40.5zM782 1569q-54 0 -93 34.5t-39 88.5t39 88t93 34t93 -34t39 -89q0 -52 -39 -87t-93 -35z" />
    <glyph glyph-name="D" unicode="D" horiz-adv-x="1416" 
d="M188 0v1400h424q206 0 364.5 -89.5t248.5 -248t90 -363.5q0 -153 -51.5 -281t-145.5 -221.5t-223 -145t-283 -51.5h-424zM376 175h205q122 0 220.5 36.5t169.5 105t109.5 165t38.5 217.5q0 161 -67 279.5t-187.5 182.5t-283.5 64h-205v-1050z" />
    <glyph glyph-name="uni01C4" unicode="&#x1c4;" horiz-adv-x="2579" 
d="M188 0v1400h424q206 0 364.5 -89.5t248.5 -248t90 -363.5q0 -153 -51.5 -281t-145.5 -221.5t-223 -145t-283 -51.5h-424zM376 175h205q122 0 220.5 36.5t169.5 105t109.5 165t38.5 217.5q0 161 -67 279.5t-187.5 182.5t-283.5 64h-205v-1050zM1512 0v158l748 1069h-725
v173h951v-157l-745 -1070h752v-173h-981zM1907 1573l-270 323h188l177 -210l183 210h187l-283 -323h-182z" />
    <glyph glyph-name="Eth" unicode="&#xd0;" horiz-adv-x="1456" 
d="M42 663v143h839v-143h-839zM228 0v1400h424q206 0 364.5 -89.5t248.5 -248t90 -363.5q0 -153 -51.5 -281t-145.5 -221.5t-223 -145t-283 -51.5h-424zM416 175h205q122 0 220.5 36.5t169.5 105t109.5 165t38.5 217.5q0 161 -67 279.5t-187.5 182.5t-283.5 64h-205v-1050z
" />
    <glyph glyph-name="Dcaron" unicode="&#x10e;" horiz-adv-x="1416" 
d="M188 0v1400h424q206 0 364.5 -89.5t248.5 -248t90 -363.5q0 -153 -51.5 -281t-145.5 -221.5t-223 -145t-283 -51.5h-424zM376 175h205q122 0 220.5 36.5t169.5 105t109.5 165t38.5 217.5q0 161 -67 279.5t-187.5 182.5t-283.5 64h-205v-1050zM590 1573l-270 323h188
l177 -210l183 210h187l-283 -323h-182z" />
    <glyph glyph-name="Dcroat" unicode="&#x110;" horiz-adv-x="1456" 
d="M42 663v143h839v-143h-839zM228 0v1400h424q206 0 364.5 -89.5t248.5 -248t90 -363.5q0 -153 -51.5 -281t-145.5 -221.5t-223 -145t-283 -51.5h-424zM416 175h205q122 0 220.5 36.5t169.5 105t109.5 165t38.5 217.5q0 161 -67 279.5t-187.5 182.5t-283.5 64h-205v-1050z
" />
    <glyph glyph-name="uni01C5" unicode="&#x1c5;" horiz-adv-x="2373" 
d="M188 0v1400h424q206 0 364.5 -89.5t248.5 -248t90 -363.5q0 -153 -51.5 -281t-145.5 -221.5t-223 -145t-283 -51.5h-424zM376 175h205q122 0 220.5 36.5t169.5 105t109.5 165t38.5 217.5q0 161 -67 279.5t-187.5 182.5t-283.5 64h-205v-1050zM1510 0v137l535 678h-526
v165h752v-137l-527 -677h535v-166h-769zM1800 1170l-262 344h183l170 -231l177 231h181l-272 -344h-177z" />
    <glyph glyph-name="E" unicode="E" horiz-adv-x="1210" 
d="M188 0v1400h878v-168h-690v-417h601v-161h-601v-485h696v-169h-884z" />
    <glyph glyph-name="Eacute" unicode="&#xc9;" horiz-adv-x="1210" 
d="M188 0v1400h878v-168h-690v-417h601v-161h-601v-485h696v-169h-884zM518 1573l193 323h194l-212 -323h-175z" />
    <glyph glyph-name="Ebreve" unicode="&#x114;" horiz-adv-x="1210" 
d="M188 0v1400h878v-168h-690v-417h601v-161h-601v-485h696v-169h-884zM619 1563q-111 0 -194.5 42.5t-129.5 118t-43 172.5h161q-4 -89 53 -143.5t153 -54.5t151 54.5t50 143.5h162q2 -97 -44.5 -172.5t-129.5 -118t-189 -42.5z" />
    <glyph glyph-name="Ecaron" unicode="&#x11a;" horiz-adv-x="1210" 
d="M188 0v1400h878v-168h-690v-417h601v-161h-601v-485h696v-169h-884zM521 1573l-270 323h188l177 -210l183 210h187l-283 -323h-182z" />
    <glyph glyph-name="Ecircumflex" unicode="&#xca;" horiz-adv-x="1210" 
d="M188 0v1400h878v-168h-690v-417h601v-161h-601v-485h696v-169h-884zM251 1573l282 323h184l269 -323h-188l-177 210l-183 -210h-187z" />
    <glyph glyph-name="uni1EBE" unicode="&#x1ebe;" horiz-adv-x="1210" 
d="M188 0v1400h878v-168h-690v-417h601v-161h-601v-485h696v-169h-884zM251 1573l282 323h184l269 -323h-188l-177 210l-183 -210h-187zM881 1842l193 323h194l-212 -323h-175z" />
    <glyph glyph-name="uni1EC6" unicode="&#x1ec6;" horiz-adv-x="1210" 
d="M188 0v1400h878v-168h-690v-417h601v-161h-601v-485h696v-169h-884zM618 -493q-52 0 -90 34.5t-38 88.5t38 89t90 35q53 0 90.5 -35t37.5 -89t-37.5 -88.5t-90.5 -34.5zM251 1573l282 323h184l269 -323h-188l-177 210l-183 -210h-187z" />
    <glyph glyph-name="uni1EC0" unicode="&#x1ec0;" horiz-adv-x="1210" 
d="M188 0v1400h878v-168h-690v-417h601v-161h-601v-485h696v-169h-884zM251 1573l282 323h184l269 -323h-188l-177 210l-183 -210h-187zM914 1842l-210 323h200l191 -323h-181z" />
    <glyph glyph-name="uni1EC2" unicode="&#x1ec2;" horiz-adv-x="1210" 
d="M188 0v1400h878v-168h-690v-417h601v-161h-601v-485h696v-169h-884zM251 1573l282 323h184l269 -323h-188l-177 210l-183 -210h-187zM903 1842q-35 62 -15 104.5t99 67.5q65 22 86 35.5t21 39.5q0 32 -38 51t-96 19q-51 0 -99.5 -10t-84.5 -27l-41 102q52 25 117 37.5
t131 12.5q77 0 136 -20t93 -55.5t34 -81.5q0 -54 -30 -86.5t-112 -67.5q-63 -26 -78 -50t10 -71h-133z" />
    <glyph glyph-name="uni1EC4" unicode="&#x1ec4;" horiz-adv-x="1210" 
d="M188 0v1400h878v-168h-690v-417h601v-161h-601v-485h696v-169h-884zM251 1573l282 323h184l269 -323h-188l-177 210l-183 -210h-187zM330 2033l-95 75q36 87 94 136.5t135 49.5q61 0 114 -24.5t102 -49.5t97 -25q44 0 77 30.5t54 87.5l94 -77q-29 -87 -88.5 -134
t-135.5 -47q-60 0 -114.5 24t-104 48.5t-96.5 24.5q-43 0 -76.5 -29t-56.5 -90z" />
    <glyph glyph-name="uni0204" unicode="&#x204;" horiz-adv-x="1210" 
d="M188 0v1400h878v-168h-690v-417h601v-161h-601v-485h696v-169h-884zM913 1573h-175l-211 323h194zM511 1573h-175l-212 323h194z" />
    <glyph glyph-name="Edieresis" unicode="&#xcb;" horiz-adv-x="1210" 
d="M188 0v1400h878v-168h-690v-417h601v-161h-601v-485h696v-169h-884zM408 1568q-51 0 -89 34.5t-38 86.5q0 34 17.5 61t46.5 42.5t63 15.5q50 0 88.5 -33.5t38.5 -85.5q0 -35 -17.5 -62.5t-46.5 -43t-63 -15.5zM831 1568q-51 0 -89 34.5t-38 86.5q0 34 17 61t46 42.5
t64 15.5q50 0 88 -33.5t38 -85.5q0 -35 -17.5 -62.5t-46.5 -43t-62 -15.5z" />
    <glyph glyph-name="Edotaccent" unicode="&#x116;" horiz-adv-x="1210" 
d="M188 0v1400h878v-168h-690v-417h601v-161h-601v-485h696v-169h-884zM618 1569q-54 0 -93 34.5t-39 88.5t39 88t93 34t93 -34t39 -89q0 -52 -39 -87t-93 -35z" />
    <glyph glyph-name="uni1EB8" unicode="&#x1eb8;" horiz-adv-x="1210" 
d="M188 0v1400h878v-168h-690v-417h601v-161h-601v-485h696v-169h-884zM618 -493q-52 0 -90 34.5t-38 88.5t38 89t90 35q53 0 90.5 -35t37.5 -89t-37.5 -88.5t-90.5 -34.5z" />
    <glyph glyph-name="Egrave" unicode="&#xc8;" horiz-adv-x="1210" 
d="M188 0v1400h878v-168h-690v-417h601v-161h-601v-485h696v-169h-884zM551 1573l-210 323h200l191 -323h-181z" />
    <glyph glyph-name="uni1EBA" unicode="&#x1eba;" horiz-adv-x="1210" 
d="M188 0v1400h878v-168h-690v-417h601v-161h-601v-485h696v-169h-884zM540 1573q-35 62 -15 104.5t99 67.5q65 22 86 35.5t21 39.5q0 32 -38 51t-96 19q-51 0 -99.5 -10t-84.5 -27l-41 102q52 25 117 37.5t131 12.5q77 0 136 -20t93 -55.5t34 -81.5q0 -54 -30 -86.5
t-112 -67.5q-63 -26 -78 -50t10 -71h-133z" />
    <glyph glyph-name="uni0206" unicode="&#x206;" horiz-adv-x="1210" 
d="M188 0v1400h878v-168h-690v-417h601v-161h-601v-485h696v-169h-884zM252 1573q-3 100 44 174.5t131 116.5t192 42q107 0 190 -43t129 -118.5t44 -171.5h-162q5 89 -51 143.5t-150 54.5q-96 0 -153 -54.5t-53 -143.5h-161z" />
    <glyph glyph-name="Emacron" unicode="&#x112;" horiz-adv-x="1210" 
d="M188 0v1400h878v-168h-690v-417h601v-161h-601v-485h696v-169h-884zM295 1629v134h647v-134h-647z" />
    <glyph glyph-name="Eogonek" unicode="&#x118;" horiz-adv-x="1210" 
d="M188 0v1400h878v-168h-690v-417h601v-161h-601v-485h696v-169h-884zM890 -450q-102 0 -158 59.5t-55 144.5q2 87 50.5 154t129.5 111t180 61l35 -80q-75 -14 -130 -41t-85 -68.5t-31 -98.5q-1 -43 20.5 -72.5t71.5 -29.5q29 0 55.5 8.5t48.5 23.5l53 -121
q-42 -24 -89.5 -37.5t-95.5 -13.5z" />
    <glyph glyph-name="uni1EBC" unicode="&#x1ebc;" horiz-adv-x="1210" 
d="M188 0v1400h878v-168h-690v-417h601v-161h-601v-485h696v-169h-884zM330 1594l-95 75q36 87 94 136.5t135 49.5q61 0 114 -24.5t102 -49.5t97 -25q44 0 77 30.5t54 87.5l94 -77q-29 -87 -88.5 -134t-135.5 -47q-60 0 -114.5 24t-104 48.5t-96.5 24.5q-43 0 -76.5 -29
t-56.5 -90z" />
    <glyph glyph-name="uni018F" unicode="&#x18f;" horiz-adv-x="1600" 
d="M777 -30q-158 0 -287.5 56t-219.5 158.5t-134 243t-32 310.5h1275l-2 -155h-1159l79 68q-1 -117 33.5 -211t98.5 -161.5t153 -103.5t195 -36q124 0 222 41t166 117t104.5 182.5t36.5 235.5q0 164 -65.5 285t-187 187t-288.5 66q-138 0 -258.5 -41t-205.5 -118l-95 144
q102 84 246 138t319 54q216 0 380 -88.5t256 -249t92 -377.5q0 -158 -51.5 -294t-147.5 -237t-229 -157.5t-294 -56.5z" />
    <glyph glyph-name="F" unicode="F" horiz-adv-x="1152" 
d="M188 0v1400h846v-173h-658v-440h598v-169h-598v-618h-188z" />
    <glyph glyph-name="G" unicode="G" horiz-adv-x="1502" 
d="M880 -30q-168 0 -310 51.5t-247.5 147t-163.5 229.5t-58 299q0 166 56 300.5t157.5 231.5t239.5 149t303 52q76 0 153 -12.5t150 -39.5t136 -72l-84 -149q-78 50 -169 74.5t-186 24.5q-127 0 -231 -39t-178 -111.5t-113.5 -175.5t-39.5 -231q0 -178 75 -303.5
t208.5 -191.5t309.5 -66q91 0 162 17.5t112 40.5v368h-328v160h499v-634q-52 -37 -133 -64t-167.5 -41.5t-152.5 -14.5z" />
    <glyph glyph-name="Gbreve" unicode="&#x11e;" horiz-adv-x="1502" 
d="M880 -30q-168 0 -310 51.5t-247.5 147t-163.5 229.5t-58 299q0 166 56 300.5t157.5 231.5t239.5 149t303 52q76 0 153 -12.5t150 -39.5t136 -72l-84 -149q-78 50 -169 74.5t-186 24.5q-127 0 -231 -39t-178 -111.5t-113.5 -175.5t-39.5 -231q0 -178 75 -303.5
t208.5 -191.5t309.5 -66q91 0 162 17.5t112 40.5v368h-328v160h499v-634q-52 -37 -133 -64t-167.5 -41.5t-152.5 -14.5zM797 1563q-111 0 -194.5 42.5t-129.5 118t-43 172.5h161q-4 -89 53 -143.5t153 -54.5t151 54.5t50 143.5h162q2 -97 -44.5 -172.5t-129.5 -118
t-189 -42.5z" />
    <glyph glyph-name="Gcaron" unicode="&#x1e6;" horiz-adv-x="1502" 
d="M880 -30q-168 0 -310 51.5t-247.5 147t-163.5 229.5t-58 299q0 166 56 300.5t157.5 231.5t239.5 149t303 52q76 0 153 -12.5t150 -39.5t136 -72l-84 -149q-78 50 -169 74.5t-186 24.5q-127 0 -231 -39t-178 -111.5t-113.5 -175.5t-39.5 -231q0 -178 75 -303.5
t208.5 -191.5t309.5 -66q91 0 162 17.5t112 40.5v368h-328v160h499v-634q-52 -37 -133 -64t-167.5 -41.5t-152.5 -14.5zM700 1573l-270 323h188l177 -210l183 210h187l-283 -323h-182z" />
    <glyph glyph-name="Gcircumflex" unicode="&#x11c;" horiz-adv-x="1502" 
d="M880 -30q-168 0 -310 51.5t-247.5 147t-163.5 229.5t-58 299q0 166 56 300.5t157.5 231.5t239.5 149t303 52q76 0 153 -12.5t150 -39.5t136 -72l-84 -149q-78 50 -169 74.5t-186 24.5q-127 0 -231 -39t-178 -111.5t-113.5 -175.5t-39.5 -231q0 -178 75 -303.5
t208.5 -191.5t309.5 -66q91 0 162 17.5t112 40.5v368h-328v160h499v-634q-52 -37 -133 -64t-167.5 -41.5t-152.5 -14.5zM430 1573l282 323h184l269 -323h-188l-177 210l-183 -210h-187z" />
    <glyph glyph-name="uni0122" unicode="&#x122;" horiz-adv-x="1502" 
d="M880 -30q-168 0 -310 51.5t-247.5 147t-163.5 229.5t-58 299q0 166 56 300.5t157.5 231.5t239.5 149t303 52q76 0 153 -12.5t150 -39.5t136 -72l-84 -149q-78 50 -169 74.5t-186 24.5q-127 0 -231 -39t-178 -111.5t-113.5 -175.5t-39.5 -231q0 -178 75 -303.5
t208.5 -191.5t309.5 -66q91 0 162 17.5t112 40.5v368h-328v160h499v-634q-52 -37 -133 -64t-167.5 -41.5t-152.5 -14.5zM751 -699l-65 83q63 27 112 66t66 77q-38 -2 -69.5 11t-50 39t-18.5 59q0 52 35.5 85t91.5 33q62 0 100.5 -40.5t38.5 -108.5q0 -54 -27 -107.5
t-81 -103.5t-133 -93z" />
    <glyph glyph-name="Gdotaccent" unicode="&#x120;" horiz-adv-x="1502" 
d="M880 -30q-168 0 -310 51.5t-247.5 147t-163.5 229.5t-58 299q0 166 56 300.5t157.5 231.5t239.5 149t303 52q76 0 153 -12.5t150 -39.5t136 -72l-84 -149q-78 50 -169 74.5t-186 24.5q-127 0 -231 -39t-178 -111.5t-113.5 -175.5t-39.5 -231q0 -178 75 -303.5
t208.5 -191.5t309.5 -66q91 0 162 17.5t112 40.5v368h-328v160h499v-634q-52 -37 -133 -64t-167.5 -41.5t-152.5 -14.5zM797 1569q-54 0 -93 34.5t-39 88.5t39 88t93 34t93 -34t39 -89q0 -52 -39 -87t-93 -35z" />
    <glyph glyph-name="H" unicode="H" horiz-adv-x="1473" 
d="M188 0v1400h188v-569h720v569h188v-1400h-188v658h-720v-658h-188z" />
    <glyph glyph-name="Hbar" unicode="&#x126;" horiz-adv-x="1513" 
d="M1116 0v1400h188v-1400h-188zM208 0v1400h188v-1400h-188zM369 608v173h776v-173h-776zM18 1012v143h1476v-143h-1476z" />
    <glyph glyph-name="Hcircumflex" unicode="&#x124;" horiz-adv-x="1473" 
d="M188 0v1400h188v-569h720v569h188v-1400h-188v658h-720v-658h-188zM369 1573l282 323h184l269 -323h-188l-177 210l-183 -210h-187z" />
    <glyph glyph-name="I" unicode="I" horiz-adv-x="565" 
d="M188 0v1400h188v-1400h-188z" />
    <glyph glyph-name="IJ" unicode="&#x132;" horiz-adv-x="1551" 
d="M188 0v1400h188v-1400h-188zM922 -30q-87 0 -167 22.5t-152 64.5l65 156q56 -33 114 -51.5t118 -18.5q135 0 206 62.5t71 203.5v991h188v-1016q0 -126 -51.5 -219t-150.5 -144t-241 -51z" />
    <glyph glyph-name="Iacute" unicode="&#xcd;" horiz-adv-x="565" 
d="M188 0v1400h188v-1400h-188zM186 1590l164 344h189l-184 -344h-169z" />
    <glyph glyph-name="Ibreve" unicode="&#x12c;" horiz-adv-x="565" 
d="M188 0v1400h188v-1400h-188zM282 1580q-94 0 -165 46t-110 125.5t-37 182.5h155q-4 -98 40 -158.5t117 -60.5q72 0 116 60.5t39 158.5h156q1 -102 -38 -182t-110 -126t-163 -46z" />
    <glyph glyph-name="Icircumflex" unicode="&#xce;" horiz-adv-x="565" 
d="M188 0v1400h188v-1400h-188zM-35 1590l237 344h172l228 -344h-181l-137 232l-142 -232h-177z" />
    <glyph glyph-name="uni0208" unicode="&#x208;" horiz-adv-x="565" 
d="M188 0v1400h188v-1400h-188zM520 1590h-153l-125 344h171zM209 1590h-154l-125 344h172z" />
    <glyph glyph-name="Idieresis" unicode="&#xcf;" horiz-adv-x="565" 
d="M188 0v1400h188v-1400h-188zM125 1584q-50 0 -84.5 34.5t-34.5 87.5t34.5 87t84.5 34t84.5 -34t34.5 -87t-34.5 -87.5t-84.5 -34.5zM439 1584q-49 0 -83.5 34.5t-34.5 87.5t34.5 87t83.5 34q50 0 84.5 -34t34.5 -87t-34.5 -87.5t-84.5 -34.5z" />
    <glyph glyph-name="Idotaccent" unicode="&#x130;" horiz-adv-x="565" 
d="M188 0v1400h188v-1400h-188zM282 1569q-54 0 -93 34.5t-39 88.5t39 88t93 34t93 -34t39 -89q0 -52 -39 -87t-93 -35z" />
    <glyph glyph-name="uni1ECA" unicode="&#x1eca;" horiz-adv-x="565" 
d="M188 0v1400h188v-1400h-188zM282 -493q-52 0 -90 34.5t-38 88.5t38 89t90 35q53 0 90.5 -35t37.5 -89t-37.5 -88.5t-90.5 -34.5z" />
    <glyph glyph-name="Igrave" unicode="&#xcc;" horiz-adv-x="565" 
d="M188 0v1400h188v-1400h-188zM215 1573l-210 323h200l191 -323h-181z" />
    <glyph glyph-name="uni1EC8" unicode="&#x1ec8;" horiz-adv-x="565" 
d="M188 0v1400h188v-1400h-188zM211 1590q-32 69 -14.5 113t84.5 74q51 23 68.5 38.5t17.5 44.5q0 37 -32 58t-79 21q-40 0 -80.5 -10.5t-72.5 -30.5l-35 104q45 26 102.5 39t113.5 13q101 0 165 -46.5t64 -120.5q0 -57 -25.5 -92t-93.5 -71q-55 -30 -66.5 -56t8.5 -78h-125
z" />
    <glyph glyph-name="uni020A" unicode="&#x20a;" horiz-adv-x="565" 
d="M188 0v1400h188v-1400h-188zM-30 1590q-2 103 37 183t110 125.5t165 45.5q92 0 163 -46t110 -126t38 -182h-156q5 99 -38.5 159.5t-116.5 60.5t-117 -60.5t-40 -159.5h-155z" />
    <glyph glyph-name="Imacron" unicode="&#x12a;" horiz-adv-x="565" 
d="M188 0v1400h188v-1400h-188zM7 1650v136h552v-136h-552z" />
    <glyph glyph-name="Iogonek" unicode="&#x12e;" horiz-adv-x="565" 
d="M188 0v1400h188v-1400h-188zM194 -450q-102 0 -158 59.5t-55 144.5q2 87 50.5 154t129.5 111t180 61l35 -80q-75 -14 -130 -41t-85 -68.5t-31 -98.5q-1 -43 20.5 -72.5t71.5 -29.5q29 0 55.5 8.5t48.5 23.5l53 -121q-42 -24 -89.5 -37.5t-95.5 -13.5z" />
    <glyph glyph-name="Itilde" unicode="&#x128;" horiz-adv-x="565" 
d="M188 0v1400h188v-1400h-188zM39 1618l-84 73q31 89 80.5 142t117.5 53q52 0 96.5 -26.5t85 -53t80.5 -26.5q36 0 64 33t45 94l83 -75q-22 -92 -73.5 -142t-116.5 -50q-52 0 -97.5 26t-87 52.5t-80.5 26.5q-37 0 -65.5 -33t-47.5 -94z" />
    <glyph glyph-name="J" unicode="J" horiz-adv-x="986" 
d="M357 -30q-87 0 -167 22.5t-152 64.5l65 156q56 -33 114 -51.5t118 -18.5q135 0 206 62.5t71 203.5v991h188v-1016q0 -126 -51.5 -219t-150.5 -144t-241 -51z" />
    <glyph glyph-name="Jcircumflex" unicode="&#x134;" horiz-adv-x="986" 
d="M357 -30q-87 0 -167 22.5t-152 64.5l65 156q56 -33 114 -51.5t118 -18.5q135 0 206 62.5t71 203.5v991h188v-1016q0 -126 -51.5 -219t-150.5 -144t-241 -51zM388 1590l237 344h172l228 -344h-181l-137 232l-142 -232h-177z" />
    <glyph glyph-name="K" unicode="K" horiz-adv-x="1365" 
d="M188 0v1400h188v-756l613 756h230l-510 -630l591 -770h-243l-471 625l-210 -251v-374h-188z" />
    <glyph glyph-name="uni0136" unicode="&#x136;" horiz-adv-x="1365" 
d="M188 0v1400h188v-756l613 756h230l-510 -630l591 -770h-243l-471 625l-210 -251v-374h-188zM611 -699l-65 83q63 27 112 66t66 77q-38 -2 -69.5 11t-50 39t-18.5 59q0 52 35.5 85t91.5 33q62 0 100.5 -40.5t38.5 -108.5q0 -54 -27 -107.5t-81 -103.5t-133 -93z" />
    <glyph glyph-name="L" unicode="L" horiz-adv-x="1077" 
d="M188 0v1400h188v-1227h626v-173h-814z" />
    <glyph glyph-name="uni01C7" unicode="&#x1c7;" horiz-adv-x="2063" 
d="M188 0v1400h188v-1227h626v-173h-814zM1434 -30q-87 0 -167 22.5t-152 64.5l65 156q56 -33 114 -51.5t118 -18.5q135 0 206 62.5t71 203.5v991h188v-1016q0 -126 -51.5 -219t-150.5 -144t-241 -51z" />
    <glyph glyph-name="Lacute" unicode="&#x139;" horiz-adv-x="1077" 
d="M188 0v1400h188v-1227h626v-173h-814zM182 1573l193 323h194l-212 -323h-175z" />
    <glyph glyph-name="Lcaron" unicode="&#x13d;" horiz-adv-x="1077" 
d="M188 0v1400h188v-1227h626v-173h-814zM516 1014v426h193l-56 -426h-137z" />
    <glyph glyph-name="uni013B" unicode="&#x13b;" horiz-adv-x="1077" 
d="M188 0v1400h188v-1227h626v-173h-814zM491 -699l-65 83q63 27 112 66t66 77q-38 -2 -69.5 11t-50 39t-18.5 59q0 52 35.5 85t91.5 33q62 0 100.5 -40.5t38.5 -108.5q0 -54 -27 -107.5t-81 -103.5t-133 -93z" />
    <glyph glyph-name="Ldot" unicode="&#x13f;" horiz-adv-x="1077" 
d="M188 0v1400h188v-1227h626v-173h-814zM892 616q-58 0 -99.5 37t-41.5 96q0 40 19 70t51 47t71 17q59 0 100 -37t41 -97q0 -40 -19 -70t-51 -46.5t-71 -16.5z" />
    <glyph glyph-name="uni01C8" unicode="&#x1c8;" horiz-adv-x="1578" 
d="M188 0v1400h188v-1227h626v-173h-814zM1146 -450q-61 0 -108 12.5t-85 32.5l47 145q24 -13 49 -20.5t62 -7.5q69 0 97 39t28 115v1114h184v-1134q0 -92 -33.5 -158t-95 -102t-145.5 -36zM1327 1165q-52 0 -90 35t-38 89t38 88.5t90 34.5q53 0 90.5 -34.5t37.5 -88.5
t-37.5 -89t-90.5 -35z" />
    <glyph glyph-name="Lslash" unicode="&#x141;" horiz-adv-x="1117" 
d="M72 484l-61 131l301 141v-18l594 277l61 -131l-655 -306v17zM228 0v1400h188v-1227h626v-173h-814z" />
    <glyph glyph-name="M" unicode="M" horiz-adv-x="1814" 
d="M188 0v1400h183l584 -945h-72l564 945h178v-1400h-184l2 1144l37 -12l-500 -817h-145l-506 817l29 12l2 -1144h-172z" />
    <glyph glyph-name="N" unicode="N" horiz-adv-x="1487" 
d="M188 0v1400h176l750 -1070v1070h184v-1400h-176l-749 1082v-1082h-185z" />
    <glyph glyph-name="uni01CA" unicode="&#x1ca;" horiz-adv-x="2473" 
d="M188 0v1400h176l750 -1070v1070h184v-1400h-176l-749 1082v-1082h-185zM1844 -30q-87 0 -167 22.5t-152 64.5l65 156q56 -33 114 -51.5t118 -18.5q135 0 206 62.5t71 203.5v991h188v-1016q0 -126 -51.5 -219t-150.5 -144t-241 -51z" />
    <glyph glyph-name="Nacute" unicode="&#x143;" horiz-adv-x="1487" 
d="M188 0v1400h176l750 -1070v1070h184v-1400h-176l-749 1082v-1082h-185zM643 1573l193 323h194l-212 -323h-175z" />
    <glyph glyph-name="Ncaron" unicode="&#x147;" horiz-adv-x="1487" 
d="M188 0v1400h176l750 -1070v1070h184v-1400h-176l-749 1082v-1082h-185zM646 1573l-270 323h188l177 -210l183 210h187l-283 -323h-182z" />
    <glyph glyph-name="uni0145" unicode="&#x145;" horiz-adv-x="1487" 
d="M188 0v1400h176l750 -1070v1070h184v-1400h-176l-749 1082v-1082h-185zM638 -699l-65 83q63 27 112 66t66 77q-38 -2 -69.5 11t-50 39t-18.5 59q0 52 35.5 85t91.5 33q62 0 100.5 -40.5t38.5 -108.5q0 -54 -27 -107.5t-81 -103.5t-133 -93z" />
    <glyph glyph-name="uni01CB" unicode="&#x1cb;" horiz-adv-x="1988" 
d="M188 0v1400h176l750 -1070v1070h184v-1400h-176l-749 1082v-1082h-185zM1556 -450q-61 0 -108 12.5t-85 32.5l47 145q24 -13 49 -20.5t62 -7.5q69 0 97 39t28 115v1114h184v-1134q0 -92 -33.5 -158t-95 -102t-145.5 -36zM1737 1165q-52 0 -90 35t-38 89t38 88.5t90 34.5
q53 0 90.5 -34.5t37.5 -88.5t-37.5 -89t-90.5 -35z" />
    <glyph glyph-name="Ntilde" unicode="&#xd1;" horiz-adv-x="1487" 
d="M188 0v1400h176l750 -1070v1070h184v-1400h-176l-749 1082v-1082h-185zM455 1594l-95 75q36 87 94 136.5t135 49.5q61 0 114 -24.5t102 -49.5t97 -25q44 0 77 30.5t54 87.5l94 -77q-29 -87 -88.5 -134t-135.5 -47q-60 0 -114.5 24t-104 48.5t-96.5 24.5q-43 0 -76.5 -29
t-56.5 -90z" />
    <glyph glyph-name="Eng" unicode="&#x14a;" horiz-adv-x="1487" 
d="M1132 -14l-759 1096v-1082h-185v1400h176l768 -1096v-318zM1021 -450q-60 0 -107 12.5t-86 32.5l47 145q25 -13 50.5 -20.5t62.5 -7.5q70 0 98 38t28 110v1540h184v-1554q0 -92 -34 -158t-96 -102t-147 -36z" />
    <glyph glyph-name="O" unicode="O" horiz-adv-x="1668" 
d="M834 -30q-157 0 -290.5 55.5t-233 154.5t-154.5 232t-55 288q0 156 55 289t154.5 232t233 154t290.5 55q156 0 289 -56t233 -156t155.5 -232.5t55.5 -285.5q0 -155 -55.5 -288t-155.5 -232t-233 -154.5t-289 -55.5zM834 149q113 0 210.5 39t170.5 111.5t114.5 174.5
t41.5 226q0 167 -71.5 291t-193.5 192.5t-272 68.5q-113 0 -210.5 -39.5t-171 -112t-114.5 -174t-41 -226.5q0 -166 71.5 -290t193.5 -192.5t272 -68.5z" />
    <glyph glyph-name="Oacute" unicode="&#xd3;" horiz-adv-x="1668" 
d="M834 -30q-157 0 -290.5 55.5t-233 154.5t-154.5 232t-55 288q0 156 55 289t154.5 232t233 154t290.5 55q156 0 289 -56t233 -156t155.5 -232.5t55.5 -285.5q0 -155 -55.5 -288t-155.5 -232t-233 -154.5t-289 -55.5zM834 149q113 0 210.5 39t170.5 111.5t114.5 174.5
t41.5 226q0 167 -71.5 291t-193.5 192.5t-272 68.5q-113 0 -210.5 -39.5t-171 -112t-114.5 -174t-41 -226.5q0 -166 71.5 -290t193.5 -192.5t272 -68.5zM733 1573l193 323h194l-212 -323h-175z" />
    <glyph glyph-name="Obreve" unicode="&#x14e;" horiz-adv-x="1668" 
d="M834 -30q-157 0 -290.5 55.5t-233 154.5t-154.5 232t-55 288q0 156 55 289t154.5 232t233 154t290.5 55q156 0 289 -56t233 -156t155.5 -232.5t55.5 -285.5q0 -155 -55.5 -288t-155.5 -232t-233 -154.5t-289 -55.5zM834 149q113 0 210.5 39t170.5 111.5t114.5 174.5
t41.5 226q0 167 -71.5 291t-193.5 192.5t-272 68.5q-113 0 -210.5 -39.5t-171 -112t-114.5 -174t-41 -226.5q0 -166 71.5 -290t193.5 -192.5t272 -68.5zM834 1563q-111 0 -194.5 42.5t-129.5 118t-43 172.5h161q-4 -89 53 -143.5t153 -54.5t151 54.5t50 143.5h162
q2 -97 -44.5 -172.5t-129.5 -118t-189 -42.5z" />
    <glyph glyph-name="Ocircumflex" unicode="&#xd4;" horiz-adv-x="1668" 
d="M834 -30q-157 0 -290.5 55.5t-233 154.5t-154.5 232t-55 288q0 156 55 289t154.5 232t233 154t290.5 55q156 0 289 -56t233 -156t155.5 -232.5t55.5 -285.5q0 -155 -55.5 -288t-155.5 -232t-233 -154.5t-289 -55.5zM834 149q113 0 210.5 39t170.5 111.5t114.5 174.5
t41.5 226q0 167 -71.5 291t-193.5 192.5t-272 68.5q-113 0 -210.5 -39.5t-171 -112t-114.5 -174t-41 -226.5q0 -166 71.5 -290t193.5 -192.5t272 -68.5zM467 1573l282 323h184l269 -323h-188l-177 210l-183 -210h-187z" />
    <glyph glyph-name="uni1ED0" unicode="&#x1ed0;" horiz-adv-x="1668" 
d="M834 -30q-157 0 -290.5 55.5t-233 154.5t-154.5 232t-55 288q0 156 55 289t154.5 232t233 154t290.5 55q156 0 289 -56t233 -156t155.5 -232.5t55.5 -285.5q0 -155 -55.5 -288t-155.5 -232t-233 -154.5t-289 -55.5zM834 149q113 0 210.5 39t170.5 111.5t114.5 174.5
t41.5 226q0 167 -71.5 291t-193.5 192.5t-272 68.5q-113 0 -210.5 -39.5t-171 -112t-114.5 -174t-41 -226.5q0 -166 71.5 -290t193.5 -192.5t272 -68.5zM467 1573l282 323h184l269 -323h-188l-177 210l-183 -210h-187zM1096 1842l193 323h194l-212 -323h-175z" />
    <glyph glyph-name="uni1ED8" unicode="&#x1ed8;" horiz-adv-x="1668" 
d="M834 -30q-157 0 -290.5 55.5t-233 154.5t-154.5 232t-55 288q0 156 55 289t154.5 232t233 154t290.5 55q156 0 289 -56t233 -156t155.5 -232.5t55.5 -285.5q0 -155 -55.5 -288t-155.5 -232t-233 -154.5t-289 -55.5zM834 149q113 0 210.5 39t170.5 111.5t114.5 174.5
t41.5 226q0 167 -71.5 291t-193.5 192.5t-272 68.5q-113 0 -210.5 -39.5t-171 -112t-114.5 -174t-41 -226.5q0 -166 71.5 -290t193.5 -192.5t272 -68.5zM834 -493q-52 0 -90 34.5t-38 88.5t38 89t90 35q53 0 90.5 -35t37.5 -89t-37.5 -88.5t-90.5 -34.5zM467 1573l282 323
h184l269 -323h-188l-177 210l-183 -210h-187z" />
    <glyph glyph-name="uni1ED2" unicode="&#x1ed2;" horiz-adv-x="1668" 
d="M834 -30q-157 0 -290.5 55.5t-233 154.5t-154.5 232t-55 288q0 156 55 289t154.5 232t233 154t290.5 55q156 0 289 -56t233 -156t155.5 -232.5t55.5 -285.5q0 -155 -55.5 -288t-155.5 -232t-233 -154.5t-289 -55.5zM834 149q113 0 210.5 39t170.5 111.5t114.5 174.5
t41.5 226q0 167 -71.5 291t-193.5 192.5t-272 68.5q-113 0 -210.5 -39.5t-171 -112t-114.5 -174t-41 -226.5q0 -166 71.5 -290t193.5 -192.5t272 -68.5zM467 1573l282 323h184l269 -323h-188l-177 210l-183 -210h-187zM1130 1842l-210 323h200l191 -323h-181z" />
    <glyph glyph-name="uni1ED4" unicode="&#x1ed4;" horiz-adv-x="1668" 
d="M834 -30q-157 0 -290.5 55.5t-233 154.5t-154.5 232t-55 288q0 156 55 289t154.5 232t233 154t290.5 55q156 0 289 -56t233 -156t155.5 -232.5t55.5 -285.5q0 -155 -55.5 -288t-155.5 -232t-233 -154.5t-289 -55.5zM834 149q113 0 210.5 39t170.5 111.5t114.5 174.5
t41.5 226q0 167 -71.5 291t-193.5 192.5t-272 68.5q-113 0 -210.5 -39.5t-171 -112t-114.5 -174t-41 -226.5q0 -166 71.5 -290t193.5 -192.5t272 -68.5zM467 1573l282 323h184l269 -323h-188l-177 210l-183 -210h-187zM1118 1842q-35 62 -15 104.5t99 67.5q65 22 86 35.5
t21 39.5q0 32 -38 51t-96 19q-51 0 -99.5 -10t-84.5 -27l-41 102q52 25 117 37.5t131 12.5q77 0 136 -20t93 -55.5t34 -81.5q0 -54 -30 -86.5t-112 -67.5q-63 -26 -78 -50t10 -71h-133z" />
    <glyph glyph-name="uni1ED6" unicode="&#x1ed6;" horiz-adv-x="1668" 
d="M834 -30q-157 0 -290.5 55.5t-233 154.5t-154.5 232t-55 288q0 156 55 289t154.5 232t233 154t290.5 55q156 0 289 -56t233 -156t155.5 -232.5t55.5 -285.5q0 -155 -55.5 -288t-155.5 -232t-233 -154.5t-289 -55.5zM834 149q113 0 210.5 39t170.5 111.5t114.5 174.5
t41.5 226q0 167 -71.5 291t-193.5 192.5t-272 68.5q-113 0 -210.5 -39.5t-171 -112t-114.5 -174t-41 -226.5q0 -166 71.5 -290t193.5 -192.5t272 -68.5zM467 1573l282 323h184l269 -323h-188l-177 210l-183 -210h-187zM545 2033l-95 75q36 87 94 136.5t135 49.5
q61 0 114 -24.5t102 -49.5t97 -25q44 0 77 30.5t54 87.5l94 -77q-29 -87 -88.5 -134t-135.5 -47q-60 0 -114.5 24t-104 48.5t-96.5 24.5q-43 0 -76.5 -29t-56.5 -90z" />
    <glyph glyph-name="uni020C" unicode="&#x20c;" horiz-adv-x="1668" 
d="M834 -30q-157 0 -290.5 55.5t-233 154.5t-154.5 232t-55 288q0 156 55 289t154.5 232t233 154t290.5 55q156 0 289 -56t233 -156t155.5 -232.5t55.5 -285.5q0 -155 -55.5 -288t-155.5 -232t-233 -154.5t-289 -55.5zM834 149q113 0 210.5 39t170.5 111.5t114.5 174.5
t41.5 226q0 167 -71.5 291t-193.5 192.5t-272 68.5q-113 0 -210.5 -39.5t-171 -112t-114.5 -174t-41 -226.5q0 -166 71.5 -290t193.5 -192.5t272 -68.5zM1128 1573h-175l-211 323h194zM726 1573h-175l-212 323h194z" />
    <glyph glyph-name="Odieresis" unicode="&#xd6;" horiz-adv-x="1668" 
d="M834 -30q-157 0 -290.5 55.5t-233 154.5t-154.5 232t-55 288q0 156 55 289t154.5 232t233 154t290.5 55q156 0 289 -56t233 -156t155.5 -232.5t55.5 -285.5q0 -155 -55.5 -288t-155.5 -232t-233 -154.5t-289 -55.5zM834 149q113 0 210.5 39t170.5 111.5t114.5 174.5
t41.5 226q0 167 -71.5 291t-193.5 192.5t-272 68.5q-113 0 -210.5 -39.5t-171 -112t-114.5 -174t-41 -226.5q0 -166 71.5 -290t193.5 -192.5t272 -68.5zM623 1568q-51 0 -89 34.5t-38 86.5q0 34 17.5 61t46.5 42.5t63 15.5q50 0 88.5 -33.5t38.5 -85.5q0 -35 -17.5 -62.5
t-46.5 -43t-63 -15.5zM1046 1568q-51 0 -89 34.5t-38 86.5q0 34 17 61t46 42.5t64 15.5q50 0 88 -33.5t38 -85.5q0 -35 -17.5 -62.5t-46.5 -43t-62 -15.5z" />
    <glyph glyph-name="uni022A" unicode="&#x22a;" horiz-adv-x="1668" 
d="M834 -30q-157 0 -290.5 55.5t-233 154.5t-154.5 232t-55 288q0 156 55 289t154.5 232t233 154t290.5 55q156 0 289 -56t233 -156t155.5 -232.5t55.5 -285.5q0 -155 -55.5 -288t-155.5 -232t-233 -154.5t-289 -55.5zM834 149q113 0 210.5 39t170.5 111.5t114.5 174.5
t41.5 226q0 167 -71.5 291t-193.5 192.5t-272 68.5q-113 0 -210.5 -39.5t-171 -112t-114.5 -174t-41 -226.5q0 -166 71.5 -290t193.5 -192.5t272 -68.5zM623 1568q-51 0 -89 34.5t-38 86.5q0 34 17.5 61t46.5 42.5t63 15.5q50 0 88.5 -33.5t38.5 -85.5q0 -35 -17.5 -62.5
t-46.5 -43t-63 -15.5zM1046 1568q-51 0 -89 34.5t-38 86.5q0 34 17 61t46 42.5t64 15.5q50 0 88 -33.5t38 -85.5q0 -35 -17.5 -62.5t-46.5 -43t-62 -15.5zM510 1967v134h647v-134h-647z" />
    <glyph glyph-name="uni0230" unicode="&#x230;" horiz-adv-x="1668" 
d="M834 -30q-157 0 -290.5 55.5t-233 154.5t-154.5 232t-55 288q0 156 55 289t154.5 232t233 154t290.5 55q156 0 289 -56t233 -156t155.5 -232.5t55.5 -285.5q0 -155 -55.5 -288t-155.5 -232t-233 -154.5t-289 -55.5zM834 149q113 0 210.5 39t170.5 111.5t114.5 174.5
t41.5 226q0 167 -71.5 291t-193.5 192.5t-272 68.5q-113 0 -210.5 -39.5t-171 -112t-114.5 -174t-41 -226.5q0 -166 71.5 -290t193.5 -192.5t272 -68.5zM834 1569q-54 0 -93 34.5t-39 88.5t39 88t93 34t93 -34t39 -89q0 -52 -39 -87t-93 -35zM510 1967v134h647v-134h-647z
" />
    <glyph glyph-name="uni1ECC" unicode="&#x1ecc;" horiz-adv-x="1668" 
d="M834 -30q-157 0 -290.5 55.5t-233 154.5t-154.5 232t-55 288q0 156 55 289t154.5 232t233 154t290.5 55q156 0 289 -56t233 -156t155.5 -232.5t55.5 -285.5q0 -155 -55.5 -288t-155.5 -232t-233 -154.5t-289 -55.5zM834 149q113 0 210.5 39t170.5 111.5t114.5 174.5
t41.5 226q0 167 -71.5 291t-193.5 192.5t-272 68.5q-113 0 -210.5 -39.5t-171 -112t-114.5 -174t-41 -226.5q0 -166 71.5 -290t193.5 -192.5t272 -68.5zM834 -493q-52 0 -90 34.5t-38 88.5t38 89t90 35q53 0 90.5 -35t37.5 -89t-37.5 -88.5t-90.5 -34.5z" />
    <glyph glyph-name="Ograve" unicode="&#xd2;" horiz-adv-x="1668" 
d="M834 -30q-157 0 -290.5 55.5t-233 154.5t-154.5 232t-55 288q0 156 55 289t154.5 232t233 154t290.5 55q156 0 289 -56t233 -156t155.5 -232.5t55.5 -285.5q0 -155 -55.5 -288t-155.5 -232t-233 -154.5t-289 -55.5zM834 149q113 0 210.5 39t170.5 111.5t114.5 174.5
t41.5 226q0 167 -71.5 291t-193.5 192.5t-272 68.5q-113 0 -210.5 -39.5t-171 -112t-114.5 -174t-41 -226.5q0 -166 71.5 -290t193.5 -192.5t272 -68.5zM767 1573l-210 323h200l191 -323h-181z" />
    <glyph glyph-name="uni1ECE" unicode="&#x1ece;" horiz-adv-x="1668" 
d="M834 -30q-157 0 -290.5 55.5t-233 154.5t-154.5 232t-55 288q0 156 55 289t154.5 232t233 154t290.5 55q156 0 289 -56t233 -156t155.5 -232.5t55.5 -285.5q0 -155 -55.5 -288t-155.5 -232t-233 -154.5t-289 -55.5zM834 149q113 0 210.5 39t170.5 111.5t114.5 174.5
t41.5 226q0 167 -71.5 291t-193.5 192.5t-272 68.5q-113 0 -210.5 -39.5t-171 -112t-114.5 -174t-41 -226.5q0 -166 71.5 -290t193.5 -192.5t272 -68.5zM755 1573q-35 62 -15 104.5t99 67.5q65 22 86 35.5t21 39.5q0 32 -38 51t-96 19q-51 0 -99.5 -10t-84.5 -27l-41 102
q52 25 117 37.5t131 12.5q77 0 136 -20t93 -55.5t34 -81.5q0 -54 -30 -86.5t-112 -67.5q-63 -26 -78 -50t10 -71h-133z" />
    <glyph glyph-name="Ohorn" unicode="&#x1a0;" horiz-adv-x="1668" 
d="M834 -30q-157 0 -290.5 55.5t-233 154.5t-154.5 232t-55 288q0 156 55 289t154.5 232t233 154t290.5 55q156 0 289 -56t233 -156t155.5 -232.5t55.5 -285.5q0 -155 -55.5 -288t-155.5 -232t-233 -154.5t-289 -55.5zM834 149q113 0 210.5 39t170.5 111.5t114.5 174.5
t41.5 226q0 167 -71.5 291t-193.5 192.5t-272 68.5q-113 0 -210.5 -39.5t-171 -112t-114.5 -174t-41 -226.5q0 -166 71.5 -290t193.5 -192.5t272 -68.5zM1389 1190q-53 0 -115.5 20t-132.5 47t-147 47.5t-160 20.5l-1 105q85 0 163.5 -18t146.5 -42t122 -42t91 -18
q56 0 81.5 24t25.5 62q0 24 -14.5 61t-52.5 81l127 62q48 -49 71.5 -104t23.5 -105q0 -55 -27 -100.5t-78 -73t-124 -27.5z" />
    <glyph glyph-name="uni1EDA" unicode="&#x1eda;" horiz-adv-x="1668" 
d="M834 -30q-157 0 -290.5 55.5t-233 154.5t-154.5 232t-55 288q0 156 55 289t154.5 232t233 154t290.5 55q156 0 289 -56t233 -156t155.5 -232.5t55.5 -285.5q0 -155 -55.5 -288t-155.5 -232t-233 -154.5t-289 -55.5zM834 149q113 0 210.5 39t170.5 111.5t114.5 174.5
t41.5 226q0 167 -71.5 291t-193.5 192.5t-272 68.5q-113 0 -210.5 -39.5t-171 -112t-114.5 -174t-41 -226.5q0 -166 71.5 -290t193.5 -192.5t272 -68.5zM1389 1190q-53 0 -115.5 20t-132.5 47t-147 47.5t-160 20.5l-1 105q85 0 163.5 -18t146.5 -42t122 -42t91 -18
q56 0 81.5 24t25.5 62q0 24 -14.5 61t-52.5 81l127 62q48 -49 71.5 -104t23.5 -105q0 -55 -27 -100.5t-78 -73t-124 -27.5zM733 1573l193 323h194l-212 -323h-175z" />
    <glyph glyph-name="uni1EE2" unicode="&#x1ee2;" horiz-adv-x="1668" 
d="M834 -30q-157 0 -290.5 55.5t-233 154.5t-154.5 232t-55 288q0 156 55 289t154.5 232t233 154t290.5 55q156 0 289 -56t233 -156t155.5 -232.5t55.5 -285.5q0 -155 -55.5 -288t-155.5 -232t-233 -154.5t-289 -55.5zM834 149q113 0 210.5 39t170.5 111.5t114.5 174.5
t41.5 226q0 167 -71.5 291t-193.5 192.5t-272 68.5q-113 0 -210.5 -39.5t-171 -112t-114.5 -174t-41 -226.5q0 -166 71.5 -290t193.5 -192.5t272 -68.5zM1389 1190q-53 0 -115.5 20t-132.5 47t-147 47.5t-160 20.5l-1 105q85 0 163.5 -18t146.5 -42t122 -42t91 -18
q56 0 81.5 24t25.5 62q0 24 -14.5 61t-52.5 81l127 62q48 -49 71.5 -104t23.5 -105q0 -55 -27 -100.5t-78 -73t-124 -27.5zM834 -493q-52 0 -90 34.5t-38 88.5t38 89t90 35q53 0 90.5 -35t37.5 -89t-37.5 -88.5t-90.5 -34.5z" />
    <glyph glyph-name="uni1EDC" unicode="&#x1edc;" horiz-adv-x="1668" 
d="M834 -30q-157 0 -290.5 55.5t-233 154.5t-154.5 232t-55 288q0 156 55 289t154.5 232t233 154t290.5 55q156 0 289 -56t233 -156t155.5 -232.5t55.5 -285.5q0 -155 -55.5 -288t-155.5 -232t-233 -154.5t-289 -55.5zM834 149q113 0 210.5 39t170.5 111.5t114.5 174.5
t41.5 226q0 167 -71.5 291t-193.5 192.5t-272 68.5q-113 0 -210.5 -39.5t-171 -112t-114.5 -174t-41 -226.5q0 -166 71.5 -290t193.5 -192.5t272 -68.5zM1389 1190q-53 0 -115.5 20t-132.5 47t-147 47.5t-160 20.5l-1 105q85 0 163.5 -18t146.5 -42t122 -42t91 -18
q56 0 81.5 24t25.5 62q0 24 -14.5 61t-52.5 81l127 62q48 -49 71.5 -104t23.5 -105q0 -55 -27 -100.5t-78 -73t-124 -27.5zM767 1573l-210 323h200l191 -323h-181z" />
    <glyph glyph-name="uni1EDE" unicode="&#x1ede;" horiz-adv-x="1668" 
d="M834 -30q-157 0 -290.5 55.5t-233 154.5t-154.5 232t-55 288q0 156 55 289t154.5 232t233 154t290.5 55q156 0 289 -56t233 -156t155.5 -232.5t55.5 -285.5q0 -155 -55.5 -288t-155.5 -232t-233 -154.5t-289 -55.5zM834 149q113 0 210.5 39t170.5 111.5t114.5 174.5
t41.5 226q0 167 -71.5 291t-193.5 192.5t-272 68.5q-113 0 -210.5 -39.5t-171 -112t-114.5 -174t-41 -226.5q0 -166 71.5 -290t193.5 -192.5t272 -68.5zM1389 1190q-53 0 -115.5 20t-132.5 47t-147 47.5t-160 20.5l-1 105q85 0 163.5 -18t146.5 -42t122 -42t91 -18
q56 0 81.5 24t25.5 62q0 24 -14.5 61t-52.5 81l127 62q48 -49 71.5 -104t23.5 -105q0 -55 -27 -100.5t-78 -73t-124 -27.5zM755 1573q-35 62 -15 104.5t99 67.5q65 22 86 35.5t21 39.5q0 32 -38 51t-96 19q-51 0 -99.5 -10t-84.5 -27l-41 102q52 25 117 37.5t131 12.5
q77 0 136 -20t93 -55.5t34 -81.5q0 -54 -30 -86.5t-112 -67.5q-63 -26 -78 -50t10 -71h-133z" />
    <glyph glyph-name="uni1EE0" unicode="&#x1ee0;" horiz-adv-x="1668" 
d="M834 -30q-157 0 -290.5 55.5t-233 154.5t-154.5 232t-55 288q0 156 55 289t154.5 232t233 154t290.5 55q156 0 289 -56t233 -156t155.5 -232.5t55.5 -285.5q0 -155 -55.5 -288t-155.5 -232t-233 -154.5t-289 -55.5zM834 149q113 0 210.5 39t170.5 111.5t114.5 174.5
t41.5 226q0 167 -71.5 291t-193.5 192.5t-272 68.5q-113 0 -210.5 -39.5t-171 -112t-114.5 -174t-41 -226.5q0 -166 71.5 -290t193.5 -192.5t272 -68.5zM1389 1190q-53 0 -115.5 20t-132.5 47t-147 47.5t-160 20.5l-1 105q85 0 163.5 -18t146.5 -42t122 -42t91 -18
q56 0 81.5 24t25.5 62q0 24 -14.5 61t-52.5 81l127 62q48 -49 71.5 -104t23.5 -105q0 -55 -27 -100.5t-78 -73t-124 -27.5zM545 1594l-95 75q36 87 94 136.5t135 49.5q61 0 114 -24.5t102 -49.5t97 -25q44 0 77 30.5t54 87.5l94 -77q-29 -87 -88.5 -134t-135.5 -47
q-60 0 -114.5 24t-104 48.5t-96.5 24.5q-43 0 -76.5 -29t-56.5 -90z" />
    <glyph glyph-name="Ohungarumlaut" unicode="&#x150;" horiz-adv-x="1668" 
d="M834 -30q-157 0 -290.5 55.5t-233 154.5t-154.5 232t-55 288q0 156 55 289t154.5 232t233 154t290.5 55q156 0 289 -56t233 -156t155.5 -232.5t55.5 -285.5q0 -155 -55.5 -288t-155.5 -232t-233 -154.5t-289 -55.5zM834 149q113 0 210.5 39t170.5 111.5t114.5 174.5
t41.5 226q0 167 -71.5 291t-193.5 192.5t-272 68.5q-113 0 -210.5 -39.5t-171 -112t-114.5 -174t-41 -226.5q0 -166 71.5 -290t193.5 -192.5t272 -68.5zM942 1573l193 323h193l-212 -323h-174zM539 1573l193 323h194l-212 -323h-175z" />
    <glyph glyph-name="uni020E" unicode="&#x20e;" horiz-adv-x="1668" 
d="M834 -30q-157 0 -290.5 55.5t-233 154.5t-154.5 232t-55 288q0 156 55 289t154.5 232t233 154t290.5 55q156 0 289 -56t233 -156t155.5 -232.5t55.5 -285.5q0 -155 -55.5 -288t-155.5 -232t-233 -154.5t-289 -55.5zM834 149q113 0 210.5 39t170.5 111.5t114.5 174.5
t41.5 226q0 167 -71.5 291t-193.5 192.5t-272 68.5q-113 0 -210.5 -39.5t-171 -112t-114.5 -174t-41 -226.5q0 -166 71.5 -290t193.5 -192.5t272 -68.5zM467 1573q-3 100 44 174.5t131 116.5t192 42q107 0 190 -43t129 -118.5t44 -171.5h-162q5 89 -51 143.5t-150 54.5
q-96 0 -153 -54.5t-53 -143.5h-161z" />
    <glyph glyph-name="Omacron" unicode="&#x14c;" horiz-adv-x="1668" 
d="M834 -30q-157 0 -290.5 55.5t-233 154.5t-154.5 232t-55 288q0 156 55 289t154.5 232t233 154t290.5 55q156 0 289 -56t233 -156t155.5 -232.5t55.5 -285.5q0 -155 -55.5 -288t-155.5 -232t-233 -154.5t-289 -55.5zM834 149q113 0 210.5 39t170.5 111.5t114.5 174.5
t41.5 226q0 167 -71.5 291t-193.5 192.5t-272 68.5q-113 0 -210.5 -39.5t-171 -112t-114.5 -174t-41 -226.5q0 -166 71.5 -290t193.5 -192.5t272 -68.5zM510 1629v134h647v-134h-647z" />
    <glyph glyph-name="uni01EA" unicode="&#x1ea;" horiz-adv-x="1668" 
d="M875 -450q-101 0 -157 59.5t-55 144.5t47.5 150t123.5 109t172 63l24 -80q-98 -25 -157 -73.5t-62 -130.5q0 -43 21 -72.5t72 -29.5q19 0 37 4t35 11t31 17l54 -121q-42 -24 -89.5 -37.5t-96.5 -13.5zM834 -30q-157 0 -290.5 55.5t-233 154.5t-154.5 232t-55 288
q0 156 55 289t154.5 232t233 154t290.5 55q156 0 289 -56t233 -156t155.5 -232.5t55.5 -285.5q0 -155 -55.5 -288t-155.5 -232t-233 -154.5t-289 -55.5zM834 149q113 0 210.5 39t170.5 111.5t114.5 174.5t41.5 226q0 167 -71.5 291t-193.5 192.5t-272 68.5
q-113 0 -210.5 -39.5t-171 -112t-114.5 -174t-41 -226.5q0 -166 71.5 -290t193.5 -192.5t272 -68.5z" />
    <glyph glyph-name="Oslash" unicode="&#xd8;" horiz-adv-x="1668" 
d="M294 -68l-119 106l126 151q-93 98 -146.5 228.5t-53.5 282.5q0 156 55.5 289t155 232t233 154t289.5 55q114 0 215 -31.5t185 -86.5l133 161l119 -106l-126 -151q97 -99 152 -231.5t55 -284.5q0 -155 -56 -288t-156 -232t-233 -154.5t-288 -55.5q-115 0 -218 31.5
t-190 88.5zM427 338l692 833q-59 41 -132.5 62.5t-152.5 21.5q-113 0 -211.5 -39.5t-172 -112.5t-115 -175t-41.5 -228q0 -111 36 -203t97 -159zM834 145q114 0 212 39.5t171.5 113t114.5 175.5t41 227q0 114 -35.5 209t-99.5 163l-699 -841q62 -41 137 -63.5t158 -22.5z
" />
    <glyph glyph-name="Oslashacute" unicode="&#x1fe;" horiz-adv-x="1668" 
d="M294 -68l-119 106l126 151q-93 98 -146.5 228.5t-53.5 282.5q0 156 55.5 289t155 232t233 154t289.5 55q114 0 215 -31.5t185 -86.5l133 161l119 -106l-126 -151q97 -99 152 -231.5t55 -284.5q0 -155 -56 -288t-156 -232t-233 -154.5t-288 -55.5q-115 0 -218 31.5
t-190 88.5zM427 338l692 833q-59 41 -132.5 62.5t-152.5 21.5q-113 0 -211.5 -39.5t-172 -112.5t-115 -175t-41.5 -228q0 -111 36 -203t97 -159zM834 145q114 0 212 39.5t171.5 113t114.5 175.5t41 227q0 114 -35.5 209t-99.5 163l-699 -841q62 -41 137 -63.5t158 -22.5z
M733 1573l193 323h194l-212 -323h-175z" />
    <glyph glyph-name="Otilde" unicode="&#xd5;" horiz-adv-x="1668" 
d="M834 -30q-157 0 -290.5 55.5t-233 154.5t-154.5 232t-55 288q0 156 55 289t154.5 232t233 154t290.5 55q156 0 289 -56t233 -156t155.5 -232.5t55.5 -285.5q0 -155 -55.5 -288t-155.5 -232t-233 -154.5t-289 -55.5zM834 149q113 0 210.5 39t170.5 111.5t114.5 174.5
t41.5 226q0 167 -71.5 291t-193.5 192.5t-272 68.5q-113 0 -210.5 -39.5t-171 -112t-114.5 -174t-41 -226.5q0 -166 71.5 -290t193.5 -192.5t272 -68.5zM545 1594l-95 75q36 87 94 136.5t135 49.5q61 0 114 -24.5t102 -49.5t97 -25q44 0 77 30.5t54 87.5l94 -77
q-29 -87 -88.5 -134t-135.5 -47q-60 0 -114.5 24t-104 48.5t-96.5 24.5q-43 0 -76.5 -29t-56.5 -90z" />
    <glyph glyph-name="uni022C" unicode="&#x22c;" horiz-adv-x="1668" 
d="M834 -30q-157 0 -290.5 55.5t-233 154.5t-154.5 232t-55 288q0 156 55 289t154.5 232t233 154t290.5 55q156 0 289 -56t233 -156t155.5 -232.5t55.5 -285.5q0 -155 -55.5 -288t-155.5 -232t-233 -154.5t-289 -55.5zM834 149q113 0 210.5 39t170.5 111.5t114.5 174.5
t41.5 226q0 167 -71.5 291t-193.5 192.5t-272 68.5q-113 0 -210.5 -39.5t-171 -112t-114.5 -174t-41 -226.5q0 -166 71.5 -290t193.5 -192.5t272 -68.5zM545 1594l-95 75q36 87 94 136.5t135 49.5q61 0 114 -24.5t102 -49.5t97 -25q44 0 77 30.5t54 87.5l94 -77
q-29 -87 -88.5 -134t-135.5 -47q-60 0 -114.5 24t-104 48.5t-96.5 24.5q-43 0 -76.5 -29t-56.5 -90zM510 1999v134h647v-134h-647z" />
    <glyph glyph-name="OE" unicode="&#x152;" horiz-adv-x="2393" 
d="M824 -30q-154 0 -286 55.5t-230 154.5t-152.5 232t-54.5 288q0 156 54.5 289t152.5 232t230 154t286 55q127 0 238.5 -39.5t201.5 -111t152 -168.5l-35 -45v334h867v-168h-689v-417h601v-161h-601v-485h696v-169h-874v332l35 -45q-92 -144 -247 -230.5t-345 -86.5z
M834 149q113 0 210.5 39t170.5 111.5t114.5 174.5t41.5 226q0 167 -71.5 291t-193.5 192.5t-272 68.5q-113 0 -210.5 -39.5t-171 -112t-114.5 -174t-41 -226.5q0 -166 71.5 -290t193.5 -192.5t272 -68.5z" />
    <glyph glyph-name="P" unicode="P" horiz-adv-x="1252" 
d="M188 0v1400h489q147 0 259 -50t175.5 -144.5t63.5 -226.5q0 -135 -59 -228t-171 -141.5t-272 -48.5h-297v-561h-188zM376 726h303q147 0 227.5 62t80.5 187q0 122 -82.5 190t-223.5 68h-305v-507z" />
    <glyph glyph-name="Thorn" unicode="&#xde;" horiz-adv-x="1266" 
d="M188 0v1400h188v-260h320q147 0 259 -50.5t175.5 -144.5t63.5 -226q0 -136 -58.5 -229t-170.5 -141t-273 -48h-316v-301h-188zM376 465h323q146 0 226.5 62.5t80.5 186.5q0 122 -82 190.5t-223 68.5h-325v-508z" />
    <glyph glyph-name="Q" unicode="Q" horiz-adv-x="1668" 
d="M1397 -68l-144 167q-89 -60 -196.5 -94.5t-226.5 -34.5q-154 0 -287 55t-232 154t-154.5 232t-55.5 289t55.5 289t154.5 232t233 154t290 55q154 0 287 -55.5t233.5 -155t156.5 -231.5t56 -286q0 -149 -53 -279t-146 -228l141 -163zM834 138q86 0 164 24t143 70l-223 256
l108 96l224 -256q61 71 96 165t35 207q0 169 -73.5 294.5t-197.5 194.5t-276 69q-114 0 -213 -39.5t-173 -113t-115.5 -176t-41.5 -229.5q0 -168 72.5 -294.5t195.5 -197t275 -70.5z" />
    <glyph glyph-name="R" unicode="R" horiz-adv-x="1314" 
d="M188 0v1400h516q142 0 245.5 -50t160 -142.5t56.5 -217.5q0 -105 -46 -185.5t-130 -131.5t-196 -68l437 -605h-230l-412 581h-213v-581h-188zM376 742h292q146 0 227.5 63t81.5 178q0 118 -72 186t-218 68h-311v-495z" />
    <glyph glyph-name="Racute" unicode="&#x154;" horiz-adv-x="1314" 
d="M188 0v1400h516q142 0 245.5 -50t160 -142.5t56.5 -217.5q0 -105 -46 -185.5t-130 -131.5t-196 -68l437 -605h-230l-412 581h-213v-581h-188zM376 742h292q146 0 227.5 63t81.5 178q0 118 -72 186t-218 68h-311v-495zM529 1573l193 323h194l-212 -323h-175z" />
    <glyph glyph-name="Rcaron" unicode="&#x158;" horiz-adv-x="1314" 
d="M188 0v1400h516q142 0 245.5 -50t160 -142.5t56.5 -217.5q0 -105 -46 -185.5t-130 -131.5t-196 -68l437 -605h-230l-412 581h-213v-581h-188zM376 742h292q146 0 227.5 63t81.5 178q0 118 -72 186t-218 68h-311v-495zM533 1573l-270 323h188l177 -210l183 210h187
l-283 -323h-182z" />
    <glyph glyph-name="uni0156" unicode="&#x156;" horiz-adv-x="1314" 
d="M188 0v1400h516q142 0 245.5 -50t160 -142.5t56.5 -217.5q0 -105 -46 -185.5t-130 -131.5t-196 -68l437 -605h-230l-412 581h-213v-581h-188zM376 742h292q146 0 227.5 63t81.5 178q0 118 -72 186t-218 68h-311v-495zM590 -699l-65 83q63 27 112 66t66 77
q-38 -2 -69.5 11t-50 39t-18.5 59q0 52 35.5 85t91.5 33q62 0 100.5 -40.5t38.5 -108.5q0 -54 -27 -107.5t-81 -103.5t-133 -93z" />
    <glyph glyph-name="uni0210" unicode="&#x210;" horiz-adv-x="1314" 
d="M188 0v1400h516q142 0 245.5 -50t160 -142.5t56.5 -217.5q0 -105 -46 -185.5t-130 -131.5t-196 -68l437 -605h-230l-412 581h-213v-581h-188zM376 742h292q146 0 227.5 63t81.5 178q0 118 -72 186t-218 68h-311v-495zM924 1573h-175l-211 323h194zM522 1573h-175
l-212 323h194z" />
    <glyph glyph-name="uni0212" unicode="&#x212;" horiz-adv-x="1314" 
d="M188 0v1400h516q142 0 245.5 -50t160 -142.5t56.5 -217.5q0 -105 -46 -185.5t-130 -131.5t-196 -68l437 -605h-230l-412 581h-213v-581h-188zM376 742h292q146 0 227.5 63t81.5 178q0 118 -72 186t-218 68h-311v-495zM263 1573q-3 100 44 174.5t131 116.5t192 42
q107 0 190 -43t129 -118.5t44 -171.5h-162q5 89 -51 143.5t-150 54.5q-96 0 -153 -54.5t-53 -143.5h-161z" />
    <glyph glyph-name="S" unicode="S" horiz-adv-x="1249" 
d="M633 -30q-141 0 -275 39.5t-226 113.5l94 147q52 -43 118 -73t140 -46t150 -16q149 0 239.5 58t90.5 170q0 82 -60.5 139t-225.5 104l-152 45q-192 56 -281 147t-89 228q0 92 37 166t104 127.5t158.5 82t200.5 28.5q135 0 251.5 -39.5t192.5 -105.5l-97 -141
q-45 38 -103 65.5t-124 42t-134 14.5q-91 0 -160.5 -26.5t-108 -78t-38.5 -124.5q0 -53 25 -92.5t87 -72.5t171 -65l162 -48q187 -55 275 -144.5t88 -234.5q0 -122 -59.5 -214.5t-173.5 -144t-277 -51.5z" />
    <glyph glyph-name="Sacute" unicode="&#x15a;" horiz-adv-x="1249" 
d="M633 -30q-141 0 -275 39.5t-226 113.5l94 147q52 -43 118 -73t140 -46t150 -16q149 0 239.5 58t90.5 170q0 82 -60.5 139t-225.5 104l-152 45q-192 56 -281 147t-89 228q0 92 37 166t104 127.5t158.5 82t200.5 28.5q135 0 251.5 -39.5t192.5 -105.5l-97 -141
q-45 38 -103 65.5t-124 42t-134 14.5q-91 0 -160.5 -26.5t-108 -78t-38.5 -124.5q0 -53 25 -92.5t87 -72.5t171 -65l162 -48q187 -55 275 -144.5t88 -234.5q0 -122 -59.5 -214.5t-173.5 -144t-277 -51.5zM550 1573l193 323h194l-212 -323h-175z" />
    <glyph glyph-name="Scaron" unicode="&#x160;" horiz-adv-x="1249" 
d="M633 -30q-141 0 -275 39.5t-226 113.5l94 147q52 -43 118 -73t140 -46t150 -16q149 0 239.5 58t90.5 170q0 82 -60.5 139t-225.5 104l-152 45q-192 56 -281 147t-89 228q0 92 37 166t104 127.5t158.5 82t200.5 28.5q135 0 251.5 -39.5t192.5 -105.5l-97 -141
q-45 38 -103 65.5t-124 42t-134 14.5q-91 0 -160.5 -26.5t-108 -78t-38.5 -124.5q0 -53 25 -92.5t87 -72.5t171 -65l162 -48q187 -55 275 -144.5t88 -234.5q0 -122 -59.5 -214.5t-173.5 -144t-277 -51.5zM553 1573l-270 323h188l177 -210l183 210h187l-283 -323h-182z" />
    <glyph glyph-name="Scedilla" unicode="&#x15e;" horiz-adv-x="1249" 
d="M633 -30q-141 0 -275 39.5t-226 113.5l94 147q52 -43 118 -73t140 -46t150 -16q149 0 239.5 58t90.5 170q0 82 -60.5 139t-225.5 104l-152 45q-192 56 -281 147t-89 228q0 92 37 166t104 127.5t158.5 82t200.5 28.5q135 0 251.5 -39.5t192.5 -105.5l-97 -141
q-45 38 -103 65.5t-124 42t-134 14.5q-91 0 -160.5 -26.5t-108 -78t-38.5 -124.5q0 -53 25 -92.5t87 -72.5t171 -65l162 -48q187 -55 275 -144.5t88 -234.5q0 -122 -59.5 -214.5t-173.5 -144t-277 -51.5zM615 -450q-67 0 -123.5 16.5t-100.5 44.5l45 106q23 -24 74.5 -39
t97.5 -15q44 0 80.5 17t36.5 57q0 44 -51 61t-112 8l-43 79l54 155h113l-38 -123q100 -8 163 -52t63 -125q0 -69 -41.5 -111t-102 -60.5t-115.5 -18.5z" />
    <glyph glyph-name="Scircumflex" unicode="&#x15c;" horiz-adv-x="1249" 
d="M633 -30q-141 0 -275 39.5t-226 113.5l94 147q52 -43 118 -73t140 -46t150 -16q149 0 239.5 58t90.5 170q0 82 -60.5 139t-225.5 104l-152 45q-192 56 -281 147t-89 228q0 92 37 166t104 127.5t158.5 82t200.5 28.5q135 0 251.5 -39.5t192.5 -105.5l-97 -141
q-45 38 -103 65.5t-124 42t-134 14.5q-91 0 -160.5 -26.5t-108 -78t-38.5 -124.5q0 -53 25 -92.5t87 -72.5t171 -65l162 -48q187 -55 275 -144.5t88 -234.5q0 -122 -59.5 -214.5t-173.5 -144t-277 -51.5zM283 1573l282 323h184l269 -323h-188l-177 210l-183 -210h-187z" />
    <glyph glyph-name="uni0218" unicode="&#x218;" horiz-adv-x="1249" 
d="M633 -30q-141 0 -275 39.5t-226 113.5l94 147q52 -43 118 -73t140 -46t150 -16q149 0 239.5 58t90.5 170q0 82 -60.5 139t-225.5 104l-152 45q-192 56 -281 147t-89 228q0 92 37 166t104 127.5t158.5 82t200.5 28.5q135 0 251.5 -39.5t192.5 -105.5l-97 -141
q-45 38 -103 65.5t-124 42t-134 14.5q-91 0 -160.5 -26.5t-108 -78t-38.5 -124.5q0 -53 25 -92.5t87 -72.5t171 -65l162 -48q187 -55 275 -144.5t88 -234.5q0 -122 -59.5 -214.5t-173.5 -144t-277 -51.5zM527 -699l-65 83q63 27 112 66t66 77q-38 -2 -69.5 11t-50 39
t-18.5 59q0 52 35.5 85t91.5 33q62 0 100.5 -40.5t38.5 -108.5q0 -54 -27 -107.5t-81 -103.5t-133 -93z" />
    <glyph glyph-name="uni1E9E" unicode="&#x1e9e;" horiz-adv-x="1437" 
d="M925 -30q-54 0 -126 9t-161 39l54 149q41 -14 98.5 -26.5t122.5 -11.5q77 1 134 22t88.5 61.5t31.5 97.5q0 52 -29.5 89.5t-76.5 67t-99.5 59t-99.5 65.5t-76.5 86t-29.5 121q0 62 28.5 120t86 123.5t147.5 150.5q-32 16 -69 31t-84.5 25.5t-109.5 10.5
q-178 0 -275 -101.5t-97 -272.5v-885h-197v885q0 161 72.5 284t201 192t298.5 69q150 0 262 -36.5t200 -85.5v-132q-102 -90 -158.5 -152.5t-78.5 -110.5t-22 -93q0 -51 30 -90t77 -72t100 -65t100 -70.5t77 -88t30 -116.5q0 -105 -57 -183t-158.5 -121.5t-234.5 -43.5z" />
    <glyph glyph-name="T" unicode="T" horiz-adv-x="1108" 
d="M460 0v1227h-401v173h990v-173h-401v-1227h-188z" />
    <glyph glyph-name="Tbar" unicode="&#x166;" horiz-adv-x="1148" 
d="M480 0v1227h-401v173h990v-173h-401v-1227h-188zM140 631v143h870v-143h-870z" />
    <glyph glyph-name="Tcaron" unicode="&#x164;" horiz-adv-x="1108" 
d="M460 0v1227h-401v173h990v-173h-401v-1227h-188zM457 1573l-270 323h188l177 -210l183 210h187l-283 -323h-182z" />
    <glyph glyph-name="uni0162" unicode="&#x162;" horiz-adv-x="1108" 
d="M460 0v1227h-401v173h990v-173h-401v-1227h-188zM536 -450q-67 0 -123.5 16.5t-100.5 44.5l45 106q23 -24 74.5 -39t97.5 -15q44 0 80.5 17t36.5 57q0 44 -51 61t-112 8l-43 79l54 155h113l-38 -123q100 -8 163 -52t63 -125q0 -69 -41.5 -111t-102 -60.5t-115.5 -18.5z
" />
    <glyph glyph-name="uni021A" unicode="&#x21a;" horiz-adv-x="1108" 
d="M460 0v1227h-401v173h990v-173h-401v-1227h-188zM448 -699l-65 83q63 27 112 66t66 77q-38 -2 -69.5 11t-50 39t-18.5 59q0 52 35.5 85t91.5 33q62 0 100.5 -40.5t38.5 -108.5q0 -54 -27 -107.5t-81 -103.5t-133 -93z" />
    <glyph glyph-name="U" unicode="U" horiz-adv-x="1467" 
d="M734 -30q-185 0 -308 75.5t-185 204t-62 286.5v864h188v-857q0 -199 99.5 -296.5t267.5 -97.5q167 0 266.5 97.5t99.5 296.5v857h188v-864q0 -158 -62 -286t-185 -204t-307 -76z" />
    <glyph glyph-name="Uacute" unicode="&#xda;" horiz-adv-x="1467" 
d="M734 -30q-185 0 -308 75.5t-185 204t-62 286.5v864h188v-857q0 -199 99.5 -296.5t267.5 -97.5q167 0 266.5 97.5t99.5 296.5v857h188v-864q0 -158 -62 -286t-185 -204t-307 -76zM633 1573l193 323h194l-212 -323h-175z" />
    <glyph glyph-name="Ubreve" unicode="&#x16c;" horiz-adv-x="1467" 
d="M734 -30q-185 0 -308 75.5t-185 204t-62 286.5v864h188v-857q0 -199 99.5 -296.5t267.5 -97.5q167 0 266.5 97.5t99.5 296.5v857h188v-864q0 -158 -62 -286t-185 -204t-307 -76zM734 1563q-111 0 -194.5 42.5t-129.5 118t-43 172.5h161q-4 -89 53 -143.5t153 -54.5
t151 54.5t50 143.5h162q2 -97 -44.5 -172.5t-129.5 -118t-189 -42.5z" />
    <glyph glyph-name="Ucircumflex" unicode="&#xdb;" horiz-adv-x="1467" 
d="M734 -30q-185 0 -308 75.5t-185 204t-62 286.5v864h188v-857q0 -199 99.5 -296.5t267.5 -97.5q167 0 266.5 97.5t99.5 296.5v857h188v-864q0 -158 -62 -286t-185 -204t-307 -76zM367 1573l282 323h184l269 -323h-188l-177 210l-183 -210h-187z" />
    <glyph glyph-name="uni0214" unicode="&#x214;" horiz-adv-x="1467" 
d="M734 -30q-185 0 -308 75.5t-185 204t-62 286.5v864h188v-857q0 -199 99.5 -296.5t267.5 -97.5q167 0 266.5 97.5t99.5 296.5v857h188v-864q0 -158 -62 -286t-185 -204t-307 -76zM1028 1573h-175l-211 323h194zM626 1573h-175l-212 323h194z" />
    <glyph glyph-name="Udieresis" unicode="&#xdc;" horiz-adv-x="1467" 
d="M734 -30q-185 0 -308 75.5t-185 204t-62 286.5v864h188v-857q0 -199 99.5 -296.5t267.5 -97.5q167 0 266.5 97.5t99.5 296.5v857h188v-864q0 -158 -62 -286t-185 -204t-307 -76zM523 1568q-51 0 -89 34.5t-38 86.5q0 34 17.5 61t46.5 42.5t63 15.5q50 0 88.5 -33.5
t38.5 -85.5q0 -35 -17.5 -62.5t-46.5 -43t-63 -15.5zM946 1568q-51 0 -89 34.5t-38 86.5q0 34 17 61t46 42.5t64 15.5q50 0 88 -33.5t38 -85.5q0 -35 -17.5 -62.5t-46.5 -43t-62 -15.5z" />
    <glyph glyph-name="uni1EE4" unicode="&#x1ee4;" horiz-adv-x="1467" 
d="M734 -30q-185 0 -308 75.5t-185 204t-62 286.5v864h188v-857q0 -199 99.5 -296.5t267.5 -97.5q167 0 266.5 97.5t99.5 296.5v857h188v-864q0 -158 -62 -286t-185 -204t-307 -76zM734 -493q-52 0 -90 34.5t-38 88.5t38 89t90 35q53 0 90.5 -35t37.5 -89t-37.5 -88.5
t-90.5 -34.5z" />
    <glyph glyph-name="Ugrave" unicode="&#xd9;" horiz-adv-x="1467" 
d="M734 -30q-185 0 -308 75.5t-185 204t-62 286.5v864h188v-857q0 -199 99.5 -296.5t267.5 -97.5q167 0 266.5 97.5t99.5 296.5v857h188v-864q0 -158 -62 -286t-185 -204t-307 -76zM667 1573l-210 323h200l191 -323h-181z" />
    <glyph glyph-name="uni1EE6" unicode="&#x1ee6;" horiz-adv-x="1467" 
d="M734 -30q-185 0 -308 75.5t-185 204t-62 286.5v864h188v-857q0 -199 99.5 -296.5t267.5 -97.5q167 0 266.5 97.5t99.5 296.5v857h188v-864q0 -158 -62 -286t-185 -204t-307 -76zM655 1573q-35 62 -15 104.5t99 67.5q65 22 86 35.5t21 39.5q0 32 -38 51t-96 19
q-51 0 -99.5 -10t-84.5 -27l-41 102q52 25 117 37.5t131 12.5q77 0 136 -20t93 -55.5t34 -81.5q0 -54 -30 -86.5t-112 -67.5q-63 -26 -78 -50t10 -71h-133z" />
    <glyph glyph-name="Uhorn" unicode="&#x1af;" horiz-adv-x="1602" 
d="M734 -30q-185 0 -308 75.5t-185 204t-62 286.5v864h188v-857q0 -199 99.5 -296.5t267.5 -97.5q167 0 266.5 97.5t99.5 296.5v857h188v-864q0 -158 -62 -286t-185 -204t-307 -76zM1389 1150q-52 0 -110.5 20.5t-111.5 44.5v114q50 -22 101 -40.5t88 -18.5q55 0 80.5 29.5
t25.5 76.5q0 28 -14 70t-53 92l128 62q47 -54 71 -114.5t24 -114.5q0 -61 -27 -111t-78.5 -80t-123.5 -30z" />
    <glyph glyph-name="uni1EE8" unicode="&#x1ee8;" horiz-adv-x="1602" 
d="M734 -30q-185 0 -308 75.5t-185 204t-62 286.5v864h188v-857q0 -199 99.5 -296.5t267.5 -97.5q167 0 266.5 97.5t99.5 296.5v857h188v-864q0 -158 -62 -286t-185 -204t-307 -76zM1389 1150q-52 0 -110.5 20.5t-111.5 44.5v114q50 -22 101 -40.5t88 -18.5q55 0 80.5 29.5
t25.5 76.5q0 28 -14 70t-53 92l128 62q47 -54 71 -114.5t24 -114.5q0 -61 -27 -111t-78.5 -80t-123.5 -30zM633 1573l193 323h194l-212 -323h-175z" />
    <glyph glyph-name="uni1EF0" unicode="&#x1ef0;" horiz-adv-x="1602" 
d="M734 -30q-185 0 -308 75.5t-185 204t-62 286.5v864h188v-857q0 -199 99.5 -296.5t267.5 -97.5q167 0 266.5 97.5t99.5 296.5v857h188v-864q0 -158 -62 -286t-185 -204t-307 -76zM1389 1150q-52 0 -110.5 20.5t-111.5 44.5v114q50 -22 101 -40.5t88 -18.5q55 0 80.5 29.5
t25.5 76.5q0 28 -14 70t-53 92l128 62q47 -54 71 -114.5t24 -114.5q0 -61 -27 -111t-78.5 -80t-123.5 -30zM734 -493q-52 0 -90 34.5t-38 88.5t38 89t90 35q53 0 90.5 -35t37.5 -89t-37.5 -88.5t-90.5 -34.5z" />
    <glyph glyph-name="uni1EEA" unicode="&#x1eea;" horiz-adv-x="1602" 
d="M734 -30q-185 0 -308 75.5t-185 204t-62 286.5v864h188v-857q0 -199 99.5 -296.5t267.5 -97.5q167 0 266.5 97.5t99.5 296.5v857h188v-864q0 -158 -62 -286t-185 -204t-307 -76zM1389 1150q-52 0 -110.5 20.5t-111.5 44.5v114q50 -22 101 -40.5t88 -18.5q55 0 80.5 29.5
t25.5 76.5q0 28 -14 70t-53 92l128 62q47 -54 71 -114.5t24 -114.5q0 -61 -27 -111t-78.5 -80t-123.5 -30zM667 1573l-210 323h200l191 -323h-181z" />
    <glyph glyph-name="uni1EEC" unicode="&#x1eec;" horiz-adv-x="1602" 
d="M734 -30q-185 0 -308 75.5t-185 204t-62 286.5v864h188v-857q0 -199 99.5 -296.5t267.5 -97.5q167 0 266.5 97.5t99.5 296.5v857h188v-864q0 -158 -62 -286t-185 -204t-307 -76zM1389 1150q-52 0 -110.5 20.5t-111.5 44.5v114q50 -22 101 -40.5t88 -18.5q55 0 80.5 29.5
t25.5 76.5q0 28 -14 70t-53 92l128 62q47 -54 71 -114.5t24 -114.5q0 -61 -27 -111t-78.5 -80t-123.5 -30zM655 1573q-35 62 -15 104.5t99 67.5q65 22 86 35.5t21 39.5q0 32 -38 51t-96 19q-51 0 -99.5 -10t-84.5 -27l-41 102q52 25 117 37.5t131 12.5q77 0 136 -20
t93 -55.5t34 -81.5q0 -54 -30 -86.5t-112 -67.5q-63 -26 -78 -50t10 -71h-133z" />
    <glyph glyph-name="uni1EEE" unicode="&#x1eee;" horiz-adv-x="1602" 
d="M734 -30q-185 0 -308 75.5t-185 204t-62 286.5v864h188v-857q0 -199 99.5 -296.5t267.5 -97.5q167 0 266.5 97.5t99.5 296.5v857h188v-864q0 -158 -62 -286t-185 -204t-307 -76zM1389 1150q-52 0 -110.5 20.5t-111.5 44.5v114q50 -22 101 -40.5t88 -18.5q55 0 80.5 29.5
t25.5 76.5q0 28 -14 70t-53 92l128 62q47 -54 71 -114.5t24 -114.5q0 -61 -27 -111t-78.5 -80t-123.5 -30zM445 1594l-95 75q36 87 94 136.5t135 49.5q61 0 114 -24.5t102 -49.5t97 -25q44 0 77 30.5t54 87.5l94 -77q-29 -87 -88.5 -134t-135.5 -47q-60 0 -114.5 24
t-104 48.5t-96.5 24.5q-43 0 -76.5 -29t-56.5 -90z" />
    <glyph glyph-name="Uhungarumlaut" unicode="&#x170;" horiz-adv-x="1467" 
d="M734 -30q-185 0 -308 75.5t-185 204t-62 286.5v864h188v-857q0 -199 99.5 -296.5t267.5 -97.5q167 0 266.5 97.5t99.5 296.5v857h188v-864q0 -158 -62 -286t-185 -204t-307 -76zM842 1573l193 323h193l-212 -323h-174zM439 1573l193 323h194l-212 -323h-175z" />
    <glyph glyph-name="uni0216" unicode="&#x216;" horiz-adv-x="1467" 
d="M734 -30q-185 0 -308 75.5t-185 204t-62 286.5v864h188v-857q0 -199 99.5 -296.5t267.5 -97.5q167 0 266.5 97.5t99.5 296.5v857h188v-864q0 -158 -62 -286t-185 -204t-307 -76zM367 1573q-3 100 44 174.5t131 116.5t192 42q107 0 190 -43t129 -118.5t44 -171.5h-162
q5 89 -51 143.5t-150 54.5q-96 0 -153 -54.5t-53 -143.5h-161z" />
    <glyph glyph-name="Umacron" unicode="&#x16a;" horiz-adv-x="1467" 
d="M734 -30q-185 0 -308 75.5t-185 204t-62 286.5v864h188v-857q0 -199 99.5 -296.5t267.5 -97.5q167 0 266.5 97.5t99.5 296.5v857h188v-864q0 -158 -62 -286t-185 -204t-307 -76zM410 1629v134h647v-134h-647z" />
    <glyph glyph-name="Uogonek" unicode="&#x172;" horiz-adv-x="1467" 
d="M892 -450q-101 0 -157 59.5t-55 144.5q1 64 25.5 118.5t65.5 99.5q-185 -6 -317.5 61t-203.5 195.5t-71 307.5v864h188v-857q0 -199 99.5 -296.5t267.5 -97.5q167 0 266.5 97.5t99.5 296.5v857h188v-864q0 -170 -71.5 -305.5t-212.5 -202.5q-78 -40 -126 -97.5
t-50 -138.5q-1 -43 20.5 -72.5t72.5 -29.5q28 0 54.5 8.5t48.5 23.5l53 -121q-41 -24 -88.5 -37.5t-96.5 -13.5z" />
    <glyph glyph-name="Uring" unicode="&#x16e;" horiz-adv-x="1467" 
d="M734 -30q-185 0 -308 75.5t-185 204t-62 286.5v864h188v-857q0 -199 99.5 -296.5t267.5 -97.5q167 0 266.5 97.5t99.5 296.5v857h188v-864q0 -158 -62 -286t-185 -204t-307 -76zM734 1466q-79 0 -145.5 36.5t-106.5 99.5t-40 141t40 141t106.5 100t145.5 37q80 0 146 -37
t106 -100t40 -141t-40 -141t-106 -99.5t-146 -36.5zM734 1587q70 0 116 44t46 112t-46 112t-116 44q-69 0 -115.5 -44t-46.5 -112t46.5 -112t115.5 -44z" />
    <glyph glyph-name="Utilde" unicode="&#x168;" horiz-adv-x="1467" 
d="M734 -30q-185 0 -308 75.5t-185 204t-62 286.5v864h188v-857q0 -199 99.5 -296.5t267.5 -97.5q167 0 266.5 97.5t99.5 296.5v857h188v-864q0 -158 -62 -286t-185 -204t-307 -76zM445 1594l-95 75q36 87 94 136.5t135 49.5q61 0 114 -24.5t102 -49.5t97 -25q44 0 77 30.5
t54 87.5l94 -77q-29 -87 -88.5 -134t-135.5 -47q-60 0 -114.5 24t-104 48.5t-96.5 24.5q-43 0 -76.5 -29t-56.5 -90z" />
    <glyph glyph-name="V" unicode="V" horiz-adv-x="1301" 
d="M563 0l-546 1400h212l433 -1142l415 1142h206l-528 -1400h-192z" />
    <glyph glyph-name="W" unicode="W" horiz-adv-x="2025" 
d="M473 0l-421 1400h199l326 -1151l339 1151h200l337 -1149l326 1149h193l-419 -1400h-207l-331 1115l-336 -1115h-206z" />
    <glyph glyph-name="Wacute" unicode="&#x1e82;" horiz-adv-x="2025" 
d="M473 0l-421 1400h199l326 -1151l339 1151h200l337 -1149l326 1149h193l-419 -1400h-207l-331 1115l-336 -1115h-206zM913 1573l193 323h194l-212 -323h-175z" />
    <glyph glyph-name="Wcircumflex" unicode="&#x174;" horiz-adv-x="2025" 
d="M473 0l-421 1400h199l326 -1151l339 1151h200l337 -1149l326 1149h193l-419 -1400h-207l-331 1115l-336 -1115h-206zM647 1573l282 323h184l269 -323h-188l-177 210l-183 -210h-187z" />
    <glyph glyph-name="Wdieresis" unicode="&#x1e84;" horiz-adv-x="2025" 
d="M473 0l-421 1400h199l326 -1151l339 1151h200l337 -1149l326 1149h193l-419 -1400h-207l-331 1115l-336 -1115h-206zM803 1568q-51 0 -89 34.5t-38 86.5q0 34 17.5 61t46.5 42.5t63 15.5q50 0 88.5 -33.5t38.5 -85.5q0 -35 -17.5 -62.5t-46.5 -43t-63 -15.5zM1226 1568
q-51 0 -89 34.5t-38 86.5q0 34 17 61t46 42.5t64 15.5q50 0 88 -33.5t38 -85.5q0 -35 -17.5 -62.5t-46.5 -43t-62 -15.5z" />
    <glyph glyph-name="Wgrave" unicode="&#x1e80;" horiz-adv-x="2025" 
d="M473 0l-421 1400h199l326 -1151l339 1151h200l337 -1149l326 1149h193l-419 -1400h-207l-331 1115l-336 -1115h-206zM947 1573l-210 323h200l191 -323h-181z" />
    <glyph glyph-name="X" unicode="X" horiz-adv-x="1324" 
d="M61 0l461 719l-435 681h224l347 -545l373 545h216l-461 -687l476 -713h-225l-387 581l-371 -581h-218z" />
    <glyph glyph-name="Y" unicode="Y" horiz-adv-x="1219" 
d="M515 0v611l-495 789h217l377 -607l374 607h211l-495 -790v-610h-189z" />
    <glyph glyph-name="Yacute" unicode="&#xdd;" horiz-adv-x="1219" 
d="M515 0v611l-495 789h217l377 -607l374 607h211l-495 -790v-610h-189zM509 1573l193 323h194l-212 -323h-175z" />
    <glyph glyph-name="Ycircumflex" unicode="&#x176;" horiz-adv-x="1219" 
d="M515 0v611l-495 789h217l377 -607l374 607h211l-495 -790v-610h-189zM242 1573l282 323h184l269 -323h-188l-177 210l-183 -210h-187z" />
    <glyph glyph-name="Ydieresis" unicode="&#x178;" horiz-adv-x="1219" 
d="M515 0v611l-495 789h217l377 -607l374 607h211l-495 -790v-610h-189zM399 1568q-51 0 -89 34.5t-38 86.5q0 34 17.5 61t46.5 42.5t63 15.5q50 0 88.5 -33.5t38.5 -85.5q0 -35 -17.5 -62.5t-46.5 -43t-63 -15.5zM822 1568q-51 0 -89 34.5t-38 86.5q0 34 17 61t46 42.5
t64 15.5q50 0 88 -33.5t38 -85.5q0 -35 -17.5 -62.5t-46.5 -43t-62 -15.5z" />
    <glyph glyph-name="uni1EF4" unicode="&#x1ef4;" horiz-adv-x="1219" 
d="M515 0v611l-495 789h217l377 -607l374 607h211l-495 -790v-610h-189zM610 -493q-52 0 -90 34.5t-38 88.5t38 89t90 35q53 0 90.5 -35t37.5 -89t-37.5 -88.5t-90.5 -34.5z" />
    <glyph glyph-name="Ygrave" unicode="&#x1ef2;" horiz-adv-x="1219" 
d="M515 0v611l-495 789h217l377 -607l374 607h211l-495 -790v-610h-189zM542 1573l-210 323h200l191 -323h-181z" />
    <glyph glyph-name="uni1EF6" unicode="&#x1ef6;" horiz-adv-x="1219" 
d="M515 0v611l-495 789h217l377 -607l374 607h211l-495 -790v-610h-189zM531 1573q-35 62 -15 104.5t99 67.5q65 22 86 35.5t21 39.5q0 32 -38 51t-96 19q-51 0 -99.5 -10t-84.5 -27l-41 102q52 25 117 37.5t131 12.5q77 0 136 -20t93 -55.5t34 -81.5q0 -54 -30 -86.5
t-112 -67.5q-63 -26 -78 -50t10 -71h-133z" />
    <glyph glyph-name="uni0232" unicode="&#x232;" horiz-adv-x="1219" 
d="M515 0v611l-495 789h217l377 -607l374 607h211l-495 -790v-610h-189zM286 1629v134h647v-134h-647z" />
    <glyph glyph-name="uni1EF8" unicode="&#x1ef8;" horiz-adv-x="1219" 
d="M515 0v611l-495 789h217l377 -607l374 607h211l-495 -790v-610h-189zM321 1594l-95 75q36 87 94 136.5t135 49.5q61 0 114 -24.5t102 -49.5t97 -25q44 0 77 30.5t54 87.5l94 -77q-29 -87 -88.5 -134t-135.5 -47q-60 0 -114.5 24t-104 48.5t-96.5 24.5q-43 0 -76.5 -29
t-56.5 -90z" />
    <glyph glyph-name="Z" unicode="Z" horiz-adv-x="1163" 
d="M96 0v158l748 1069h-725v173h951v-157l-745 -1070h752v-173h-981z" />
    <glyph glyph-name="Zacute" unicode="&#x179;" horiz-adv-x="1163" 
d="M96 0v158l748 1069h-725v173h951v-157l-745 -1070h752v-173h-981zM488 1573l193 323h194l-212 -323h-175z" />
    <glyph glyph-name="Zcaron" unicode="&#x17d;" horiz-adv-x="1163" 
d="M96 0v158l748 1069h-725v173h951v-157l-745 -1070h752v-173h-981zM491 1573l-270 323h188l177 -210l183 210h187l-283 -323h-182z" />
    <glyph glyph-name="Zdotaccent" unicode="&#x17b;" horiz-adv-x="1163" 
d="M96 0v158l748 1069h-725v173h951v-157l-745 -1070h752v-173h-981zM588 1569q-54 0 -93 34.5t-39 88.5t39 88t93 34t93 -34t39 -89q0 -52 -39 -87t-93 -35z" />
    <glyph glyph-name="a" unicode="a" horiz-adv-x="1085" 
d="M430 -30q-104 0 -181 38t-119 107.5t-42 164.5q0 78 40 142.5t126 107t223 57t331 -5.5l5 -135q-150 20 -255 15.5t-170 -28t-95.5 -62t-30.5 -86.5q0 -77 55.5 -120.5t152.5 -43.5q83 0 148.5 30.5t104 85t38.5 126.5v274q0 69 -30.5 120t-89.5 79t-145 28
q-77 0 -153 -23t-146 -75l-56 142q91 62 188 87t186 25q135 0 230 -42.5t145 -127.5t50 -212v-638h-169v120q-51 -73 -141 -111.5t-200 -38.5z" />
    <glyph glyph-name="aacute" unicode="&#xe1;" horiz-adv-x="1085" 
d="M430 -30q-104 0 -181 38t-119 107.5t-42 164.5q0 78 40 142.5t126 107t223 57t331 -5.5l5 -135q-150 20 -255 15.5t-170 -28t-95.5 -62t-30.5 -86.5q0 -77 55.5 -120.5t152.5 -43.5q83 0 148.5 30.5t104 85t38.5 126.5v274q0 69 -30.5 120t-89.5 79t-145 28
q-77 0 -153 -23t-146 -75l-56 142q91 62 188 87t186 25q135 0 230 -42.5t145 -127.5t50 -212v-638h-169v120q-51 -73 -141 -111.5t-200 -38.5zM415 1170l186 344h189l-204 -344h-171z" />
    <glyph glyph-name="abreve" unicode="&#x103;" horiz-adv-x="1085" 
d="M430 -30q-104 0 -181 38t-119 107.5t-42 164.5q0 78 40 142.5t126 107t223 57t331 -5.5l5 -135q-150 20 -255 15.5t-170 -28t-95.5 -62t-30.5 -86.5q0 -77 55.5 -120.5t152.5 -43.5q83 0 148.5 30.5t104 85t38.5 126.5v274q0 69 -30.5 120t-89.5 79t-145 28
q-77 0 -153 -23t-146 -75l-56 142q91 62 188 87t186 25q135 0 230 -42.5t145 -127.5t50 -212v-638h-169v120q-51 -73 -141 -111.5t-200 -38.5zM513 1160q-107 0 -188 46t-125 125.5t-41 182.5h157q-4 -98 50 -158.5t147 -60.5t146.5 60.5t48.5 158.5h158q2 -102 -42.5 -182
t-125.5 -126t-185 -46z" />
    <glyph glyph-name="uni1EAF" unicode="&#x1eaf;" horiz-adv-x="1085" 
d="M430 -30q-104 0 -181 38t-119 107.5t-42 164.5q0 78 40 142.5t126 107t223 57t331 -5.5l5 -135q-150 20 -255 15.5t-170 -28t-95.5 -62t-30.5 -86.5q0 -77 55.5 -120.5t152.5 -43.5q83 0 148.5 30.5t104 85t38.5 126.5v274q0 69 -30.5 120t-89.5 79t-145 28
q-77 0 -153 -23t-146 -75l-56 142q91 62 188 87t186 25q135 0 230 -42.5t145 -127.5t50 -212v-638h-169v120q-51 -73 -141 -111.5t-200 -38.5zM513 1160q-107 0 -188 46t-125 125.5t-41 182.5h157q-4 -98 50 -158.5t147 -60.5t146.5 60.5t48.5 158.5h158q2 -102 -42.5 -182
t-125.5 -126t-185 -46zM415 1614l186 344h189l-204 -344h-171z" />
    <glyph glyph-name="uni1EB7" unicode="&#x1eb7;" horiz-adv-x="1085" 
d="M430 -30q-104 0 -181 38t-119 107.5t-42 164.5q0 78 40 142.5t126 107t223 57t331 -5.5l5 -135q-150 20 -255 15.5t-170 -28t-95.5 -62t-30.5 -86.5q0 -77 55.5 -120.5t152.5 -43.5q83 0 148.5 30.5t104 85t38.5 126.5v274q0 69 -30.5 120t-89.5 79t-145 28
q-77 0 -153 -23t-146 -75l-56 142q91 62 188 87t186 25q135 0 230 -42.5t145 -127.5t50 -212v-638h-169v120q-51 -73 -141 -111.5t-200 -38.5zM513 -493q-52 0 -90 34.5t-38 88.5t38 89t90 35q53 0 90.5 -35t37.5 -89t-37.5 -88.5t-90.5 -34.5zM513 1160q-107 0 -188 46
t-125 125.5t-41 182.5h157q-4 -98 50 -158.5t147 -60.5t146.5 60.5t48.5 158.5h158q2 -102 -42.5 -182t-125.5 -126t-185 -46z" />
    <glyph glyph-name="uni1EB1" unicode="&#x1eb1;" horiz-adv-x="1085" 
d="M430 -30q-104 0 -181 38t-119 107.5t-42 164.5q0 78 40 142.5t126 107t223 57t331 -5.5l5 -135q-150 20 -255 15.5t-170 -28t-95.5 -62t-30.5 -86.5q0 -77 55.5 -120.5t152.5 -43.5q83 0 148.5 30.5t104 85t38.5 126.5v274q0 69 -30.5 120t-89.5 79t-145 28
q-77 0 -153 -23t-146 -75l-56 142q91 62 188 87t186 25q135 0 230 -42.5t145 -127.5t50 -212v-638h-169v120q-51 -73 -141 -111.5t-200 -38.5zM513 1160q-107 0 -188 46t-125 125.5t-41 182.5h157q-4 -98 50 -158.5t147 -60.5t146.5 60.5t48.5 158.5h158q2 -102 -42.5 -182
t-125.5 -126t-185 -46zM448 1614l-203 344h195l184 -344h-176z" />
    <glyph glyph-name="uni1EB3" unicode="&#x1eb3;" horiz-adv-x="1085" 
d="M430 -30q-104 0 -181 38t-119 107.5t-42 164.5q0 78 40 142.5t126 107t223 57t331 -5.5l5 -135q-150 20 -255 15.5t-170 -28t-95.5 -62t-30.5 -86.5q0 -77 55.5 -120.5t152.5 -43.5q83 0 148.5 30.5t104 85t38.5 126.5v274q0 69 -30.5 120t-89.5 79t-145 28
q-77 0 -153 -23t-146 -75l-56 142q91 62 188 87t186 25q135 0 230 -42.5t145 -127.5t50 -212v-638h-169v120q-51 -73 -141 -111.5t-200 -38.5zM513 1160q-107 0 -188 46t-125 125.5t-41 182.5h157q-4 -98 50 -158.5t147 -60.5t146.5 60.5t48.5 158.5h158q2 -102 -42.5 -182
t-125.5 -126t-185 -46zM438 1614q-35 68 -15.5 113t97.5 74q62 23 82 38.5t20 44.5q0 37 -37.5 58t-93.5 21q-48 0 -94 -10.5t-83 -30.5l-39 104q51 26 113.5 39t126.5 13q113 0 184 -46.5t71 -120.5q0 -58 -29.5 -92.5t-107.5 -70.5q-63 -30 -76 -56t10 -78h-129z" />
    <glyph glyph-name="uni1EB5" unicode="&#x1eb5;" horiz-adv-x="1085" 
d="M430 -30q-104 0 -181 38t-119 107.5t-42 164.5q0 78 40 142.5t126 107t223 57t331 -5.5l5 -135q-150 20 -255 15.5t-170 -28t-95.5 -62t-30.5 -86.5q0 -77 55.5 -120.5t152.5 -43.5q83 0 148.5 30.5t104 85t38.5 126.5v274q0 69 -30.5 120t-89.5 79t-145 28
q-77 0 -153 -23t-146 -75l-56 142q91 62 188 87t186 25q135 0 230 -42.5t145 -127.5t50 -212v-638h-169v120q-51 -73 -141 -111.5t-200 -38.5zM513 1160q-107 0 -188 46t-125 125.5t-41 182.5h157q-4 -98 50 -158.5t147 -60.5t146.5 60.5t48.5 158.5h158q2 -102 -42.5 -182
t-125.5 -126t-185 -46zM234 1642l-92 73q34 89 90.5 142t131.5 53q59 0 110.5 -26.5t98.5 -53t93 -26.5q43 0 75 33t52 94l91 -75q-28 -92 -85.5 -142t-130.5 -50q-59 0 -111.5 26t-100.5 52.5t-93 26.5q-43 0 -75.5 -32.5t-53.5 -94.5z" />
    <glyph glyph-name="uni01CE" unicode="&#x1ce;" horiz-adv-x="1085" 
d="M430 -30q-104 0 -181 38t-119 107.5t-42 164.5q0 78 40 142.5t126 107t223 57t331 -5.5l5 -135q-150 20 -255 15.5t-170 -28t-95.5 -62t-30.5 -86.5q0 -77 55.5 -120.5t152.5 -43.5q83 0 148.5 30.5t104 85t38.5 126.5v274q0 69 -30.5 120t-89.5 79t-145 28
q-77 0 -153 -23t-146 -75l-56 142q91 62 188 87t186 25q135 0 230 -42.5t145 -127.5t50 -212v-638h-169v120q-51 -73 -141 -111.5t-200 -38.5zM420 1170l-262 344h183l170 -231l177 231h181l-272 -344h-177z" />
    <glyph glyph-name="acircumflex" unicode="&#xe2;" horiz-adv-x="1085" 
d="M430 -30q-104 0 -181 38t-119 107.5t-42 164.5q0 78 40 142.5t126 107t223 57t331 -5.5l5 -135q-150 20 -255 15.5t-170 -28t-95.5 -62t-30.5 -86.5q0 -77 55.5 -120.5t152.5 -43.5q83 0 148.5 30.5t104 85t38.5 126.5v274q0 69 -30.5 120t-89.5 79t-145 28
q-77 0 -153 -23t-146 -75l-56 142q91 62 188 87t186 25q135 0 230 -42.5t145 -127.5t50 -212v-638h-169v120q-51 -73 -141 -111.5t-200 -38.5zM158 1170l273 344h178l260 -344h-183l-169 232l-178 -232h-181z" />
    <glyph glyph-name="uni1EA5" unicode="&#x1ea5;" horiz-adv-x="1085" 
d="M430 -30q-104 0 -181 38t-119 107.5t-42 164.5q0 78 40 142.5t126 107t223 57t331 -5.5l5 -135q-150 20 -255 15.5t-170 -28t-95.5 -62t-30.5 -86.5q0 -77 55.5 -120.5t152.5 -43.5q83 0 148.5 30.5t104 85t38.5 126.5v274q0 69 -30.5 120t-89.5 79t-145 28
q-77 0 -153 -23t-146 -75l-56 142q91 62 188 87t186 25q135 0 230 -42.5t145 -127.5t50 -212v-638h-169v120q-51 -73 -141 -111.5t-200 -38.5zM158 1170l273 344h178l260 -344h-183l-169 232l-178 -232h-181zM796 1454l186 344h189l-204 -344h-171z" />
    <glyph glyph-name="uni1EAD" unicode="&#x1ead;" horiz-adv-x="1085" 
d="M430 -30q-104 0 -181 38t-119 107.5t-42 164.5q0 78 40 142.5t126 107t223 57t331 -5.5l5 -135q-150 20 -255 15.5t-170 -28t-95.5 -62t-30.5 -86.5q0 -77 55.5 -120.5t152.5 -43.5q83 0 148.5 30.5t104 85t38.5 126.5v274q0 69 -30.5 120t-89.5 79t-145 28
q-77 0 -153 -23t-146 -75l-56 142q91 62 188 87t186 25q135 0 230 -42.5t145 -127.5t50 -212v-638h-169v120q-51 -73 -141 -111.5t-200 -38.5zM513 -493q-52 0 -90 34.5t-38 88.5t38 89t90 35q53 0 90.5 -35t37.5 -89t-37.5 -88.5t-90.5 -34.5zM158 1170l273 344h178
l260 -344h-183l-169 232l-178 -232h-181z" />
    <glyph glyph-name="uni1EA7" unicode="&#x1ea7;" horiz-adv-x="1085" 
d="M430 -30q-104 0 -181 38t-119 107.5t-42 164.5q0 78 40 142.5t126 107t223 57t331 -5.5l5 -135q-150 20 -255 15.5t-170 -28t-95.5 -62t-30.5 -86.5q0 -77 55.5 -120.5t152.5 -43.5q83 0 148.5 30.5t104 85t38.5 126.5v274q0 69 -30.5 120t-89.5 79t-145 28
q-77 0 -153 -23t-146 -75l-56 142q91 62 188 87t186 25q135 0 230 -42.5t145 -127.5t50 -212v-638h-169v120q-51 -73 -141 -111.5t-200 -38.5zM158 1170l273 344h178l260 -344h-183l-169 232l-178 -232h-181zM798 1454l-203 344h195l184 -344h-176z" />
    <glyph glyph-name="uni1EA9" unicode="&#x1ea9;" horiz-adv-x="1085" 
d="M430 -30q-104 0 -181 38t-119 107.5t-42 164.5q0 78 40 142.5t126 107t223 57t331 -5.5l5 -135q-150 20 -255 15.5t-170 -28t-95.5 -62t-30.5 -86.5q0 -77 55.5 -120.5t152.5 -43.5q83 0 148.5 30.5t104 85t38.5 126.5v274q0 69 -30.5 120t-89.5 79t-145 28
q-77 0 -153 -23t-146 -75l-56 142q91 62 188 87t186 25q135 0 230 -42.5t145 -127.5t50 -212v-638h-169v120q-51 -73 -141 -111.5t-200 -38.5zM158 1170l273 344h178l260 -344h-183l-169 232l-178 -232h-181zM819 1454q-35 68 -15.5 113t97.5 74q62 23 82 38.5t20 44.5
q0 37 -37.5 58t-93.5 21q-48 0 -94 -10.5t-83 -30.5l-39 104q51 26 113.5 39t126.5 13q113 0 184 -46.5t71 -120.5q0 -58 -29.5 -92.5t-107.5 -70.5q-63 -30 -76 -56t10 -78h-129z" />
    <glyph glyph-name="uni1EAB" unicode="&#x1eab;" horiz-adv-x="1085" 
d="M430 -30q-104 0 -181 38t-119 107.5t-42 164.5q0 78 40 142.5t126 107t223 57t331 -5.5l5 -135q-150 20 -255 15.5t-170 -28t-95.5 -62t-30.5 -86.5q0 -77 55.5 -120.5t152.5 -43.5q83 0 148.5 30.5t104 85t38.5 126.5v274q0 69 -30.5 120t-89.5 79t-145 28
q-77 0 -153 -23t-146 -75l-56 142q91 62 188 87t186 25q135 0 230 -42.5t145 -127.5t50 -212v-638h-169v120q-51 -73 -141 -111.5t-200 -38.5zM158 1170l273 344h178l260 -344h-183l-169 232l-178 -232h-181zM234 1672l-92 73q34 89 90.5 142t131.5 53q59 0 110.5 -26.5
t98.5 -53t93 -26.5q43 0 75 33t52 94l91 -75q-28 -92 -85.5 -142t-130.5 -50q-59 0 -111.5 26t-100.5 52.5t-93 26.5q-43 0 -75.5 -32.5t-53.5 -94.5z" />
    <glyph glyph-name="uni0201" unicode="&#x201;" horiz-adv-x="1085" 
d="M430 -30q-104 0 -181 38t-119 107.5t-42 164.5q0 78 40 142.5t126 107t223 57t331 -5.5l5 -135q-150 20 -255 15.5t-170 -28t-95.5 -62t-30.5 -86.5q0 -77 55.5 -120.5t152.5 -43.5q83 0 148.5 30.5t104 85t38.5 126.5v274q0 69 -30.5 120t-89.5 79t-145 28
q-77 0 -153 -23t-146 -75l-56 142q91 62 188 87t186 25q135 0 230 -42.5t145 -127.5t50 -212v-638h-169v120q-51 -73 -141 -111.5t-200 -38.5zM628 1170l-199 344h181l181 -344h-163zM245 1170l-199 344h181l181 -344h-163z" />
    <glyph glyph-name="adieresis" unicode="&#xe4;" horiz-adv-x="1085" 
d="M430 -30q-104 0 -181 38t-119 107.5t-42 164.5q0 78 40 142.5t126 107t223 57t331 -5.5l5 -135q-150 20 -255 15.5t-170 -28t-95.5 -62t-30.5 -86.5q0 -77 55.5 -120.5t152.5 -43.5q83 0 148.5 30.5t104 85t38.5 126.5v274q0 69 -30.5 120t-89.5 79t-145 28
q-77 0 -153 -23t-146 -75l-56 142q91 62 188 87t186 25q135 0 230 -42.5t145 -127.5t50 -212v-638h-169v120q-51 -73 -141 -111.5t-200 -38.5zM308 1164q-49 0 -86 34.5t-37 87.5q0 35 17 62.5t45 43t61 15.5q50 0 86.5 -34t36.5 -87q0 -36 -17 -63.5t-45 -43t-61 -15.5z
M718 1164q-49 0 -86 34.5t-37 87.5q0 35 17 62.5t45 43t61 15.5q50 0 86.5 -34t36.5 -87q0 -36 -17 -63.5t-45 -43t-61 -15.5z" />
    <glyph glyph-name="uni1EA1" unicode="&#x1ea1;" horiz-adv-x="1085" 
d="M430 -30q-104 0 -181 38t-119 107.5t-42 164.5q0 78 40 142.5t126 107t223 57t331 -5.5l5 -135q-150 20 -255 15.5t-170 -28t-95.5 -62t-30.5 -86.5q0 -77 55.5 -120.5t152.5 -43.5q83 0 148.5 30.5t104 85t38.5 126.5v274q0 69 -30.5 120t-89.5 79t-145 28
q-77 0 -153 -23t-146 -75l-56 142q91 62 188 87t186 25q135 0 230 -42.5t145 -127.5t50 -212v-638h-169v120q-51 -73 -141 -111.5t-200 -38.5zM513 -493q-52 0 -90 34.5t-38 88.5t38 89t90 35q53 0 90.5 -35t37.5 -89t-37.5 -88.5t-90.5 -34.5z" />
    <glyph glyph-name="agrave" unicode="&#xe0;" horiz-adv-x="1085" 
d="M430 -30q-104 0 -181 38t-119 107.5t-42 164.5q0 78 40 142.5t126 107t223 57t331 -5.5l5 -135q-150 20 -255 15.5t-170 -28t-95.5 -62t-30.5 -86.5q0 -77 55.5 -120.5t152.5 -43.5q83 0 148.5 30.5t104 85t38.5 126.5v274q0 69 -30.5 120t-89.5 79t-145 28
q-77 0 -153 -23t-146 -75l-56 142q91 62 188 87t186 25q135 0 230 -42.5t145 -127.5t50 -212v-638h-169v120q-51 -73 -141 -111.5t-200 -38.5zM448 1170l-203 344h195l184 -344h-176z" />
    <glyph glyph-name="uni1EA3" unicode="&#x1ea3;" horiz-adv-x="1085" 
d="M430 -30q-104 0 -181 38t-119 107.5t-42 164.5q0 78 40 142.5t126 107t223 57t331 -5.5l5 -135q-150 20 -255 15.5t-170 -28t-95.5 -62t-30.5 -86.5q0 -77 55.5 -120.5t152.5 -43.5q83 0 148.5 30.5t104 85t38.5 126.5v274q0 69 -30.5 120t-89.5 79t-145 28
q-77 0 -153 -23t-146 -75l-56 142q91 62 188 87t186 25q135 0 230 -42.5t145 -127.5t50 -212v-638h-169v120q-51 -73 -141 -111.5t-200 -38.5zM438 1170q-35 68 -15.5 113t97.5 74q62 23 82 38.5t20 44.5q0 37 -37.5 58t-93.5 21q-48 0 -94 -10.5t-83 -30.5l-39 104
q51 26 113.5 39t126.5 13q113 0 184 -46.5t71 -120.5q0 -58 -29.5 -92.5t-107.5 -70.5q-63 -30 -76 -56t10 -78h-129z" />
    <glyph glyph-name="uni0203" unicode="&#x203;" horiz-adv-x="1085" 
d="M430 -30q-104 0 -181 38t-119 107.5t-42 164.5q0 78 40 142.5t126 107t223 57t331 -5.5l5 -135q-150 20 -255 15.5t-170 -28t-95.5 -62t-30.5 -86.5q0 -77 55.5 -120.5t152.5 -43.5q83 0 148.5 30.5t104 85t38.5 126.5v274q0 69 -30.5 120t-89.5 79t-145 28
q-77 0 -153 -23t-146 -75l-56 142q91 62 188 87t186 25q135 0 230 -42.5t145 -127.5t50 -212v-638h-169v120q-51 -73 -141 -111.5t-200 -38.5zM159 1170q-3 103 41 183t125 125.5t188 45.5q104 0 185 -46t125.5 -126t42.5 -182h-158q5 99 -48.5 159.5t-146.5 60.5
t-147 -60.5t-50 -159.5h-157z" />
    <glyph glyph-name="amacron" unicode="&#x101;" horiz-adv-x="1085" 
d="M430 -30q-104 0 -181 38t-119 107.5t-42 164.5q0 78 40 142.5t126 107t223 57t331 -5.5l5 -135q-150 20 -255 15.5t-170 -28t-95.5 -62t-30.5 -86.5q0 -77 55.5 -120.5t152.5 -43.5q83 0 148.5 30.5t104 85t38.5 126.5v274q0 69 -30.5 120t-89.5 79t-145 28
q-77 0 -153 -23t-146 -75l-56 142q91 62 188 87t186 25q135 0 230 -42.5t145 -127.5t50 -212v-638h-169v120q-51 -73 -141 -111.5t-200 -38.5zM200 1230v136h626v-136h-626z" />
    <glyph glyph-name="aogonek" unicode="&#x105;" horiz-adv-x="1085" 
d="M757 -450q-101 0 -157 59t-55 144q1 86 50.5 151t131.5 107t182 59l31 -70q-75 -14 -130 -41t-85 -68.5t-32 -98.5q-1 -43 20.5 -72.5t72.5 -29.5q28 0 54.5 8.5t48.5 23.5l53 -121q-41 -24 -88.5 -37.5t-96.5 -13.5zM430 -30q-104 0 -181 38t-119 107.5t-42 164.5
q0 78 40 142.5t126 107t223 57t331 -5.5l5 -135q-150 20 -255 15.5t-170 -28t-95.5 -62t-30.5 -86.5q0 -77 55.5 -120.5t152.5 -43.5q83 0 148.5 30.5t104 85t38.5 126.5v274q0 69 -30.5 120t-89.5 79t-145 28q-77 0 -153 -23t-146 -75l-56 142q91 62 188 87t186 25
q135 0 230 -42.5t145 -127.5t50 -212v-638h-169v120q-51 -73 -141 -111.5t-200 -38.5z" />
    <glyph glyph-name="aring" unicode="&#xe5;" horiz-adv-x="1085" 
d="M430 -30q-104 0 -181 38t-119 107.5t-42 164.5q0 78 40 142.5t126 107t223 57t331 -5.5l5 -135q-150 20 -255 15.5t-170 -28t-95.5 -62t-30.5 -86.5q0 -77 55.5 -120.5t152.5 -43.5q83 0 148.5 30.5t104 85t38.5 126.5v274q0 69 -30.5 120t-89.5 79t-145 28
q-77 0 -153 -23t-146 -75l-56 142q91 62 188 87t186 25q135 0 230 -42.5t145 -127.5t50 -212v-638h-169v120q-51 -73 -141 -111.5t-200 -38.5zM514 1103q-72 0 -131.5 32t-94.5 87t-35 124q0 68 35 123.5t94.5 88.5t131.5 33q71 0 129.5 -33t94 -88.5t35.5 -123.5
q0 -69 -35.5 -124t-94 -87t-129.5 -32zM514 1213q60 0 95.5 38.5t35.5 94.5t-35.5 94.5t-95.5 38.5t-96.5 -38.5t-36.5 -94.5t36.5 -94.5t96.5 -38.5z" />
    <glyph glyph-name="aringacute" unicode="&#x1fb;" horiz-adv-x="1085" 
d="M430 -30q-104 0 -181 38t-119 107.5t-42 164.5q0 78 40 142.5t126 107t223 57t331 -5.5l5 -135q-150 20 -255 15.5t-170 -28t-95.5 -62t-30.5 -86.5q0 -77 55.5 -120.5t152.5 -43.5q83 0 148.5 30.5t104 85t38.5 126.5v274q0 69 -30.5 120t-89.5 79t-145 28
q-77 0 -153 -23t-146 -75l-56 142q91 62 188 87t186 25q135 0 230 -42.5t145 -127.5t50 -212v-638h-169v120q-51 -73 -141 -111.5t-200 -38.5zM514 1103q-72 0 -131.5 32t-94.5 87t-35 124q0 68 35 123.5t94.5 88.5t131.5 33q71 0 129.5 -33t94 -88.5t35.5 -123.5
q0 -69 -35.5 -124t-94 -87t-129.5 -32zM514 1213q60 0 95.5 38.5t35.5 94.5t-35.5 94.5t-95.5 38.5t-96.5 -38.5t-36.5 -94.5t36.5 -94.5t96.5 -38.5zM415 1684l186 344h189l-204 -344h-171z" />
    <glyph glyph-name="atilde" unicode="&#xe3;" horiz-adv-x="1085" 
d="M430 -30q-104 0 -181 38t-119 107.5t-42 164.5q0 78 40 142.5t126 107t223 57t331 -5.5l5 -135q-150 20 -255 15.5t-170 -28t-95.5 -62t-30.5 -86.5q0 -77 55.5 -120.5t152.5 -43.5q83 0 148.5 30.5t104 85t38.5 126.5v274q0 69 -30.5 120t-89.5 79t-145 28
q-77 0 -153 -23t-146 -75l-56 142q91 62 188 87t186 25q135 0 230 -42.5t145 -127.5t50 -212v-638h-169v120q-51 -73 -141 -111.5t-200 -38.5zM234 1198l-92 73q34 89 90.5 142t131.5 53q59 0 110.5 -26.5t98.5 -53t93 -26.5q43 0 75 33t52 94l91 -75q-28 -92 -85.5 -142
t-130.5 -50q-59 0 -111.5 26t-100.5 52.5t-93 26.5q-43 0 -75.5 -32.5t-53.5 -94.5z" />
    <glyph glyph-name="ae" unicode="&#xe6;" horiz-adv-x="1796" 
d="M440 -30q-163 0 -257.5 84t-94.5 226q0 105 72.5 183t230 111.5t415.5 6.5l2 -134q-198 26 -318 9.5t-174 -62.5t-54 -109q0 -78 55 -121t153 -43q82 0 147.5 31.5t104.5 92.5t39 148v246q0 103 -67.5 163t-200.5 60q-73 0 -149.5 -23.5t-146.5 -74.5l-56 141
q90 62 187.5 87.5t186.5 25.5q165 0 269 -64.5t138 -191.5l-64 11q70 111 179 174t241 63q149 0 254.5 -73.5t155 -199.5t31.5 -284h-761q-6 -146 86.5 -236.5t252.5 -90.5q76 0 149.5 26t131.5 77l78 -137q-46 -39 -106.5 -66.5t-128 -41.5t-132.5 -14q-171 0 -299.5 86
t-183.5 243l59 8q-12 -97 -69.5 -173t-149.5 -120t-206 -44zM967 596h571q-6 124 -74 193.5t-195 69.5q-125 0 -206.5 -69.5t-95.5 -193.5z" />
    <glyph glyph-name="aeacute" unicode="&#x1fd;" horiz-adv-x="1796" 
d="M440 -30q-163 0 -257.5 84t-94.5 226q0 105 72.5 183t230 111.5t415.5 6.5l2 -134q-198 26 -318 9.5t-174 -62.5t-54 -109q0 -78 55 -121t153 -43q82 0 147.5 31.5t104.5 92.5t39 148v246q0 103 -67.5 163t-200.5 60q-73 0 -149.5 -23.5t-146.5 -74.5l-56 141
q90 62 187.5 87.5t186.5 25.5q165 0 269 -64.5t138 -191.5l-64 11q70 111 179 174t241 63q149 0 254.5 -73.5t155 -199.5t31.5 -284h-761q-6 -146 86.5 -236.5t252.5 -90.5q76 0 149.5 26t131.5 77l78 -137q-46 -39 -106.5 -66.5t-128 -41.5t-132.5 -14q-171 0 -299.5 86
t-183.5 243l59 8q-12 -97 -69.5 -173t-149.5 -120t-206 -44zM967 596h571q-6 124 -74 193.5t-195 69.5q-125 0 -206.5 -69.5t-95.5 -193.5zM776 1170l186 344h189l-204 -344h-171z" />
    <glyph glyph-name="b" unicode="b" horiz-adv-x="1280" 
d="M715 -30q-99 0 -179 29.5t-138.5 81.5t-96.5 119l27 40v-240h-169v1440h183v-687l-36 41q65 96 165.5 156t241.5 60q147 0 258.5 -70t174 -188t62.5 -262q0 -110 -36 -204.5t-101.5 -165.5t-155.5 -110.5t-200 -39.5zM682 136q99 0 175.5 43.5t120 123t43.5 187.5
q0 109 -43.5 188.5t-120 122.5t-175.5 43t-175.5 -43t-120.5 -122.5t-44 -188.5q0 -108 44 -187.5t120.5 -123t175.5 -43.5z" />
    <glyph glyph-name="c" unicode="c" horiz-adv-x="1017" 
d="M603 -30q-155 0 -275 68t-188 185.5t-68 266.5q0 113 40.5 208t114.5 165t173.5 108.5t217.5 38.5q96 0 177 -25t150 -77l-94 -142q-45 39 -105 58.5t-127 19.5q-110 0 -190.5 -41.5t-124.5 -120.5t-44 -190q0 -167 96.5 -261.5t261.5 -94.5q76 0 142 27.5t108 71.5
l95 -140q-77 -58 -169 -91.5t-191 -33.5z" />
    <glyph glyph-name="cacute" unicode="&#x107;" horiz-adv-x="1017" 
d="M603 -30q-155 0 -275 68t-188 185.5t-68 266.5q0 113 40.5 208t114.5 165t173.5 108.5t217.5 38.5q96 0 177 -25t150 -77l-94 -142q-45 39 -105 58.5t-127 19.5q-110 0 -190.5 -41.5t-124.5 -120.5t-44 -190q0 -167 96.5 -261.5t261.5 -94.5q76 0 142 27.5t108 71.5
l95 -140q-77 -58 -169 -91.5t-191 -33.5zM477 1170l186 344h189l-204 -344h-171z" />
    <glyph glyph-name="ccaron" unicode="&#x10d;" horiz-adv-x="1017" 
d="M603 -30q-155 0 -275 68t-188 185.5t-68 266.5q0 113 40.5 208t114.5 165t173.5 108.5t217.5 38.5q96 0 177 -25t150 -77l-94 -142q-45 39 -105 58.5t-127 19.5q-110 0 -190.5 -41.5t-124.5 -120.5t-44 -190q0 -167 96.5 -261.5t261.5 -94.5q76 0 142 27.5t108 71.5
l95 -140q-77 -58 -169 -91.5t-191 -33.5zM481 1170l-262 344h183l170 -231l177 231h181l-272 -344h-177z" />
    <glyph glyph-name="ccedilla" unicode="&#xe7;" horiz-adv-x="1017" 
d="M603 -30q-155 0 -275 68t-188 185.5t-68 266.5q0 113 40.5 208t114.5 165t173.5 108.5t217.5 38.5q96 0 177 -25t150 -77l-94 -142q-45 39 -105 58.5t-127 19.5q-110 0 -190.5 -41.5t-124.5 -120.5t-44 -190q0 -167 96.5 -261.5t261.5 -94.5q76 0 142 27.5t108 71.5
l95 -140q-77 -58 -169 -91.5t-191 -33.5zM545 -450q-67 0 -123.5 16.5t-100.5 44.5l45 106q23 -24 74.5 -39t97.5 -15q44 0 80.5 17t36.5 57q0 44 -51 61t-112 8l-43 79l54 155h113l-38 -123q100 -8 163 -52t63 -125q0 -69 -41.5 -111t-102 -60.5t-115.5 -18.5z" />
    <glyph glyph-name="ccircumflex" unicode="&#x109;" horiz-adv-x="1017" 
d="M603 -30q-155 0 -275 68t-188 185.5t-68 266.5q0 113 40.5 208t114.5 165t173.5 108.5t217.5 38.5q96 0 177 -25t150 -77l-94 -142q-45 39 -105 58.5t-127 19.5q-110 0 -190.5 -41.5t-124.5 -120.5t-44 -190q0 -167 96.5 -261.5t261.5 -94.5q76 0 142 27.5t108 71.5
l95 -140q-77 -58 -169 -91.5t-191 -33.5zM219 1170l273 344h178l260 -344h-183l-169 232l-178 -232h-181z" />
    <glyph glyph-name="cdotaccent" unicode="&#x10b;" horiz-adv-x="1017" 
d="M603 -30q-155 0 -275 68t-188 185.5t-68 266.5q0 113 40.5 208t114.5 165t173.5 108.5t217.5 38.5q96 0 177 -25t150 -77l-94 -142q-45 39 -105 58.5t-127 19.5q-110 0 -190.5 -41.5t-124.5 -120.5t-44 -190q0 -167 96.5 -261.5t261.5 -94.5q76 0 142 27.5t108 71.5
l95 -140q-77 -58 -169 -91.5t-191 -33.5zM575 1165q-52 0 -90 35t-38 89t38 88.5t90 34.5q53 0 90.5 -34.5t37.5 -88.5t-37.5 -89t-90.5 -35z" />
    <glyph glyph-name="d" unicode="d" horiz-adv-x="1280" 
d="M565 -30q-145 0 -256.5 69t-174 186.5t-62.5 264.5q0 108 36 202t101.5 165.5t156.5 112t201 40.5q141 0 241.5 -57t165.5 -153l-37 -41v681h184v-1440h-169v230l27 -42q-57 -94 -156.5 -156t-257.5 -62zM598 136q99 0 175.5 43.5t120.5 123t44 187.5q0 109 -43.5 188.5
t-120.5 122.5t-176 43t-175.5 -43t-120 -122.5t-43.5 -188.5q0 -108 43.5 -187.5t120.5 -123t175 -43.5z" />
    <glyph glyph-name="eth" unicode="&#xf0;" horiz-adv-x="1174" 
d="M578 -30q-145 0 -259.5 67.5t-180.5 180.5t-66 250q0 101 37.5 190t104.5 157t157.5 106.5t195.5 38.5q54 0 107 -11t101 -34t88 -58l-17 -25q-37 74 -88 145.5t-117 139t-145.5 130t-172.5 120.5l147 102q202 -134 342 -288t212.5 -324.5t72.5 -350.5q0 -112 -38.5 -210
t-109 -170.5t-164.5 -114t-207 -41.5zM578 134q96 0 170 41.5t115.5 117.5t41.5 180q0 103 -41.5 179t-115.5 118t-170 42q-93 0 -165 -42t-113 -118t-41 -179q0 -104 41 -180t113 -117.5t165 -41.5zM314 1055v128l296 136v5l283 134v-128l-283 -134v-5z" />
    <glyph glyph-name="dcaron" unicode="&#x10f;" horiz-adv-x="1345" 
d="M565 -30q-145 0 -256.5 69t-174 186.5t-62.5 264.5q0 108 36 202t101.5 165.5t156.5 112t201 40.5q141 0 241.5 -57t165.5 -153l-37 -41v681h184v-1440h-169v230l27 -42q-57 -94 -156.5 -156t-257.5 -62zM598 136q99 0 175.5 43.5t120.5 123t44 187.5q0 109 -43.5 188.5
t-120.5 122.5t-176 43t-175.5 -43t-120 -122.5t-43.5 -188.5q0 -108 43.5 -187.5t120.5 -123t175 -43.5zM1221 1062v378h175l-51 -378h-124z" />
    <glyph glyph-name="dcroat" unicode="&#x111;" horiz-adv-x="1280" 
d="M590 1144v131h665v-131h-665zM565 -30q-145 0 -256.5 69t-174 186.5t-62.5 264.5q0 108 36 202t101.5 165.5t156.5 112t201 40.5q141 0 241.5 -57t165.5 -153l-37 -41v681h184v-1440h-169v230l27 -42q-57 -94 -156.5 -156t-257.5 -62zM598 136q99 0 175.5 43.5t120.5 123
t44 187.5q0 109 -43.5 188.5t-120.5 122.5t-176 43t-175.5 -43t-120 -122.5t-43.5 -188.5q0 -108 43.5 -187.5t120.5 -123t175 -43.5z" />
    <glyph glyph-name="uni01C6" unicode="&#x1c6;" horiz-adv-x="2238" 
d="M565 -30q-145 0 -256.5 69t-174 186.5t-62.5 264.5q0 108 36 202t101.5 165.5t156.5 112t201 40.5q141 0 241.5 -57t165.5 -153l-37 -41v681h184v-1440h-169v230l27 -42q-57 -94 -156.5 -156t-257.5 -62zM598 136q99 0 175.5 43.5t120.5 123t44 187.5q0 109 -43.5 188.5
t-120.5 122.5t-176 43t-175.5 -43t-120 -122.5t-43.5 -188.5q0 -108 43.5 -187.5t120.5 -123t175 -43.5zM1374 0v137l535 678h-526v165h752v-137l-527 -677h535v-166h-769zM1665 1170l-262 344h183l170 -231l177 231h181l-272 -344h-177z" />
    <glyph glyph-name="e" unicode="e" horiz-adv-x="1130" 
d="M600 -30q-156 0 -275 65t-186 181.5t-67 271.5q0 112 38.5 208t108 166t163 109t203.5 39q119 0 212.5 -42t155 -117.5t88.5 -177t11 -220.5h-798q-3 -98 40 -171.5t124.5 -114.5t193.5 -41q82 0 160 26t138 77l78 -137q-48 -39 -113.5 -66.5t-136.5 -41.5t-138 -14z
M264 596h604q-4 124 -77 193.5t-209 69.5q-132 0 -218 -69.5t-100 -193.5z" />
    <glyph glyph-name="eacute" unicode="&#xe9;" horiz-adv-x="1130" 
d="M600 -30q-156 0 -275 65t-186 181.5t-67 271.5q0 112 38.5 208t108 166t163 109t203.5 39q119 0 212.5 -42t155 -117.5t88.5 -177t11 -220.5h-798q-3 -98 40 -171.5t124.5 -114.5t193.5 -41q82 0 160 26t138 77l78 -137q-48 -39 -113.5 -66.5t-136.5 -41.5t-138 -14z
M264 596h604q-4 124 -77 193.5t-209 69.5q-132 0 -218 -69.5t-100 -193.5zM484 1170l186 344h189l-204 -344h-171z" />
    <glyph glyph-name="ebreve" unicode="&#x115;" horiz-adv-x="1130" 
d="M600 -30q-156 0 -275 65t-186 181.5t-67 271.5q0 112 38.5 208t108 166t163 109t203.5 39q119 0 212.5 -42t155 -117.5t88.5 -177t11 -220.5h-798q-3 -98 40 -171.5t124.5 -114.5t193.5 -41q82 0 160 26t138 77l78 -137q-48 -39 -113.5 -66.5t-136.5 -41.5t-138 -14z
M264 596h604q-4 124 -77 193.5t-209 69.5q-132 0 -218 -69.5t-100 -193.5zM582 1160q-107 0 -188 46t-125 125.5t-41 182.5h157q-4 -98 50 -158.5t147 -60.5t146.5 60.5t48.5 158.5h158q2 -102 -42.5 -182t-125.5 -126t-185 -46z" />
    <glyph glyph-name="ecaron" unicode="&#x11b;" horiz-adv-x="1130" 
d="M600 -30q-156 0 -275 65t-186 181.5t-67 271.5q0 112 38.5 208t108 166t163 109t203.5 39q119 0 212.5 -42t155 -117.5t88.5 -177t11 -220.5h-798q-3 -98 40 -171.5t124.5 -114.5t193.5 -41q82 0 160 26t138 77l78 -137q-48 -39 -113.5 -66.5t-136.5 -41.5t-138 -14z
M264 596h604q-4 124 -77 193.5t-209 69.5q-132 0 -218 -69.5t-100 -193.5zM489 1170l-262 344h183l170 -231l177 231h181l-272 -344h-177z" />
    <glyph glyph-name="ecircumflex" unicode="&#xea;" horiz-adv-x="1130" 
d="M600 -30q-156 0 -275 65t-186 181.5t-67 271.5q0 112 38.5 208t108 166t163 109t203.5 39q119 0 212.5 -42t155 -117.5t88.5 -177t11 -220.5h-798q-3 -98 40 -171.5t124.5 -114.5t193.5 -41q82 0 160 26t138 77l78 -137q-48 -39 -113.5 -66.5t-136.5 -41.5t-138 -14z
M264 596h604q-4 124 -77 193.5t-209 69.5q-132 0 -218 -69.5t-100 -193.5zM227 1170l273 344h178l260 -344h-183l-169 232l-178 -232h-181z" />
    <glyph glyph-name="uni1EBF" unicode="&#x1ebf;" horiz-adv-x="1130" 
d="M600 -30q-156 0 -275 65t-186 181.5t-67 271.5q0 112 38.5 208t108 166t163 109t203.5 39q119 0 212.5 -42t155 -117.5t88.5 -177t11 -220.5h-798q-3 -98 40 -171.5t124.5 -114.5t193.5 -41q82 0 160 26t138 77l78 -137q-48 -39 -113.5 -66.5t-136.5 -41.5t-138 -14z
M264 596h604q-4 124 -77 193.5t-209 69.5q-132 0 -218 -69.5t-100 -193.5zM227 1170l273 344h178l260 -344h-183l-169 232l-178 -232h-181zM866 1454l186 344h189l-204 -344h-171z" />
    <glyph glyph-name="uni1EC7" unicode="&#x1ec7;" horiz-adv-x="1130" 
d="M600 -30q-156 0 -275 65t-186 181.5t-67 271.5q0 112 38.5 208t108 166t163 109t203.5 39q119 0 212.5 -42t155 -117.5t88.5 -177t11 -220.5h-798q-3 -98 40 -171.5t124.5 -114.5t193.5 -41q82 0 160 26t138 77l78 -137q-48 -39 -113.5 -66.5t-136.5 -41.5t-138 -14z
M264 596h604q-4 124 -77 193.5t-209 69.5q-132 0 -218 -69.5t-100 -193.5zM565 -493q-52 0 -90 34.5t-38 88.5t38 89t90 35q53 0 90.5 -35t37.5 -89t-37.5 -88.5t-90.5 -34.5zM227 1170l273 344h178l260 -344h-183l-169 232l-178 -232h-181z" />
    <glyph glyph-name="uni1EC1" unicode="&#x1ec1;" horiz-adv-x="1130" 
d="M600 -30q-156 0 -275 65t-186 181.5t-67 271.5q0 112 38.5 208t108 166t163 109t203.5 39q119 0 212.5 -42t155 -117.5t88.5 -177t11 -220.5h-798q-3 -98 40 -171.5t124.5 -114.5t193.5 -41q82 0 160 26t138 77l78 -137q-48 -39 -113.5 -66.5t-136.5 -41.5t-138 -14z
M264 596h604q-4 124 -77 193.5t-209 69.5q-132 0 -218 -69.5t-100 -193.5zM227 1170l273 344h178l260 -344h-183l-169 232l-178 -232h-181zM867 1454l-203 344h195l184 -344h-176z" />
    <glyph glyph-name="uni1EC3" unicode="&#x1ec3;" horiz-adv-x="1130" 
d="M600 -30q-156 0 -275 65t-186 181.5t-67 271.5q0 112 38.5 208t108 166t163 109t203.5 39q119 0 212.5 -42t155 -117.5t88.5 -177t11 -220.5h-798q-3 -98 40 -171.5t124.5 -114.5t193.5 -41q82 0 160 26t138 77l78 -137q-48 -39 -113.5 -66.5t-136.5 -41.5t-138 -14z
M264 596h604q-4 124 -77 193.5t-209 69.5q-132 0 -218 -69.5t-100 -193.5zM227 1170l273 344h178l260 -344h-183l-169 232l-178 -232h-181zM888 1454q-35 68 -15.5 113t97.5 74q62 23 82 38.5t20 44.5q0 37 -37.5 58t-93.5 21q-48 0 -94 -10.5t-83 -30.5l-39 104
q51 26 113.5 39t126.5 13q113 0 184 -46.5t71 -120.5q0 -58 -29.5 -92.5t-107.5 -70.5q-63 -30 -76 -56t10 -78h-129z" />
    <glyph glyph-name="uni1EC5" unicode="&#x1ec5;" horiz-adv-x="1130" 
d="M600 -30q-156 0 -275 65t-186 181.5t-67 271.5q0 112 38.5 208t108 166t163 109t203.5 39q119 0 212.5 -42t155 -117.5t88.5 -177t11 -220.5h-798q-3 -98 40 -171.5t124.5 -114.5t193.5 -41q82 0 160 26t138 77l78 -137q-48 -39 -113.5 -66.5t-136.5 -41.5t-138 -14z
M264 596h604q-4 124 -77 193.5t-209 69.5q-132 0 -218 -69.5t-100 -193.5zM227 1170l273 344h178l260 -344h-183l-169 232l-178 -232h-181zM303 1672l-92 73q34 89 90.5 142t131.5 53q59 0 110.5 -26.5t98.5 -53t93 -26.5q43 0 75 33t52 94l91 -75q-28 -92 -85.5 -142
t-130.5 -50q-59 0 -111.5 26t-100.5 52.5t-93 26.5q-43 0 -75.5 -32.5t-53.5 -94.5z" />
    <glyph glyph-name="uni0205" unicode="&#x205;" horiz-adv-x="1130" 
d="M600 -30q-156 0 -275 65t-186 181.5t-67 271.5q0 112 38.5 208t108 166t163 109t203.5 39q119 0 212.5 -42t155 -117.5t88.5 -177t11 -220.5h-798q-3 -98 40 -171.5t124.5 -114.5t193.5 -41q82 0 160 26t138 77l78 -137q-48 -39 -113.5 -66.5t-136.5 -41.5t-138 -14z
M264 596h604q-4 124 -77 193.5t-209 69.5q-132 0 -218 -69.5t-100 -193.5zM697 1170l-199 344h181l181 -344h-163zM314 1170l-199 344h181l181 -344h-163z" />
    <glyph glyph-name="edieresis" unicode="&#xeb;" horiz-adv-x="1130" 
d="M600 -30q-156 0 -275 65t-186 181.5t-67 271.5q0 112 38.5 208t108 166t163 109t203.5 39q119 0 212.5 -42t155 -117.5t88.5 -177t11 -220.5h-798q-3 -98 40 -171.5t124.5 -114.5t193.5 -41q82 0 160 26t138 77l78 -137q-48 -39 -113.5 -66.5t-136.5 -41.5t-138 -14z
M264 596h604q-4 124 -77 193.5t-209 69.5q-132 0 -218 -69.5t-100 -193.5zM377 1164q-49 0 -86 34.5t-37 87.5q0 35 17 62.5t45 43t61 15.5q50 0 86.5 -34t36.5 -87q0 -36 -17 -63.5t-45 -43t-61 -15.5zM787 1164q-49 0 -86 34.5t-37 87.5q0 35 17 62.5t45 43t61 15.5
q50 0 86.5 -34t36.5 -87q0 -36 -17 -63.5t-45 -43t-61 -15.5z" />
    <glyph glyph-name="edotaccent" unicode="&#x117;" horiz-adv-x="1130" 
d="M600 -30q-156 0 -275 65t-186 181.5t-67 271.5q0 112 38.5 208t108 166t163 109t203.5 39q119 0 212.5 -42t155 -117.5t88.5 -177t11 -220.5h-798q-3 -98 40 -171.5t124.5 -114.5t193.5 -41q82 0 160 26t138 77l78 -137q-48 -39 -113.5 -66.5t-136.5 -41.5t-138 -14z
M264 596h604q-4 124 -77 193.5t-209 69.5q-132 0 -218 -69.5t-100 -193.5zM582 1165q-52 0 -90 35t-38 89t38 88.5t90 34.5q53 0 90.5 -34.5t37.5 -88.5t-37.5 -89t-90.5 -35z" />
    <glyph glyph-name="uni1EB9" unicode="&#x1eb9;" horiz-adv-x="1130" 
d="M600 -30q-156 0 -275 65t-186 181.5t-67 271.5q0 112 38.5 208t108 166t163 109t203.5 39q119 0 212.5 -42t155 -117.5t88.5 -177t11 -220.5h-798q-3 -98 40 -171.5t124.5 -114.5t193.5 -41q82 0 160 26t138 77l78 -137q-48 -39 -113.5 -66.5t-136.5 -41.5t-138 -14z
M264 596h604q-4 124 -77 193.5t-209 69.5q-132 0 -218 -69.5t-100 -193.5zM565 -493q-52 0 -90 34.5t-38 88.5t38 89t90 35q53 0 90.5 -35t37.5 -89t-37.5 -88.5t-90.5 -34.5z" />
    <glyph glyph-name="egrave" unicode="&#xe8;" horiz-adv-x="1130" 
d="M600 -30q-156 0 -275 65t-186 181.5t-67 271.5q0 112 38.5 208t108 166t163 109t203.5 39q119 0 212.5 -42t155 -117.5t88.5 -177t11 -220.5h-798q-3 -98 40 -171.5t124.5 -114.5t193.5 -41q82 0 160 26t138 77l78 -137q-48 -39 -113.5 -66.5t-136.5 -41.5t-138 -14z
M264 596h604q-4 124 -77 193.5t-209 69.5q-132 0 -218 -69.5t-100 -193.5zM517 1170l-203 344h195l184 -344h-176z" />
    <glyph glyph-name="uni1EBB" unicode="&#x1ebb;" horiz-adv-x="1130" 
d="M600 -30q-156 0 -275 65t-186 181.5t-67 271.5q0 112 38.5 208t108 166t163 109t203.5 39q119 0 212.5 -42t155 -117.5t88.5 -177t11 -220.5h-798q-3 -98 40 -171.5t124.5 -114.5t193.5 -41q82 0 160 26t138 77l78 -137q-48 -39 -113.5 -66.5t-136.5 -41.5t-138 -14z
M264 596h604q-4 124 -77 193.5t-209 69.5q-132 0 -218 -69.5t-100 -193.5zM507 1170q-35 68 -15.5 113t97.5 74q62 23 82 38.5t20 44.5q0 37 -37.5 58t-93.5 21q-48 0 -94 -10.5t-83 -30.5l-39 104q51 26 113.5 39t126.5 13q113 0 184 -46.5t71 -120.5q0 -58 -29.5 -92.5
t-107.5 -70.5q-63 -30 -76 -56t10 -78h-129z" />
    <glyph glyph-name="uni0207" unicode="&#x207;" horiz-adv-x="1130" 
d="M600 -30q-156 0 -275 65t-186 181.5t-67 271.5q0 112 38.5 208t108 166t163 109t203.5 39q119 0 212.5 -42t155 -117.5t88.5 -177t11 -220.5h-798q-3 -98 40 -171.5t124.5 -114.5t193.5 -41q82 0 160 26t138 77l78 -137q-48 -39 -113.5 -66.5t-136.5 -41.5t-138 -14z
M264 596h604q-4 124 -77 193.5t-209 69.5q-132 0 -218 -69.5t-100 -193.5zM228 1170q-3 103 41 183t125 125.5t188 45.5q104 0 185 -46t125.5 -126t42.5 -182h-158q5 99 -48.5 159.5t-146.5 60.5t-147 -60.5t-50 -159.5h-157z" />
    <glyph glyph-name="emacron" unicode="&#x113;" horiz-adv-x="1130" 
d="M600 -30q-156 0 -275 65t-186 181.5t-67 271.5q0 112 38.5 208t108 166t163 109t203.5 39q119 0 212.5 -42t155 -117.5t88.5 -177t11 -220.5h-798q-3 -98 40 -171.5t124.5 -114.5t193.5 -41q82 0 160 26t138 77l78 -137q-48 -39 -113.5 -66.5t-136.5 -41.5t-138 -14z
M264 596h604q-4 124 -77 193.5t-209 69.5q-132 0 -218 -69.5t-100 -193.5zM269 1230v136h626v-136h-626z" />
    <glyph glyph-name="eogonek" unicode="&#x119;" horiz-adv-x="1130" 
d="M600 -30q-156 0 -275 65t-186 181.5t-67 271.5q0 112 38.5 208t108 166t163 109t203.5 39q119 0 212.5 -42t155 -117.5t88.5 -177t11 -220.5h-798q-3 -98 40 -171.5t124.5 -114.5t193.5 -41q82 0 160 26t138 77l78 -137q-48 -39 -113.5 -66.5t-136.5 -41.5t-138 -14z
M264 596h604q-4 124 -77 193.5t-209 69.5q-132 0 -218 -69.5t-100 -193.5zM747 -450q-102 0 -157.5 59.5t-55.5 144.5q2 86 49 153.5t123 118t164 82.5l32 -70q-46 -25 -85.5 -51t-69 -55t-46.5 -63t-18 -77t20.5 -72.5t71.5 -29.5q29 0 55.5 8.5t48.5 23.5l53 -121
q-41 -24 -88.5 -37.5t-96.5 -13.5z" />
    <glyph glyph-name="uni1EBD" unicode="&#x1ebd;" horiz-adv-x="1130" 
d="M600 -30q-156 0 -275 65t-186 181.5t-67 271.5q0 112 38.5 208t108 166t163 109t203.5 39q119 0 212.5 -42t155 -117.5t88.5 -177t11 -220.5h-798q-3 -98 40 -171.5t124.5 -114.5t193.5 -41q82 0 160 26t138 77l78 -137q-48 -39 -113.5 -66.5t-136.5 -41.5t-138 -14z
M264 596h604q-4 124 -77 193.5t-209 69.5q-132 0 -218 -69.5t-100 -193.5zM303 1198l-92 73q34 89 90.5 142t131.5 53q59 0 110.5 -26.5t98.5 -53t93 -26.5q43 0 75 33t52 94l91 -75q-28 -92 -85.5 -142t-130.5 -50q-59 0 -111.5 26t-100.5 52.5t-93 26.5q-43 0 -75.5 -32.5
t-53.5 -94.5z" />
    <glyph glyph-name="uni0259" unicode="&#x259;" horiz-adv-x="1129" 
d="M554 -30q-113 0 -207.5 41.5t-160.5 116.5t-95 179.5t-13 229.5h849l-3 -143h-742l67 61q0 -158 83.5 -246t219.5 -88q106 0 178.5 44.5t110.5 130t38 209.5q0 107 -44 185.5t-123 121t-184 42.5q-92 0 -171.5 -27.5t-140.5 -78.5l-74 132q48 40 111 69t133.5 45
t141.5 16q161 0 280 -62t184 -175.5t65 -267.5q0 -117 -36.5 -215.5t-104.5 -169.5t-159.5 -110.5t-202.5 -39.5z" />
    <glyph glyph-name="f" unicode="f" horiz-adv-x="755" 
d="M260 0v1166q0 142 81.5 223t222.5 81q53 0 95.5 -11.5t76.5 -30.5l-38 -148q-29 15 -56.5 21.5t-53.5 6.5q-64 0 -104.5 -33t-40.5 -116v-179h263v-156h-263v-824h-183zM54 824v156h234v-156h-234z" />
    <glyph glyph-name="g" unicode="g" horiz-adv-x="1187" 
d="M546 -450q-110 0 -197.5 20t-149.5 56.5t-94.5 88.5t-32.5 116q0 53 28 97.5t83 77t136 49.5q-59 29 -88.5 65.5t-29.5 84.5q0 41 24 76.5t67.5 64t104 47t133.5 23.5l45 -86q-64 0 -110.5 -11t-72 -31.5t-25.5 -48.5q0 -38 42.5 -53.5t114.5 -21.5l168 -13
q125 -10 212 -41t133 -86t46 -139q0 -71 -38.5 -132.5t-109.5 -106.5t-170 -70.5t-219 -25.5zM560 -316q159 0 250 49t91 126q0 59 -62.5 92.5t-188.5 42.5l-178 13q-70 -5 -120 -25.5t-76.5 -53.5t-26.5 -75q0 -50 38 -88t107.5 -59.5t165.5 -21.5zM555 313
q-120 0 -216.5 46.5t-153 125.5t-56.5 177q0 97 56.5 176t153.5 125.5t216 46.5q120 0 216.5 -46.5t153 -125.5t56.5 -176q0 -98 -56.5 -177t-152.5 -125.5t-217 -46.5zM555 459q74 0 130.5 25.5t88.5 71t32 106.5q0 90 -69.5 146.5t-181.5 56.5q-74 0 -130.5 -26t-88 -71.5
t-31.5 -105.5q0 -90 69.5 -146.5t180.5 -56.5zM710 829l-68 134l506 17l-2 -156z" />
    <glyph glyph-name="gbreve" unicode="&#x11f;" horiz-adv-x="1187" 
d="M546 -450q-110 0 -197.5 20t-149.5 56.5t-94.5 88.5t-32.5 116q0 53 28 97.5t83 77t136 49.5q-59 29 -88.5 65.5t-29.5 84.5q0 41 24 76.5t67.5 64t104 47t133.5 23.5l45 -86q-64 0 -110.5 -11t-72 -31.5t-25.5 -48.5q0 -38 42.5 -53.5t114.5 -21.5l168 -13
q125 -10 212 -41t133 -86t46 -139q0 -71 -38.5 -132.5t-109.5 -106.5t-170 -70.5t-219 -25.5zM560 -316q159 0 250 49t91 126q0 59 -62.5 92.5t-188.5 42.5l-178 13q-70 -5 -120 -25.5t-76.5 -53.5t-26.5 -75q0 -50 38 -88t107.5 -59.5t165.5 -21.5zM555 313
q-120 0 -216.5 46.5t-153 125.5t-56.5 177q0 97 56.5 176t153.5 125.5t216 46.5q120 0 216.5 -46.5t153 -125.5t56.5 -176q0 -98 -56.5 -177t-152.5 -125.5t-217 -46.5zM555 459q74 0 130.5 25.5t88.5 71t32 106.5q0 90 -69.5 146.5t-181.5 56.5q-74 0 -130.5 -26t-88 -71.5
t-31.5 -105.5q0 -90 69.5 -146.5t180.5 -56.5zM710 829l-68 134l506 17l-2 -156zM577 1160q-107 0 -188 46t-125 125.5t-41 182.5h157q-4 -98 50 -158.5t147 -60.5t146.5 60.5t48.5 158.5h158q2 -102 -42.5 -182t-125.5 -126t-185 -46z" />
    <glyph glyph-name="gcaron" unicode="&#x1e7;" horiz-adv-x="1187" 
d="M546 -450q-110 0 -197.5 20t-149.5 56.5t-94.5 88.5t-32.5 116q0 53 28 97.5t83 77t136 49.5q-59 29 -88.5 65.5t-29.5 84.5q0 41 24 76.5t67.5 64t104 47t133.5 23.5l45 -86q-64 0 -110.5 -11t-72 -31.5t-25.5 -48.5q0 -38 42.5 -53.5t114.5 -21.5l168 -13
q125 -10 212 -41t133 -86t46 -139q0 -71 -38.5 -132.5t-109.5 -106.5t-170 -70.5t-219 -25.5zM560 -316q159 0 250 49t91 126q0 59 -62.5 92.5t-188.5 42.5l-178 13q-70 -5 -120 -25.5t-76.5 -53.5t-26.5 -75q0 -50 38 -88t107.5 -59.5t165.5 -21.5zM555 313
q-120 0 -216.5 46.5t-153 125.5t-56.5 177q0 97 56.5 176t153.5 125.5t216 46.5q120 0 216.5 -46.5t153 -125.5t56.5 -176q0 -98 -56.5 -177t-152.5 -125.5t-217 -46.5zM555 459q74 0 130.5 25.5t88.5 71t32 106.5q0 90 -69.5 146.5t-181.5 56.5q-74 0 -130.5 -26t-88 -71.5
t-31.5 -105.5q0 -90 69.5 -146.5t180.5 -56.5zM710 829l-68 134l506 17l-2 -156zM483 1170l-262 344h183l170 -231l177 231h181l-272 -344h-177z" />
    <glyph glyph-name="gcircumflex" unicode="&#x11d;" horiz-adv-x="1187" 
d="M546 -450q-110 0 -197.5 20t-149.5 56.5t-94.5 88.5t-32.5 116q0 53 28 97.5t83 77t136 49.5q-59 29 -88.5 65.5t-29.5 84.5q0 41 24 76.5t67.5 64t104 47t133.5 23.5l45 -86q-64 0 -110.5 -11t-72 -31.5t-25.5 -48.5q0 -38 42.5 -53.5t114.5 -21.5l168 -13
q125 -10 212 -41t133 -86t46 -139q0 -71 -38.5 -132.5t-109.5 -106.5t-170 -70.5t-219 -25.5zM560 -316q159 0 250 49t91 126q0 59 -62.5 92.5t-188.5 42.5l-178 13q-70 -5 -120 -25.5t-76.5 -53.5t-26.5 -75q0 -50 38 -88t107.5 -59.5t165.5 -21.5zM555 313
q-120 0 -216.5 46.5t-153 125.5t-56.5 177q0 97 56.5 176t153.5 125.5t216 46.5q120 0 216.5 -46.5t153 -125.5t56.5 -176q0 -98 -56.5 -177t-152.5 -125.5t-217 -46.5zM555 459q74 0 130.5 25.5t88.5 71t32 106.5q0 90 -69.5 146.5t-181.5 56.5q-74 0 -130.5 -26t-88 -71.5
t-31.5 -105.5q0 -90 69.5 -146.5t180.5 -56.5zM710 829l-68 134l506 17l-2 -156zM221 1170l273 344h178l260 -344h-183l-169 232l-178 -232h-181z" />
    <glyph glyph-name="uni0123" unicode="&#x123;" horiz-adv-x="1187" 
d="M546 -450q-110 0 -197.5 20t-149.5 56.5t-94.5 88.5t-32.5 116q0 53 28 97.5t83 77t136 49.5q-59 29 -88.5 65.5t-29.5 84.5q0 41 24 76.5t67.5 64t104 47t133.5 23.5l45 -86q-64 0 -110.5 -11t-72 -31.5t-25.5 -48.5q0 -38 42.5 -53.5t114.5 -21.5l168 -13
q125 -10 212 -41t133 -86t46 -139q0 -71 -38.5 -132.5t-109.5 -106.5t-170 -70.5t-219 -25.5zM560 -316q159 0 250 49t91 126q0 59 -62.5 92.5t-188.5 42.5l-178 13q-70 -5 -120 -25.5t-76.5 -53.5t-26.5 -75q0 -50 38 -88t107.5 -59.5t165.5 -21.5zM555 313
q-120 0 -216.5 46.5t-153 125.5t-56.5 177q0 97 56.5 176t153.5 125.5t216 46.5q120 0 216.5 -46.5t153 -125.5t56.5 -176q0 -98 -56.5 -177t-152.5 -125.5t-217 -46.5zM555 459q74 0 130.5 25.5t88.5 71t32 106.5q0 90 -69.5 146.5t-181.5 56.5q-74 0 -130.5 -26t-88 -71.5
t-31.5 -105.5q0 -90 69.5 -146.5t180.5 -56.5zM710 829l-68 134l506 17l-2 -156zM582 1227q-60 0 -97.5 40t-37.5 105q0 58 26.5 112t78.5 104t129 96l63 -78q-59 -28 -109 -68t-64 -79q37 2 67 -12t48 -41t18 -63q0 -51 -34.5 -83.5t-87.5 -32.5z" />
    <glyph glyph-name="gdotaccent" unicode="&#x121;" horiz-adv-x="1187" 
d="M546 -450q-110 0 -197.5 20t-149.5 56.5t-94.5 88.5t-32.5 116q0 53 28 97.5t83 77t136 49.5q-59 29 -88.5 65.5t-29.5 84.5q0 41 24 76.5t67.5 64t104 47t133.5 23.5l45 -86q-64 0 -110.5 -11t-72 -31.5t-25.5 -48.5q0 -38 42.5 -53.5t114.5 -21.5l168 -13
q125 -10 212 -41t133 -86t46 -139q0 -71 -38.5 -132.5t-109.5 -106.5t-170 -70.5t-219 -25.5zM560 -316q159 0 250 49t91 126q0 59 -62.5 92.5t-188.5 42.5l-178 13q-70 -5 -120 -25.5t-76.5 -53.5t-26.5 -75q0 -50 38 -88t107.5 -59.5t165.5 -21.5zM555 313
q-120 0 -216.5 46.5t-153 125.5t-56.5 177q0 97 56.5 176t153.5 125.5t216 46.5q120 0 216.5 -46.5t153 -125.5t56.5 -176q0 -98 -56.5 -177t-152.5 -125.5t-217 -46.5zM555 459q74 0 130.5 25.5t88.5 71t32 106.5q0 90 -69.5 146.5t-181.5 56.5q-74 0 -130.5 -26t-88 -71.5
t-31.5 -105.5q0 -90 69.5 -146.5t180.5 -56.5zM710 829l-68 134l506 17l-2 -156zM577 1165q-52 0 -90 35t-38 89t38 88.5t90 34.5q53 0 90.5 -34.5t37.5 -88.5t-37.5 -89t-90.5 -35z" />
    <glyph glyph-name="h" unicode="h" horiz-adv-x="1206" 
d="M159 0v1440h184v-653l-38 39q66 95 159.5 139.5t194.5 44.5q133 0 221.5 -53.5t132.5 -137.5t44 -173v-646h-184v593q0 109 -70 177.5t-188 68.5q-78 0 -139.5 -34.5t-97 -97t-35.5 -146.5v-561h-184z" />
    <glyph glyph-name="hbar" unicode="&#x127;" horiz-adv-x="1206" 
d="M159 0v1440h184v-653l-38 39q66 95 159.5 139.5t194.5 44.5q133 0 221.5 -53.5t132.5 -137.5t44 -173v-646h-184v593q0 109 -70 177.5t-188 68.5q-78 0 -139.5 -34.5t-97 -97t-35.5 -146.5v-561h-184zM25 1144v131h665v-131h-665z" />
    <glyph glyph-name="hcircumflex" unicode="&#x125;" horiz-adv-x="1206" 
d="M159 0v1440h184v-653l-38 39q66 95 159.5 139.5t194.5 44.5q133 0 221.5 -53.5t132.5 -137.5t44 -173v-646h-184v593q0 109 -70 177.5t-188 68.5q-78 0 -139.5 -34.5t-97 -97t-35.5 -146.5v-561h-184zM-116 1613l282 323h184l269 -323h-188l-177 210l-183 -210h-187z" />
    <glyph glyph-name="i" unicode="i" horiz-adv-x="502" 
d="M159 0v980h184v-980h-184zM251 1165q-52 0 -90 35t-38 89t38 88.5t90 34.5q53 0 90.5 -34.5t37.5 -88.5t-37.5 -89t-90.5 -35z" />
    <glyph glyph-name="dotlessi" unicode="&#x131;" horiz-adv-x="502" 
d="M159 0v980h184v-980h-184z" />
    <glyph glyph-name="dotlessi_dotbelowcomb" horiz-adv-x="502" 
d="M159 0v980h184v-980h-184zM251 -493q-52 0 -90 34.5t-38 88.5t38 89t90 35q53 0 90.5 -35t37.5 -89t-37.5 -88.5t-90.5 -34.5z" />
    <glyph glyph-name="uni01310328" horiz-adv-x="502" 
d="M159 0v980h184v-980h-184zM160 -450q-102 0 -158 59.5t-55 144.5q2 87 50.5 154t129.5 111t180 61l35 -80q-75 -14 -130 -41t-85 -68.5t-31 -98.5q-1 -43 20.5 -72.5t71.5 -29.5q29 0 55.5 8.5t48.5 23.5l53 -121q-42 -24 -89.5 -37.5t-95.5 -13.5z" />
    <glyph glyph-name="iacute" unicode="&#xed;" horiz-adv-x="502" 
d="M159 0v980h184v-980h-184zM155 1170l164 344h189l-184 -344h-169z" />
    <glyph glyph-name="ibreve" unicode="&#x12d;" horiz-adv-x="502" 
d="M159 0v980h184v-980h-184zM251 1160q-94 0 -165 46t-110 125.5t-37 182.5h155q-4 -98 40 -158.5t117 -60.5q72 0 116 60.5t39 158.5h156q1 -102 -38 -182t-110 -126t-163 -46z" />
    <glyph glyph-name="icircumflex" unicode="&#xee;" horiz-adv-x="502" 
d="M159 0v980h184v-980h-184zM-67 1170l237 344h172l228 -344h-181l-137 232l-142 -232h-177z" />
    <glyph glyph-name="uni0209" unicode="&#x209;" horiz-adv-x="502" 
d="M159 0v980h184v-980h-184zM489 1170h-153l-125 344h171zM178 1170h-154l-125 344h172z" />
    <glyph glyph-name="idieresis" unicode="&#xef;" horiz-adv-x="502" 
d="M159 0v980h184v-980h-184zM94 1164q-50 0 -84.5 34.5t-34.5 87.5t34.5 87t84.5 34t84.5 -34t34.5 -87t-34.5 -87.5t-84.5 -34.5zM408 1164q-49 0 -83.5 34.5t-34.5 87.5t34.5 87t83.5 34q50 0 84.5 -34t34.5 -87t-34.5 -87.5t-84.5 -34.5z" />
    <glyph glyph-name="i.loclTRK" horiz-adv-x="502" 
d="M159 0v980h184v-980h-184zM251 1165q-52 0 -90 35t-38 89t38 88.5t90 34.5q53 0 90.5 -34.5t37.5 -88.5t-37.5 -89t-90.5 -35z" />
    <glyph glyph-name="uni1ECB" unicode="&#x1ecb;" horiz-adv-x="502" 
d="M159 0v980h184v-980h-184zM251 1165q-52 0 -90 35t-38 89t38 88.5t90 34.5q53 0 90.5 -34.5t37.5 -88.5t-37.5 -89t-90.5 -35zM251 -493q-52 0 -90 34.5t-38 88.5t38 89t90 35q53 0 90.5 -35t37.5 -89t-37.5 -88.5t-90.5 -34.5z" />
    <glyph glyph-name="igrave" unicode="&#xec;" horiz-adv-x="502" 
d="M159 0v980h184v-980h-184zM183 1170l-181 344h193l162 -344h-174z" />
    <glyph glyph-name="uni1EC9" unicode="&#x1ec9;" horiz-adv-x="502" 
d="M159 0v980h184v-980h-184zM179 1170q-32 69 -14.5 113t84.5 74q51 23 68.5 38.5t17.5 44.5q0 37 -32 58t-79 21q-40 0 -80.5 -10.5t-72.5 -30.5l-35 104q45 26 102.5 39t113.5 13q101 0 165 -46.5t64 -120.5q0 -57 -25.5 -92t-93.5 -71q-55 -30 -66.5 -56t8.5 -78h-125z
" />
    <glyph glyph-name="uni020B" unicode="&#x20b;" horiz-adv-x="502" 
d="M159 0v980h184v-980h-184zM-61 1170q-2 103 37 183t110 125.5t165 45.5q92 0 163 -46t110 -126t38 -182h-156q5 99 -38.5 159.5t-116.5 60.5t-117 -60.5t-40 -159.5h-155z" />
    <glyph glyph-name="ij" unicode="&#x133;" horiz-adv-x="1003" 
d="M159 0v980h184v-980h-184zM251 1165q-52 0 -90 35t-38 89t38 88.5t90 34.5q53 0 90.5 -34.5t37.5 -88.5t-37.5 -89t-90.5 -35zM571 -450q-61 0 -108 12.5t-85 32.5l47 145q24 -13 49 -20.5t62 -7.5q69 0 97 39t28 115v1114h184v-1134q0 -92 -33.5 -158t-95 -102
t-145.5 -36zM752 1165q-52 0 -90 35t-38 89t38 88.5t90 34.5q53 0 90.5 -34.5t37.5 -88.5t-37.5 -89t-90.5 -35z" />
    <glyph glyph-name="imacron" unicode="&#x12b;" horiz-adv-x="502" 
d="M159 0v980h184v-980h-184zM-24 1230v136h552v-136h-552z" />
    <glyph glyph-name="iogonek" unicode="&#x12f;" horiz-adv-x="502" 
d="M159 0v980h184v-980h-184zM251 1165q-52 0 -90 35t-38 89t38 88.5t90 34.5q53 0 90.5 -34.5t37.5 -88.5t-37.5 -89t-90.5 -35zM160 -450q-102 0 -158 59.5t-55 144.5q2 87 50.5 154t129.5 111t180 61l35 -80q-75 -14 -130 -41t-85 -68.5t-31 -98.5q-1 -43 20.5 -72.5
t71.5 -29.5q29 0 55.5 8.5t48.5 23.5l53 -121q-42 -24 -89.5 -37.5t-95.5 -13.5z" />
    <glyph glyph-name="itilde" unicode="&#x129;" horiz-adv-x="502" 
d="M159 0v980h184v-980h-184zM8 1198l-84 73q31 89 80.5 142t117.5 53q52 0 96.5 -26.5t85 -53t80.5 -26.5q36 0 64 33t45 94l83 -75q-22 -92 -73.5 -142t-116.5 -50q-52 0 -97.5 26t-87 52.5t-80.5 26.5q-37 0 -65.5 -33t-47.5 -94z" />
    <glyph glyph-name="j" unicode="j" horiz-adv-x="502" 
d="M69 -450q-61 0 -108 12.5t-85 32.5l47 145q24 -13 49 -20.5t62 -7.5q69 0 97 39t28 115v1114h184v-1134q0 -92 -33.5 -158t-95 -102t-145.5 -36zM251 1165q-52 0 -90 35t-38 89t38 88.5t90 34.5q53 0 90.5 -34.5t37.5 -88.5t-37.5 -89t-90.5 -35z" />
    <glyph glyph-name="uni0237" unicode="&#x237;" horiz-adv-x="502" 
d="M69 -450q-61 0 -108 12.5t-85 32.5l47 145q24 -13 49 -20.5t62 -7.5q69 0 97 39t28 115v1114h184v-1134q0 -92 -33.5 -158t-95 -102t-145.5 -36z" />
    <glyph glyph-name="jcircumflex" unicode="&#x135;" horiz-adv-x="502" 
d="M69 -450q-61 0 -108 12.5t-85 32.5l47 145q24 -13 49 -20.5t62 -7.5q69 0 97 39t28 115v1114h184v-1134q0 -92 -33.5 -158t-95 -102t-145.5 -36zM-67 1170l237 344h172l228 -344h-181l-137 232l-142 -232h-177z" />
    <glyph glyph-name="k" unicode="k" horiz-adv-x="1086" 
d="M159 0v1440h184v-883l417 423h220l-347 -368l405 -612h-222l-317 493l-156 -157v-336h-184z" />
    <glyph glyph-name="uni0137" unicode="&#x137;" horiz-adv-x="1086" 
d="M159 0v1440h184v-883l417 423h220l-347 -368l405 -612h-222l-317 493l-156 -157v-336h-184zM479 -699l-65 83q63 27 112 66t66 77q-38 -2 -69.5 11t-50 39t-18.5 59q0 52 35.5 85t91.5 33q62 0 100.5 -40.5t38.5 -108.5q0 -54 -27 -107.5t-81 -103.5t-133 -93z" />
    <glyph glyph-name="kgreenlandic" unicode="&#x138;" horiz-adv-x="1086" 
d="M159 0v980h184v-423l417 423h220l-347 -368l405 -612h-222l-317 493l-156 -157v-336h-184z" />
    <glyph glyph-name="l" unicode="l" horiz-adv-x="502" 
d="M159 0v1440h184v-1440h-184z" />
    <glyph glyph-name="lacute" unicode="&#x13a;" horiz-adv-x="502" 
d="M159 0v1440h184v-1440h-184zM150 1613l193 323h194l-212 -323h-175z" />
    <glyph glyph-name="lcaron" unicode="&#x13e;" horiz-adv-x="567" 
d="M159 0v1440h184v-1440h-184zM443 1062v378h175l-51 -378h-124z" />
    <glyph glyph-name="uni013C" unicode="&#x13c;" horiz-adv-x="502" 
d="M159 0v1440h184v-1440h-184zM145 -699l-65 83q63 27 112 66t66 77q-38 -2 -69.5 11t-50 39t-18.5 59q0 52 35.5 85t91.5 33q62 0 100.5 -40.5t38.5 -108.5q0 -54 -27 -107.5t-81 -103.5t-133 -93z" />
    <glyph glyph-name="ldot" unicode="&#x140;" horiz-adv-x="747" 
d="M159 0v1440h184v-1440h-184zM625 536q-58 0 -99.5 37t-41.5 97q0 40 18.5 70t51 47t71.5 17q59 0 100 -37t41 -97q0 -40 -19 -70t-51 -47t-71 -17z" />
    <glyph glyph-name="uni01C9" unicode="&#x1c9;" horiz-adv-x="1003" 
d="M159 0v1440h184v-1440h-184zM571 -450q-61 0 -108 12.5t-85 32.5l47 145q24 -13 49 -20.5t62 -7.5q69 0 97 39t28 115v1114h184v-1134q0 -92 -33.5 -158t-95 -102t-145.5 -36zM752 1165q-52 0 -90 35t-38 89t38 88.5t90 34.5q53 0 90.5 -34.5t37.5 -88.5t-37.5 -89
t-90.5 -35z" />
    <glyph glyph-name="lslash" unicode="&#x142;" horiz-adv-x="652" 
d="M86 471l-62 131l302 143v-18l239 112l63 -132l-302 -140v17zM234 0v1440h184v-1440h-184z" />
    <glyph glyph-name="m" unicode="m" horiz-adv-x="1869" 
d="M159 0v980h184v-139q41 60 93.5 97t111 54.5t118.5 17.5q124 0 204.5 -54t114.5 -136q78 112 175 151t191 39q134 0 215 -53.5t117.5 -136.5t36.5 -170v-650h-184v596q0 109 -60 176t-176 67q-76 0 -137 -33.5t-96.5 -93.5t-35.5 -138v-574h-184v596q0 109 -59.5 176
t-176.5 67q-75 0 -136 -33.5t-96.5 -93.5t-35.5 -138v-574h-184z" />
    <glyph glyph-name="n" unicode="n" horiz-adv-x="1206" 
d="M159 0v980h184v-132q63 86 147 124t172 38q133 0 220.5 -53.5t131 -136.5t43.5 -170v-650h-184v593q0 111 -69 178.5t-188 67.5q-78 0 -139.5 -34.5t-97.5 -97.5t-36 -145v-562h-184z" />
    <glyph glyph-name="nacute" unicode="&#x144;" horiz-adv-x="1206" 
d="M159 0v980h184v-132q63 86 147 124t172 38q133 0 220.5 -53.5t131 -136.5t43.5 -170v-650h-184v593q0 111 -69 178.5t-188 67.5q-78 0 -139.5 -34.5t-97.5 -97.5t-36 -145v-562h-184zM518 1170l186 344h189l-204 -344h-171z" />
    <glyph glyph-name="ncaron" unicode="&#x148;" horiz-adv-x="1206" 
d="M159 0v980h184v-132q63 86 147 124t172 38q133 0 220.5 -53.5t131 -136.5t43.5 -170v-650h-184v593q0 111 -69 178.5t-188 67.5q-78 0 -139.5 -34.5t-97.5 -97.5t-36 -145v-562h-184zM522 1170l-262 344h183l170 -231l177 231h181l-272 -344h-177z" />
    <glyph glyph-name="uni0146" unicode="&#x146;" horiz-adv-x="1206" 
d="M159 0v980h184v-132q63 86 147 124t172 38q133 0 220.5 -53.5t131 -136.5t43.5 -170v-650h-184v593q0 111 -69 178.5t-188 67.5q-78 0 -139.5 -34.5t-97.5 -97.5t-36 -145v-562h-184zM502 -699l-65 83q63 27 112 66t66 77q-38 -2 -69.5 11t-50 39t-18.5 59q0 52 35.5 85
t91.5 33q62 0 100.5 -40.5t38.5 -108.5q0 -54 -27 -107.5t-81 -103.5t-133 -93z" />
    <glyph glyph-name="uni01CC" unicode="&#x1cc;" horiz-adv-x="1707" 
d="M159 0v980h184v-132q63 86 147 124t172 38q133 0 220.5 -53.5t131 -136.5t43.5 -170v-650h-184v593q0 111 -69 178.5t-188 67.5q-78 0 -139.5 -34.5t-97.5 -97.5t-36 -145v-562h-184zM1275 -450q-61 0 -108 12.5t-85 32.5l47 145q24 -13 49 -20.5t62 -7.5q69 0 97 39
t28 115v1114h184v-1134q0 -92 -33.5 -158t-95 -102t-145.5 -36zM1456 1165q-52 0 -90 35t-38 89t38 88.5t90 34.5q53 0 90.5 -34.5t37.5 -88.5t-37.5 -89t-90.5 -35z" />
    <glyph glyph-name="ntilde" unicode="&#xf1;" horiz-adv-x="1206" 
d="M159 0v980h184v-132q63 86 147 124t172 38q133 0 220.5 -53.5t131 -136.5t43.5 -170v-650h-184v593q0 111 -69 178.5t-188 67.5q-78 0 -139.5 -34.5t-97.5 -97.5t-36 -145v-562h-184zM337 1198l-92 73q34 89 90.5 142t131.5 53q59 0 110.5 -26.5t98.5 -53t93 -26.5
q43 0 75 33t52 94l91 -75q-28 -92 -85.5 -142t-130.5 -50q-59 0 -111.5 26t-100.5 52.5t-93 26.5q-43 0 -75.5 -32.5t-53.5 -94.5z" />
    <glyph glyph-name="eng" unicode="&#x14b;" horiz-adv-x="1198" 
d="M775 -450q-60 0 -107.5 12.5t-85.5 32.5l47 145q24 -13 49 -20.5t62 -7.5q69 0 97 39t28 115v727q0 111 -67.5 178.5t-185.5 67.5q-77 0 -137.5 -34.5t-96 -97.5t-35.5 -145v-562h-184v980h184v-132q62 86 145 124t170 38q132 0 218.5 -53.5t129.5 -136.5t43 -170v-804
q0 -92 -33.5 -158t-95 -102t-145.5 -36z" />
    <glyph glyph-name="o" unicode="o" horiz-adv-x="1197" 
d="M598 -30q-152 0 -271 71t-187 189t-68 260q0 105 39 199t110 166.5t167 113.5t210 41q153 0 272 -71t187 -189t68 -260q0 -105 -39 -199t-110 -166t-167 -113.5t-211 -41.5zM598 136q99 0 175.5 43.5t120.5 123t44 187.5q0 109 -43.5 188.5t-120.5 122.5t-176 43
t-175.5 -43t-120 -122.5t-43.5 -188.5q0 -108 43.5 -187.5t120.5 -123t175 -43.5z" />
    <glyph glyph-name="oacute" unicode="&#xf3;" horiz-adv-x="1197" 
d="M598 -30q-152 0 -271 71t-187 189t-68 260q0 105 39 199t110 166.5t167 113.5t210 41q153 0 272 -71t187 -189t68 -260q0 -105 -39 -199t-110 -166t-167 -113.5t-211 -41.5zM598 136q99 0 175.5 43.5t120.5 123t44 187.5q0 109 -43.5 188.5t-120.5 122.5t-176 43
t-175.5 -43t-120 -122.5t-43.5 -188.5q0 -108 43.5 -187.5t120.5 -123t175 -43.5zM500 1170l186 344h189l-204 -344h-171z" />
    <glyph glyph-name="obreve" unicode="&#x14f;" horiz-adv-x="1197" 
d="M598 -30q-152 0 -271 71t-187 189t-68 260q0 105 39 199t110 166.5t167 113.5t210 41q153 0 272 -71t187 -189t68 -260q0 -105 -39 -199t-110 -166t-167 -113.5t-211 -41.5zM598 136q99 0 175.5 43.5t120.5 123t44 187.5q0 109 -43.5 188.5t-120.5 122.5t-176 43
t-175.5 -43t-120 -122.5t-43.5 -188.5q0 -108 43.5 -187.5t120.5 -123t175 -43.5zM598 1160q-107 0 -188 46t-125 125.5t-41 182.5h157q-4 -98 50 -158.5t147 -60.5t146.5 60.5t48.5 158.5h158q2 -102 -42.5 -182t-125.5 -126t-185 -46z" />
    <glyph glyph-name="ocircumflex" unicode="&#xf4;" horiz-adv-x="1197" 
d="M598 -30q-152 0 -271 71t-187 189t-68 260q0 105 39 199t110 166.5t167 113.5t210 41q153 0 272 -71t187 -189t68 -260q0 -105 -39 -199t-110 -166t-167 -113.5t-211 -41.5zM598 136q99 0 175.5 43.5t120.5 123t44 187.5q0 109 -43.5 188.5t-120.5 122.5t-176 43
t-175.5 -43t-120 -122.5t-43.5 -188.5q0 -108 43.5 -187.5t120.5 -123t175 -43.5zM243 1170l273 344h178l260 -344h-183l-169 232l-178 -232h-181z" />
    <glyph glyph-name="uni1ED1" unicode="&#x1ed1;" horiz-adv-x="1197" 
d="M598 -30q-152 0 -271 71t-187 189t-68 260q0 105 39 199t110 166.5t167 113.5t210 41q153 0 272 -71t187 -189t68 -260q0 -105 -39 -199t-110 -166t-167 -113.5t-211 -41.5zM598 136q99 0 175.5 43.5t120.5 123t44 187.5q0 109 -43.5 188.5t-120.5 122.5t-176 43
t-175.5 -43t-120 -122.5t-43.5 -188.5q0 -108 43.5 -187.5t120.5 -123t175 -43.5zM243 1170l273 344h178l260 -344h-183l-169 232l-178 -232h-181zM882 1454l186 344h189l-204 -344h-171z" />
    <glyph glyph-name="uni1ED9" unicode="&#x1ed9;" horiz-adv-x="1197" 
d="M598 -30q-152 0 -271 71t-187 189t-68 260q0 105 39 199t110 166.5t167 113.5t210 41q153 0 272 -71t187 -189t68 -260q0 -105 -39 -199t-110 -166t-167 -113.5t-211 -41.5zM598 136q99 0 175.5 43.5t120.5 123t44 187.5q0 109 -43.5 188.5t-120.5 122.5t-176 43
t-175.5 -43t-120 -122.5t-43.5 -188.5q0 -108 43.5 -187.5t120.5 -123t175 -43.5zM598 -493q-52 0 -90 34.5t-38 88.5t38 89t90 35q53 0 90.5 -35t37.5 -89t-37.5 -88.5t-90.5 -34.5zM243 1170l273 344h178l260 -344h-183l-169 232l-178 -232h-181z" />
    <glyph glyph-name="uni1ED3" unicode="&#x1ed3;" horiz-adv-x="1197" 
d="M598 -30q-152 0 -271 71t-187 189t-68 260q0 105 39 199t110 166.5t167 113.5t210 41q153 0 272 -71t187 -189t68 -260q0 -105 -39 -199t-110 -166t-167 -113.5t-211 -41.5zM598 136q99 0 175.5 43.5t120.5 123t44 187.5q0 109 -43.5 188.5t-120.5 122.5t-176 43
t-175.5 -43t-120 -122.5t-43.5 -188.5q0 -108 43.5 -187.5t120.5 -123t175 -43.5zM243 1170l273 344h178l260 -344h-183l-169 232l-178 -232h-181zM883 1454l-203 344h195l184 -344h-176z" />
    <glyph glyph-name="uni1ED5" unicode="&#x1ed5;" horiz-adv-x="1197" 
d="M598 -30q-152 0 -271 71t-187 189t-68 260q0 105 39 199t110 166.5t167 113.5t210 41q153 0 272 -71t187 -189t68 -260q0 -105 -39 -199t-110 -166t-167 -113.5t-211 -41.5zM598 136q99 0 175.5 43.5t120.5 123t44 187.5q0 109 -43.5 188.5t-120.5 122.5t-176 43
t-175.5 -43t-120 -122.5t-43.5 -188.5q0 -108 43.5 -187.5t120.5 -123t175 -43.5zM243 1170l273 344h178l260 -344h-183l-169 232l-178 -232h-181zM904 1454q-35 68 -15.5 113t97.5 74q62 23 82 38.5t20 44.5q0 37 -37.5 58t-93.5 21q-48 0 -94 -10.5t-83 -30.5l-39 104
q51 26 113.5 39t126.5 13q113 0 184 -46.5t71 -120.5q0 -58 -29.5 -92.5t-107.5 -70.5q-63 -30 -76 -56t10 -78h-129z" />
    <glyph glyph-name="uni1ED7" unicode="&#x1ed7;" horiz-adv-x="1197" 
d="M598 -30q-152 0 -271 71t-187 189t-68 260q0 105 39 199t110 166.5t167 113.5t210 41q153 0 272 -71t187 -189t68 -260q0 -105 -39 -199t-110 -166t-167 -113.5t-211 -41.5zM598 136q99 0 175.5 43.5t120.5 123t44 187.5q0 109 -43.5 188.5t-120.5 122.5t-176 43
t-175.5 -43t-120 -122.5t-43.5 -188.5q0 -108 43.5 -187.5t120.5 -123t175 -43.5zM243 1170l273 344h178l260 -344h-183l-169 232l-178 -232h-181zM319 1672l-92 73q34 89 90.5 142t131.5 53q59 0 110.5 -26.5t98.5 -53t93 -26.5q43 0 75 33t52 94l91 -75
q-28 -92 -85.5 -142t-130.5 -50q-59 0 -111.5 26t-100.5 52.5t-93 26.5q-43 0 -75.5 -32.5t-53.5 -94.5z" />
    <glyph glyph-name="uni020D" unicode="&#x20d;" horiz-adv-x="1197" 
d="M598 -30q-152 0 -271 71t-187 189t-68 260q0 105 39 199t110 166.5t167 113.5t210 41q153 0 272 -71t187 -189t68 -260q0 -105 -39 -199t-110 -166t-167 -113.5t-211 -41.5zM598 136q99 0 175.5 43.5t120.5 123t44 187.5q0 109 -43.5 188.5t-120.5 122.5t-176 43
t-175.5 -43t-120 -122.5t-43.5 -188.5q0 -108 43.5 -187.5t120.5 -123t175 -43.5zM713 1170l-199 344h181l181 -344h-163zM330 1170l-199 344h181l181 -344h-163z" />
    <glyph glyph-name="odieresis" unicode="&#xf6;" horiz-adv-x="1197" 
d="M598 -30q-152 0 -271 71t-187 189t-68 260q0 105 39 199t110 166.5t167 113.5t210 41q153 0 272 -71t187 -189t68 -260q0 -105 -39 -199t-110 -166t-167 -113.5t-211 -41.5zM598 136q99 0 175.5 43.5t120.5 123t44 187.5q0 109 -43.5 188.5t-120.5 122.5t-176 43
t-175.5 -43t-120 -122.5t-43.5 -188.5q0 -108 43.5 -187.5t120.5 -123t175 -43.5zM393 1164q-49 0 -86 34.5t-37 87.5q0 35 17 62.5t45 43t61 15.5q50 0 86.5 -34t36.5 -87q0 -36 -17 -63.5t-45 -43t-61 -15.5zM803 1164q-49 0 -86 34.5t-37 87.5q0 35 17 62.5t45 43
t61 15.5q50 0 86.5 -34t36.5 -87q0 -36 -17 -63.5t-45 -43t-61 -15.5z" />
    <glyph glyph-name="uni022B" unicode="&#x22b;" horiz-adv-x="1197" 
d="M598 -30q-152 0 -271 71t-187 189t-68 260q0 105 39 199t110 166.5t167 113.5t210 41q153 0 272 -71t187 -189t68 -260q0 -105 -39 -199t-110 -166t-167 -113.5t-211 -41.5zM598 136q99 0 175.5 43.5t120.5 123t44 187.5q0 109 -43.5 188.5t-120.5 122.5t-176 43
t-175.5 -43t-120 -122.5t-43.5 -188.5q0 -108 43.5 -187.5t120.5 -123t175 -43.5zM393 1164q-49 0 -86 34.5t-37 87.5q0 35 17 62.5t45 43t61 15.5q50 0 86.5 -34t36.5 -87q0 -36 -17 -63.5t-45 -43t-61 -15.5zM803 1164q-49 0 -86 34.5t-37 87.5q0 35 17 62.5t45 43
t61 15.5q50 0 86.5 -34t36.5 -87q0 -36 -17 -63.5t-45 -43t-61 -15.5zM285 1584v136h626v-136h-626z" />
    <glyph glyph-name="uni0231" unicode="&#x231;" horiz-adv-x="1197" 
d="M598 -30q-152 0 -271 71t-187 189t-68 260q0 105 39 199t110 166.5t167 113.5t210 41q153 0 272 -71t187 -189t68 -260q0 -105 -39 -199t-110 -166t-167 -113.5t-211 -41.5zM598 136q99 0 175.5 43.5t120.5 123t44 187.5q0 109 -43.5 188.5t-120.5 122.5t-176 43
t-175.5 -43t-120 -122.5t-43.5 -188.5q0 -108 43.5 -187.5t120.5 -123t175 -43.5zM598 1165q-52 0 -90 35t-38 89t38 88.5t90 34.5q53 0 90.5 -34.5t37.5 -88.5t-37.5 -89t-90.5 -35zM285 1584v136h626v-136h-626z" />
    <glyph glyph-name="uni1ECD" unicode="&#x1ecd;" horiz-adv-x="1197" 
d="M598 -30q-152 0 -271 71t-187 189t-68 260q0 105 39 199t110 166.5t167 113.5t210 41q153 0 272 -71t187 -189t68 -260q0 -105 -39 -199t-110 -166t-167 -113.5t-211 -41.5zM598 136q99 0 175.5 43.5t120.5 123t44 187.5q0 109 -43.5 188.5t-120.5 122.5t-176 43
t-175.5 -43t-120 -122.5t-43.5 -188.5q0 -108 43.5 -187.5t120.5 -123t175 -43.5zM598 -493q-52 0 -90 34.5t-38 88.5t38 89t90 35q53 0 90.5 -35t37.5 -89t-37.5 -88.5t-90.5 -34.5z" />
    <glyph glyph-name="ograve" unicode="&#xf2;" horiz-adv-x="1197" 
d="M598 -30q-152 0 -271 71t-187 189t-68 260q0 105 39 199t110 166.5t167 113.5t210 41q153 0 272 -71t187 -189t68 -260q0 -105 -39 -199t-110 -166t-167 -113.5t-211 -41.5zM598 136q99 0 175.5 43.5t120.5 123t44 187.5q0 109 -43.5 188.5t-120.5 122.5t-176 43
t-175.5 -43t-120 -122.5t-43.5 -188.5q0 -108 43.5 -187.5t120.5 -123t175 -43.5zM533 1170l-203 344h195l184 -344h-176z" />
    <glyph glyph-name="uni1ECF" unicode="&#x1ecf;" horiz-adv-x="1197" 
d="M598 -30q-152 0 -271 71t-187 189t-68 260q0 105 39 199t110 166.5t167 113.5t210 41q153 0 272 -71t187 -189t68 -260q0 -105 -39 -199t-110 -166t-167 -113.5t-211 -41.5zM598 136q99 0 175.5 43.5t120.5 123t44 187.5q0 109 -43.5 188.5t-120.5 122.5t-176 43
t-175.5 -43t-120 -122.5t-43.5 -188.5q0 -108 43.5 -187.5t120.5 -123t175 -43.5zM523 1170q-35 68 -15.5 113t97.5 74q62 23 82 38.5t20 44.5q0 37 -37.5 58t-93.5 21q-48 0 -94 -10.5t-83 -30.5l-39 104q51 26 113.5 39t126.5 13q113 0 184 -46.5t71 -120.5
q0 -58 -29.5 -92.5t-107.5 -70.5q-63 -30 -76 -56t10 -78h-129z" />
    <glyph glyph-name="ohorn" unicode="&#x1a1;" horiz-adv-x="1237" 
d="M598 -30q-152 0 -271 71t-187 189t-68 260q0 105 39 199t110 166.5t167 113.5t210 41q153 0 272 -71t187 -189t68 -260q0 -105 -39 -199t-110 -166t-167 -113.5t-211 -41.5zM598 136q99 0 175.5 43.5t120.5 123t44 187.5q0 109 -43.5 188.5t-120.5 122.5t-176 43
t-175.5 -43t-120 -122.5t-43.5 -188.5q0 -108 43.5 -187.5t120.5 -123t175 -43.5zM1021 822q-40 0 -87.5 12.5t-100.5 29.5t-111.5 30t-120.5 13l-1 103q85 0 160 -17.5t134 -34.5t95 -17q52 0 75.5 20.5t23.5 51.5q0 26 -16 60t-49 71l123 62q47 -48 69.5 -99.5t22.5 -97.5
q0 -52 -25 -94.5t-73.5 -67.5t-118.5 -25z" />
    <glyph glyph-name="uni1EDB" unicode="&#x1edb;" horiz-adv-x="1237" 
d="M598 -30q-152 0 -271 71t-187 189t-68 260q0 105 39 199t110 166.5t167 113.5t210 41q153 0 272 -71t187 -189t68 -260q0 -105 -39 -199t-110 -166t-167 -113.5t-211 -41.5zM598 136q99 0 175.5 43.5t120.5 123t44 187.5q0 109 -43.5 188.5t-120.5 122.5t-176 43
t-175.5 -43t-120 -122.5t-43.5 -188.5q0 -108 43.5 -187.5t120.5 -123t175 -43.5zM1021 822q-40 0 -87.5 12.5t-100.5 29.5t-111.5 30t-120.5 13l-1 103q85 0 160 -17.5t134 -34.5t95 -17q52 0 75.5 20.5t23.5 51.5q0 26 -16 60t-49 71l123 62q47 -48 69.5 -99.5t22.5 -97.5
q0 -52 -25 -94.5t-73.5 -67.5t-118.5 -25zM500 1170l186 344h189l-204 -344h-171z" />
    <glyph glyph-name="uni1EE3" unicode="&#x1ee3;" horiz-adv-x="1237" 
d="M598 -30q-152 0 -271 71t-187 189t-68 260q0 105 39 199t110 166.5t167 113.5t210 41q153 0 272 -71t187 -189t68 -260q0 -105 -39 -199t-110 -166t-167 -113.5t-211 -41.5zM598 136q99 0 175.5 43.5t120.5 123t44 187.5q0 109 -43.5 188.5t-120.5 122.5t-176 43
t-175.5 -43t-120 -122.5t-43.5 -188.5q0 -108 43.5 -187.5t120.5 -123t175 -43.5zM1021 822q-40 0 -87.5 12.5t-100.5 29.5t-111.5 30t-120.5 13l-1 103q85 0 160 -17.5t134 -34.5t95 -17q52 0 75.5 20.5t23.5 51.5q0 26 -16 60t-49 71l123 62q47 -48 69.5 -99.5t22.5 -97.5
q0 -52 -25 -94.5t-73.5 -67.5t-118.5 -25zM598 -493q-52 0 -90 34.5t-38 88.5t38 89t90 35q53 0 90.5 -35t37.5 -89t-37.5 -88.5t-90.5 -34.5z" />
    <glyph glyph-name="uni1EDD" unicode="&#x1edd;" horiz-adv-x="1237" 
d="M598 -30q-152 0 -271 71t-187 189t-68 260q0 105 39 199t110 166.5t167 113.5t210 41q153 0 272 -71t187 -189t68 -260q0 -105 -39 -199t-110 -166t-167 -113.5t-211 -41.5zM598 136q99 0 175.5 43.5t120.5 123t44 187.5q0 109 -43.5 188.5t-120.5 122.5t-176 43
t-175.5 -43t-120 -122.5t-43.5 -188.5q0 -108 43.5 -187.5t120.5 -123t175 -43.5zM1021 822q-40 0 -87.5 12.5t-100.5 29.5t-111.5 30t-120.5 13l-1 103q85 0 160 -17.5t134 -34.5t95 -17q52 0 75.5 20.5t23.5 51.5q0 26 -16 60t-49 71l123 62q47 -48 69.5 -99.5t22.5 -97.5
q0 -52 -25 -94.5t-73.5 -67.5t-118.5 -25zM533 1170l-203 344h195l184 -344h-176z" />
    <glyph glyph-name="uni1EDF" unicode="&#x1edf;" horiz-adv-x="1237" 
d="M598 -30q-152 0 -271 71t-187 189t-68 260q0 105 39 199t110 166.5t167 113.5t210 41q153 0 272 -71t187 -189t68 -260q0 -105 -39 -199t-110 -166t-167 -113.5t-211 -41.5zM598 136q99 0 175.5 43.5t120.5 123t44 187.5q0 109 -43.5 188.5t-120.5 122.5t-176 43
t-175.5 -43t-120 -122.5t-43.5 -188.5q0 -108 43.5 -187.5t120.5 -123t175 -43.5zM1021 822q-40 0 -87.5 12.5t-100.5 29.5t-111.5 30t-120.5 13l-1 103q85 0 160 -17.5t134 -34.5t95 -17q52 0 75.5 20.5t23.5 51.5q0 26 -16 60t-49 71l123 62q47 -48 69.5 -99.5t22.5 -97.5
q0 -52 -25 -94.5t-73.5 -67.5t-118.5 -25zM523 1170q-35 68 -15.5 113t97.5 74q62 23 82 38.5t20 44.5q0 37 -37.5 58t-93.5 21q-48 0 -94 -10.5t-83 -30.5l-39 104q51 26 113.5 39t126.5 13q113 0 184 -46.5t71 -120.5q0 -58 -29.5 -92.5t-107.5 -70.5q-63 -30 -76 -56
t10 -78h-129z" />
    <glyph glyph-name="uni1EE1" unicode="&#x1ee1;" horiz-adv-x="1237" 
d="M598 -30q-152 0 -271 71t-187 189t-68 260q0 105 39 199t110 166.5t167 113.5t210 41q153 0 272 -71t187 -189t68 -260q0 -105 -39 -199t-110 -166t-167 -113.5t-211 -41.5zM598 136q99 0 175.5 43.5t120.5 123t44 187.5q0 109 -43.5 188.5t-120.5 122.5t-176 43
t-175.5 -43t-120 -122.5t-43.5 -188.5q0 -108 43.5 -187.5t120.5 -123t175 -43.5zM1021 822q-40 0 -87.5 12.5t-100.5 29.5t-111.5 30t-120.5 13l-1 103q85 0 160 -17.5t134 -34.5t95 -17q52 0 75.5 20.5t23.5 51.5q0 26 -16 60t-49 71l123 62q47 -48 69.5 -99.5t22.5 -97.5
q0 -52 -25 -94.5t-73.5 -67.5t-118.5 -25zM319 1198l-92 73q34 89 90.5 142t131.5 53q59 0 110.5 -26.5t98.5 -53t93 -26.5q43 0 75 33t52 94l91 -75q-28 -92 -85.5 -142t-130.5 -50q-59 0 -111.5 26t-100.5 52.5t-93 26.5q-43 0 -75.5 -32.5t-53.5 -94.5z" />
    <glyph glyph-name="ohungarumlaut" unicode="&#x151;" horiz-adv-x="1197" 
d="M598 -30q-152 0 -271 71t-187 189t-68 260q0 105 39 199t110 166.5t167 113.5t210 41q153 0 272 -71t187 -189t68 -260q0 -105 -39 -199t-110 -166t-167 -113.5t-211 -41.5zM598 136q99 0 175.5 43.5t120.5 123t44 187.5q0 109 -43.5 188.5t-120.5 122.5t-176 43
t-175.5 -43t-120 -122.5t-43.5 -188.5q0 -108 43.5 -187.5t120.5 -123t175 -43.5zM704 1170l181 344h181l-199 -344h-163zM321 1170l181 344h181l-199 -344h-163z" />
    <glyph glyph-name="uni020F" unicode="&#x20f;" horiz-adv-x="1197" 
d="M598 -30q-152 0 -271 71t-187 189t-68 260q0 105 39 199t110 166.5t167 113.5t210 41q153 0 272 -71t187 -189t68 -260q0 -105 -39 -199t-110 -166t-167 -113.5t-211 -41.5zM598 136q99 0 175.5 43.5t120.5 123t44 187.5q0 109 -43.5 188.5t-120.5 122.5t-176 43
t-175.5 -43t-120 -122.5t-43.5 -188.5q0 -108 43.5 -187.5t120.5 -123t175 -43.5zM244 1170q-3 103 41 183t125 125.5t188 45.5q104 0 185 -46t125.5 -126t42.5 -182h-158q5 99 -48.5 159.5t-146.5 60.5t-147 -60.5t-50 -159.5h-157z" />
    <glyph glyph-name="omacron" unicode="&#x14d;" horiz-adv-x="1197" 
d="M598 -30q-152 0 -271 71t-187 189t-68 260q0 105 39 199t110 166.5t167 113.5t210 41q153 0 272 -71t187 -189t68 -260q0 -105 -39 -199t-110 -166t-167 -113.5t-211 -41.5zM598 136q99 0 175.5 43.5t120.5 123t44 187.5q0 109 -43.5 188.5t-120.5 122.5t-176 43
t-175.5 -43t-120 -122.5t-43.5 -188.5q0 -108 43.5 -187.5t120.5 -123t175 -43.5zM285 1230v136h626v-136h-626z" />
    <glyph glyph-name="uni01EB" unicode="&#x1eb;" horiz-adv-x="1197" 
d="M646 -450q-101 0 -157 59.5t-55 144.5q1 68 30.5 123t78.5 98q-137 12 -243.5 84t-167 185t-60.5 246q0 105 39 199t110 166.5t167 113.5t210 41q153 0 272 -71t187 -189t68 -260q0 -114 -46 -214.5t-128.5 -174.5t-192.5 -109q-80 -25 -126.5 -74t-49.5 -126
q0 -43 21 -72.5t72 -29.5q28 0 55 8.5t48 23.5l54 -121q-42 -24 -89.5 -37.5t-96.5 -13.5zM598 136q99 0 175.5 43.5t120.5 123t44 187.5q0 109 -43.5 188.5t-120.5 122.5t-176 43t-175.5 -43t-120 -122.5t-43.5 -188.5q0 -108 43.5 -187.5t120.5 -123t175 -43.5z" />
    <glyph glyph-name="oslash" unicode="&#xf8;" horiz-adv-x="1197" 
d="M226 -72l-103 88l92 113q-67 71 -105 164t-38 197q0 105 39 199t110 166.5t167 113.5t210 41q78 0 147.5 -19.5t128.5 -56.5l96 119l103 -88l-92 -113q67 -71 105.5 -163.5t38.5 -198.5q0 -105 -39 -199t-110 -166t-167 -113.5t-211 -41.5q-77 0 -147 20.5t-129 55.5z
M326 260l447 546q-36 22 -79 33.5t-93 11.5q-101 0 -180 -44.5t-124 -126t-45 -192.5q0 -70 20 -128t54 -100zM595 129q102 0 180.5 44.5t123.5 126t45 193.5q0 70 -19.5 128t-54.5 101l-447 -547q36 -22 79.5 -34t92.5 -12z" />
    <glyph glyph-name="oslashacute" unicode="&#x1ff;" horiz-adv-x="1197" 
d="M226 -72l-103 88l92 113q-67 71 -105 164t-38 197q0 105 39 199t110 166.5t167 113.5t210 41q78 0 147.5 -19.5t128.5 -56.5l96 119l103 -88l-92 -113q67 -71 105.5 -163.5t38.5 -198.5q0 -105 -39 -199t-110 -166t-167 -113.5t-211 -41.5q-77 0 -147 20.5t-129 55.5z
M326 260l447 546q-36 22 -79 33.5t-93 11.5q-101 0 -180 -44.5t-124 -126t-45 -192.5q0 -70 20 -128t54 -100zM595 129q102 0 180.5 44.5t123.5 126t45 193.5q0 70 -19.5 128t-54.5 101l-447 -547q36 -22 79.5 -34t92.5 -12zM500 1170l186 344h189l-204 -344h-171z" />
    <glyph glyph-name="otilde" unicode="&#xf5;" horiz-adv-x="1197" 
d="M598 -30q-152 0 -271 71t-187 189t-68 260q0 105 39 199t110 166.5t167 113.5t210 41q153 0 272 -71t187 -189t68 -260q0 -105 -39 -199t-110 -166t-167 -113.5t-211 -41.5zM598 136q99 0 175.5 43.5t120.5 123t44 187.5q0 109 -43.5 188.5t-120.5 122.5t-176 43
t-175.5 -43t-120 -122.5t-43.5 -188.5q0 -108 43.5 -187.5t120.5 -123t175 -43.5zM319 1198l-92 73q34 89 90.5 142t131.5 53q59 0 110.5 -26.5t98.5 -53t93 -26.5q43 0 75 33t52 94l91 -75q-28 -92 -85.5 -142t-130.5 -50q-59 0 -111.5 26t-100.5 52.5t-93 26.5
q-43 0 -75.5 -32.5t-53.5 -94.5z" />
    <glyph glyph-name="uni022D" unicode="&#x22d;" horiz-adv-x="1197" 
d="M598 -30q-152 0 -271 71t-187 189t-68 260q0 105 39 199t110 166.5t167 113.5t210 41q153 0 272 -71t187 -189t68 -260q0 -105 -39 -199t-110 -166t-167 -113.5t-211 -41.5zM598 136q99 0 175.5 43.5t120.5 123t44 187.5q0 109 -43.5 188.5t-120.5 122.5t-176 43
t-175.5 -43t-120 -122.5t-43.5 -188.5q0 -108 43.5 -187.5t120.5 -123t175 -43.5zM319 1198l-92 73q34 89 90.5 142t131.5 53q59 0 110.5 -26.5t98.5 -53t93 -26.5q43 0 75 33t52 94l91 -75q-28 -92 -85.5 -142t-130.5 -50q-59 0 -111.5 26t-100.5 52.5t-93 26.5
q-43 0 -75.5 -32.5t-53.5 -94.5zM285 1624v136h626v-136h-626z" />
    <glyph glyph-name="oe" unicode="&#x153;" horiz-adv-x="1996" 
d="M595 -30q-151 0 -269.5 71t-186 189t-67.5 260q0 105 39 199t109.5 166.5t166 113.5t208.5 41q151 0 268 -71t184.5 -189t67.5 -260q0 -105 -38.5 -199t-108.5 -166t-165 -113.5t-208 -41.5zM598 136q99 0 175.5 43.5t120.5 123t44 187.5q0 109 -43.5 188.5t-120.5 122.5
t-176 43t-175.5 -43t-120 -122.5t-43.5 -188.5q0 -108 43.5 -187.5t120.5 -123t175 -43.5zM1469 -30q-154 0 -271.5 65t-183.5 181.5t-66 271.5q0 112 38 208t106.5 166t160.5 109t201 39q158 0 269 -73.5t163 -199.5t32 -284h-798q-3 -98 40 -171.5t124.5 -114.5t193.5 -41
q82 0 160 26t138 77l79 -137q-49 -39 -113.5 -66.5t-135 -41.5t-137.5 -14zM1130 596h604q-5 124 -77.5 193.5t-208.5 69.5q-132 0 -217.5 -69.5t-100.5 -193.5z" />
    <glyph glyph-name="p" unicode="p" horiz-adv-x="1280" 
d="M159 -420v1400h169v-147q61 78 153.5 127.5t233.5 49.5q146 0 257 -68.5t173.5 -186.5t62.5 -265q0 -107 -35.5 -201.5t-101.5 -166t-156.5 -112t-201.5 -40.5q-124 0 -216.5 46.5t-154.5 122.5v-559h-183zM682 136q99 0 175.5 43.5t120 123t43.5 187.5
q0 109 -43.5 188.5t-120 122.5t-175.5 43t-175.5 -43t-120.5 -122.5t-44 -188.5q0 -108 44 -187.5t120.5 -123t175.5 -43.5z" />
    <glyph glyph-name="thorn" unicode="&#xfe;" horiz-adv-x="1280" 
d="M159 -420v1860h183v-605q62 77 154.5 126t216.5 49q147 0 258.5 -70t174 -188t62.5 -262q0 -107 -35.5 -201.5t-101.5 -166t-156.5 -112t-201.5 -40.5q-124 0 -216.5 46.5t-154.5 122.5v-559h-183zM682 136q99 0 175.5 43.5t120 123t43.5 187.5q0 109 -43.5 188.5
t-120 122.5t-175.5 43t-176 -43t-120.5 -122.5t-43.5 -188.5q0 -108 43.5 -187.5t120.5 -123t176 -43.5z" />
    <glyph glyph-name="q" unicode="q" horiz-adv-x="1280" 
d="M938 -420v642l36 -41q-65 -97 -165.5 -154t-241.5 -57q-147 0 -258.5 70t-174 188.5t-62.5 261.5q0 110 36 205t101.5 165.5t156 110t199.5 39.5q105 0 184 -28t135.5 -77.5t94.5 -111.5l-27 -42v229h169v-1400h-183zM598 136q99 0 176 43.5t120.5 123t43.5 187.5
q0 109 -44 188.5t-120.5 122.5t-175.5 43q-98 0 -175 -43t-120.5 -122.5t-43.5 -188.5q0 -108 43.5 -187.5t120 -123t175.5 -43.5z" />
    <glyph glyph-name="r" unicode="r" horiz-adv-x="800" 
d="M159 0v980h184v-142q59 96 140.5 134.5t173.5 38.5q29 0 56 -3t53 -8l-27 -191q-28 8 -57 12.5t-57 4.5q-123 0 -202.5 -76.5t-79.5 -204.5v-545h-184z" />
    <glyph glyph-name="racute" unicode="&#x155;" horiz-adv-x="800" 
d="M159 0v980h184v-142q59 96 140.5 134.5t173.5 38.5q29 0 56 -3t53 -8l-27 -191q-28 8 -57 12.5t-57 4.5q-123 0 -202.5 -76.5t-79.5 -204.5v-545h-184zM365 1170l186 344h189l-204 -344h-171z" />
    <glyph glyph-name="rcaron" unicode="&#x159;" horiz-adv-x="800" 
d="M159 0v980h184v-142q59 96 140.5 134.5t173.5 38.5q29 0 56 -3t53 -8l-27 -191q-28 8 -57 12.5t-57 4.5q-123 0 -202.5 -76.5t-79.5 -204.5v-545h-184zM369 1170l-262 344h183l170 -231l177 231h181l-272 -344h-177z" />
    <glyph glyph-name="uni0157" unicode="&#x157;" horiz-adv-x="800" 
d="M159 0v980h184v-142q59 96 140.5 134.5t173.5 38.5q29 0 56 -3t53 -8l-27 -191q-28 8 -57 12.5t-57 4.5q-123 0 -202.5 -76.5t-79.5 -204.5v-545h-184zM145 -699l-65 83q63 27 112 66t66 77q-38 -2 -69.5 11t-50 39t-18.5 59q0 52 35.5 85t91.5 33q62 0 100.5 -40.5
t38.5 -108.5q0 -54 -27 -107.5t-81 -103.5t-133 -93z" />
    <glyph glyph-name="uni0211" unicode="&#x211;" horiz-adv-x="800" 
d="M159 0v980h184v-142q59 96 140.5 134.5t173.5 38.5q29 0 56 -3t53 -8l-27 -191q-28 8 -57 12.5t-57 4.5q-123 0 -202.5 -76.5t-79.5 -204.5v-545h-184zM578 1170l-199 344h181l181 -344h-163zM195 1170l-199 344h181l181 -344h-163z" />
    <glyph glyph-name="uni0213" unicode="&#x213;" horiz-adv-x="800" 
d="M159 0v980h184v-142q59 96 140.5 134.5t173.5 38.5q29 0 56 -3t53 -8l-27 -191q-28 8 -57 12.5t-57 4.5q-123 0 -202.5 -76.5t-79.5 -204.5v-545h-184zM109 1170q-3 103 41 183t125 125.5t188 45.5q104 0 185 -46t125.5 -126t42.5 -182h-158q5 99 -48.5 159.5
t-146.5 60.5t-147 -60.5t-50 -159.5h-157z" />
    <glyph glyph-name="s" unicode="s" horiz-adv-x="970" 
d="M476 -29q-116 0 -219.5 34.5t-172.5 92.5l76 139q65 -54 148.5 -84.5t167.5 -30.5q104 0 162 37.5t58 106.5q0 64 -50 95t-186 64q-180 41 -261.5 110t-81.5 190q0 86 48 152.5t131.5 104.5t192.5 38q108 0 201.5 -30.5t162.5 -88.5l-71 -140q-35 33 -82.5 57
t-101.5 37.5t-108 13.5q-89 0 -145.5 -36t-56.5 -100q0 -67 54.5 -98t181.5 -61q184 -41 264 -109.5t80 -188.5q0 -93 -49 -161.5t-137 -106t-206 -37.5z" />
    <glyph glyph-name="sacute" unicode="&#x15b;" horiz-adv-x="970" 
d="M476 -29q-116 0 -219.5 34.5t-172.5 92.5l76 139q65 -54 148.5 -84.5t167.5 -30.5q104 0 162 37.5t58 106.5q0 64 -50 95t-186 64q-180 41 -261.5 110t-81.5 190q0 86 48 152.5t131.5 104.5t192.5 38q108 0 201.5 -30.5t162.5 -88.5l-71 -140q-35 33 -82.5 57
t-101.5 37.5t-108 13.5q-89 0 -145.5 -36t-56.5 -100q0 -67 54.5 -98t181.5 -61q184 -41 264 -109.5t80 -188.5q0 -93 -49 -161.5t-137 -106t-206 -37.5zM391 1170l186 344h189l-204 -344h-171z" />
    <glyph glyph-name="scaron" unicode="&#x161;" horiz-adv-x="970" 
d="M476 -29q-116 0 -219.5 34.5t-172.5 92.5l76 139q65 -54 148.5 -84.5t167.5 -30.5q104 0 162 37.5t58 106.5q0 64 -50 95t-186 64q-180 41 -261.5 110t-81.5 190q0 86 48 152.5t131.5 104.5t192.5 38q108 0 201.5 -30.5t162.5 -88.5l-71 -140q-35 33 -82.5 57
t-101.5 37.5t-108 13.5q-89 0 -145.5 -36t-56.5 -100q0 -67 54.5 -98t181.5 -61q184 -41 264 -109.5t80 -188.5q0 -93 -49 -161.5t-137 -106t-206 -37.5zM396 1170l-262 344h183l170 -231l177 231h181l-272 -344h-177z" />
    <glyph glyph-name="scedilla" unicode="&#x15f;" horiz-adv-x="970" 
d="M476 -29q-116 0 -219.5 34.5t-172.5 92.5l76 139q65 -54 148.5 -84.5t167.5 -30.5q104 0 162 37.5t58 106.5q0 64 -50 95t-186 64q-180 41 -261.5 110t-81.5 190q0 86 48 152.5t131.5 104.5t192.5 38q108 0 201.5 -30.5t162.5 -88.5l-71 -140q-35 33 -82.5 57
t-101.5 37.5t-108 13.5q-89 0 -145.5 -36t-56.5 -100q0 -67 54.5 -98t181.5 -61q184 -41 264 -109.5t80 -188.5q0 -93 -49 -161.5t-137 -106t-206 -37.5zM458 -450q-67 0 -123.5 16.5t-100.5 44.5l45 106q23 -24 74.5 -39t97.5 -15q44 0 80.5 17t36.5 57q0 44 -51 61t-112 8
l-43 79l54 155h113l-38 -123q100 -8 163 -52t63 -125q0 -69 -41.5 -111t-102 -60.5t-115.5 -18.5z" />
    <glyph glyph-name="scircumflex" unicode="&#x15d;" horiz-adv-x="970" 
d="M476 -29q-116 0 -219.5 34.5t-172.5 92.5l76 139q65 -54 148.5 -84.5t167.5 -30.5q104 0 162 37.5t58 106.5q0 64 -50 95t-186 64q-180 41 -261.5 110t-81.5 190q0 86 48 152.5t131.5 104.5t192.5 38q108 0 201.5 -30.5t162.5 -88.5l-71 -140q-35 33 -82.5 57
t-101.5 37.5t-108 13.5q-89 0 -145.5 -36t-56.5 -100q0 -67 54.5 -98t181.5 -61q184 -41 264 -109.5t80 -188.5q0 -93 -49 -161.5t-137 -106t-206 -37.5zM134 1170l273 344h178l260 -344h-183l-169 232l-178 -232h-181z" />
    <glyph glyph-name="uni0219" unicode="&#x219;" horiz-adv-x="970" 
d="M476 -29q-116 0 -219.5 34.5t-172.5 92.5l76 139q65 -54 148.5 -84.5t167.5 -30.5q104 0 162 37.5t58 106.5q0 64 -50 95t-186 64q-180 41 -261.5 110t-81.5 190q0 86 48 152.5t131.5 104.5t192.5 38q108 0 201.5 -30.5t162.5 -88.5l-71 -140q-35 33 -82.5 57
t-101.5 37.5t-108 13.5q-89 0 -145.5 -36t-56.5 -100q0 -67 54.5 -98t181.5 -61q184 -41 264 -109.5t80 -188.5q0 -93 -49 -161.5t-137 -106t-206 -37.5zM370 -699l-65 83q63 27 112 66t66 77q-38 -2 -69.5 11t-50 39t-18.5 59q0 52 35.5 85t91.5 33q62 0 100.5 -40.5
t38.5 -108.5q0 -54 -27 -107.5t-81 -103.5t-133 -93z" />
    <glyph glyph-name="germandbls" unicode="&#xdf;" horiz-adv-x="1232" 
d="M762 -29q-42 0 -106 9.5t-145 47.5l56 146q53 -29 95.5 -40t87.5 -11q100 0 157.5 43t57.5 119q0 73 -47 116.5t-108 83.5q-42 28 -87.5 63t-77.5 81t-32 107q0 47 20 84.5t48 69.5t53 61q29 31 55 60t42.5 59.5t16.5 68.5q0 79 -66.5 124t-170.5 45q-131 0 -199.5 -74.5
t-68.5 -207.5v-1026h-184v1056q0 122 55 215.5t156.5 146t240.5 52.5q125 0 221 -38.5t150 -107.5t54 -161q0 -59 -22 -102.5t-54.5 -80t-63.5 -72.5q-32 -37 -62 -73t-30 -80q0 -55 46 -92t98 -71q53 -33 101.5 -73t79.5 -94.5t31 -133.5q0 -96 -50.5 -168.5t-140.5 -112
t-207 -39.5z" />
    <glyph glyph-name="t" unicode="t" horiz-adv-x="846" 
d="M564 -30q-137 0 -220.5 80t-83.5 247v971h184v-288h287v-156h-287v-481q0 -112 40.5 -157.5t118.5 -45.5q35 0 66.5 8t55.5 21l38 -151q-41 -22 -93 -35t-106 -13zM36 824v156h252v-156h-252z" />
    <glyph glyph-name="tbar" unicode="&#x167;" horiz-adv-x="866" 
d="M574 -30q-137 0 -220.5 80t-83.5 247v971h184v-288h287v-156h-287v-481q0 -112 40.5 -157.5t118.5 -45.5q35 0 66.5 8t55.5 21l38 -151q-41 -22 -93 -35t-106 -13zM46 824v156h252v-156h-252zM76 458v131h665v-131h-665z" />
    <glyph glyph-name="tcaron" unicode="&#x165;" horiz-adv-x="846" 
d="M564 -30q-137 0 -220.5 80t-83.5 247v971h184v-288h287v-156h-287v-481q0 -112 40.5 -157.5t118.5 -45.5q35 0 66.5 8t55.5 21l38 -151q-41 -22 -93 -35t-106 -13zM36 824v156h252v-156h-252zM544 1062v378h175l-51 -378h-124z" />
    <glyph glyph-name="uni0163" unicode="&#x163;" horiz-adv-x="846" 
d="M564 -30q-137 0 -220.5 80t-83.5 247v971h184v-288h287v-156h-287v-481q0 -112 40.5 -157.5t118.5 -45.5q35 0 66.5 8t55.5 21l38 -151q-41 -22 -93 -35t-106 -13zM36 824v156h252v-156h-252zM506 -450q-67 0 -123.5 16.5t-100.5 44.5l45 106q23 -24 74.5 -39t97.5 -15
q44 0 80.5 17t36.5 57q0 44 -51 61t-112 8l-43 79l54 155h113l-38 -123q100 -8 163 -52t63 -125q0 -69 -41.5 -111t-102 -60.5t-115.5 -18.5z" />
    <glyph glyph-name="uni021B" unicode="&#x21b;" horiz-adv-x="846" 
d="M564 -30q-137 0 -220.5 80t-83.5 247v971h184v-288h287v-156h-287v-481q0 -112 40.5 -157.5t118.5 -45.5q35 0 66.5 8t55.5 21l38 -151q-41 -22 -93 -35t-106 -13zM36 824v156h252v-156h-252zM419 -699l-65 83q63 27 112 66t66 77q-38 -2 -69.5 11t-50 39t-18.5 59
q0 52 35.5 85t91.5 33q62 0 100.5 -40.5t38.5 -108.5q0 -54 -27 -107.5t-81 -103.5t-133 -93z" />
    <glyph glyph-name="u" unicode="u" horiz-adv-x="1187" 
d="M535 -30q-131 0 -216.5 53t-127.5 138t-42 182v637h184v-598q0 -108 65.5 -174.5t180.5 -66.5q74 0 134 34t95.5 95.5t35.5 142.5v567h184v-980h-169v120q-61 -74 -142.5 -112t-181.5 -38z" />
    <glyph glyph-name="uacute" unicode="&#xfa;" horiz-adv-x="1187" 
d="M535 -30q-131 0 -216.5 53t-127.5 138t-42 182v637h184v-598q0 -108 65.5 -174.5t180.5 -66.5q74 0 134 34t95.5 95.5t35.5 142.5v567h184v-980h-169v120q-61 -74 -142.5 -112t-181.5 -38zM490 1170l186 344h189l-204 -344h-171z" />
    <glyph glyph-name="ubreve" unicode="&#x16d;" horiz-adv-x="1187" 
d="M535 -30q-131 0 -216.5 53t-127.5 138t-42 182v637h184v-598q0 -108 65.5 -174.5t180.5 -66.5q74 0 134 34t95.5 95.5t35.5 142.5v567h184v-980h-169v120q-61 -74 -142.5 -112t-181.5 -38zM588 1160q-107 0 -188 46t-125 125.5t-41 182.5h157q-4 -98 50 -158.5t147 -60.5
t146.5 60.5t48.5 158.5h158q2 -102 -42.5 -182t-125.5 -126t-185 -46z" />
    <glyph glyph-name="ucircumflex" unicode="&#xfb;" horiz-adv-x="1187" 
d="M535 -30q-131 0 -216.5 53t-127.5 138t-42 182v637h184v-598q0 -108 65.5 -174.5t180.5 -66.5q74 0 134 34t95.5 95.5t35.5 142.5v567h184v-980h-169v120q-61 -74 -142.5 -112t-181.5 -38zM232 1170l273 344h178l260 -344h-183l-169 232l-178 -232h-181z" />
    <glyph glyph-name="uni0215" unicode="&#x215;" horiz-adv-x="1187" 
d="M535 -30q-131 0 -216.5 53t-127.5 138t-42 182v637h184v-598q0 -108 65.5 -174.5t180.5 -66.5q74 0 134 34t95.5 95.5t35.5 142.5v567h184v-980h-169v120q-61 -74 -142.5 -112t-181.5 -38zM703 1170l-199 344h181l181 -344h-163zM320 1170l-199 344h181l181 -344h-163z
" />
    <glyph glyph-name="udieresis" unicode="&#xfc;" horiz-adv-x="1187" 
d="M535 -30q-131 0 -216.5 53t-127.5 138t-42 182v637h184v-598q0 -108 65.5 -174.5t180.5 -66.5q74 0 134 34t95.5 95.5t35.5 142.5v567h184v-980h-169v120q-61 -74 -142.5 -112t-181.5 -38zM383 1164q-49 0 -86 34.5t-37 87.5q0 35 17 62.5t45 43t61 15.5q50 0 86.5 -34
t36.5 -87q0 -36 -17 -63.5t-45 -43t-61 -15.5zM793 1164q-49 0 -86 34.5t-37 87.5q0 35 17 62.5t45 43t61 15.5q50 0 86.5 -34t36.5 -87q0 -36 -17 -63.5t-45 -43t-61 -15.5z" />
    <glyph glyph-name="uni1EE5" unicode="&#x1ee5;" horiz-adv-x="1187" 
d="M535 -30q-131 0 -216.5 53t-127.5 138t-42 182v637h184v-598q0 -108 65.5 -174.5t180.5 -66.5q74 0 134 34t95.5 95.5t35.5 142.5v567h184v-980h-169v120q-61 -74 -142.5 -112t-181.5 -38zM579 -493q-52 0 -90 34.5t-38 88.5t38 89t90 35q53 0 90.5 -35t37.5 -89
t-37.5 -88.5t-90.5 -34.5z" />
    <glyph glyph-name="ugrave" unicode="&#xf9;" horiz-adv-x="1187" 
d="M535 -30q-131 0 -216.5 53t-127.5 138t-42 182v637h184v-598q0 -108 65.5 -174.5t180.5 -66.5q74 0 134 34t95.5 95.5t35.5 142.5v567h184v-980h-169v120q-61 -74 -142.5 -112t-181.5 -38zM522 1170l-203 344h195l184 -344h-176z" />
    <glyph glyph-name="uni1EE7" unicode="&#x1ee7;" horiz-adv-x="1187" 
d="M535 -30q-131 0 -216.5 53t-127.5 138t-42 182v637h184v-598q0 -108 65.5 -174.5t180.5 -66.5q74 0 134 34t95.5 95.5t35.5 142.5v567h184v-980h-169v120q-61 -74 -142.5 -112t-181.5 -38zM512 1170q-35 68 -15.5 113t97.5 74q62 23 82 38.5t20 44.5q0 37 -37.5 58
t-93.5 21q-48 0 -94 -10.5t-83 -30.5l-39 104q51 26 113.5 39t126.5 13q113 0 184 -46.5t71 -120.5q0 -58 -29.5 -92.5t-107.5 -70.5q-63 -30 -76 -56t10 -78h-129z" />
    <glyph glyph-name="uhorn" unicode="&#x1b0;" horiz-adv-x="1267" 
d="M535 -30q-131 0 -216.5 53t-127.5 138t-42 182v637h184v-598q0 -108 65.5 -174.5t180.5 -66.5q74 0 134 34t95.5 95.5t35.5 142.5v567h184v-980h-169v120q-61 -74 -142.5 -112t-181.5 -38zM1060 782q-20 0 -41.5 4t-45.5 9v114q34 -8 55 -8q52 0 75.5 26t23.5 66
q0 31 -16 69.5t-49 81.5l123 62q47 -52 69.5 -109t22.5 -108q0 -57 -25 -104t-73.5 -75t-118.5 -28z" />
    <glyph glyph-name="uni1EE9" unicode="&#x1ee9;" horiz-adv-x="1267" 
d="M535 -30q-131 0 -216.5 53t-127.5 138t-42 182v637h184v-598q0 -108 65.5 -174.5t180.5 -66.5q74 0 134 34t95.5 95.5t35.5 142.5v567h184v-980h-169v120q-61 -74 -142.5 -112t-181.5 -38zM1060 782q-20 0 -41.5 4t-45.5 9v114q34 -8 55 -8q52 0 75.5 26t23.5 66
q0 31 -16 69.5t-49 81.5l123 62q47 -52 69.5 -109t22.5 -108q0 -57 -25 -104t-73.5 -75t-118.5 -28zM490 1170l186 344h189l-204 -344h-171z" />
    <glyph glyph-name="uni1EF1" unicode="&#x1ef1;" horiz-adv-x="1267" 
d="M535 -30q-131 0 -216.5 53t-127.5 138t-42 182v637h184v-598q0 -108 65.5 -174.5t180.5 -66.5q74 0 134 34t95.5 95.5t35.5 142.5v567h184v-980h-169v120q-61 -74 -142.5 -112t-181.5 -38zM1060 782q-20 0 -41.5 4t-45.5 9v114q34 -8 55 -8q52 0 75.5 26t23.5 66
q0 31 -16 69.5t-49 81.5l123 62q47 -52 69.5 -109t22.5 -108q0 -57 -25 -104t-73.5 -75t-118.5 -28zM579 -493q-52 0 -90 34.5t-38 88.5t38 89t90 35q53 0 90.5 -35t37.5 -89t-37.5 -88.5t-90.5 -34.5z" />
    <glyph glyph-name="uni1EEB" unicode="&#x1eeb;" horiz-adv-x="1267" 
d="M535 -30q-131 0 -216.5 53t-127.5 138t-42 182v637h184v-598q0 -108 65.5 -174.5t180.5 -66.5q74 0 134 34t95.5 95.5t35.5 142.5v567h184v-980h-169v120q-61 -74 -142.5 -112t-181.5 -38zM1060 782q-20 0 -41.5 4t-45.5 9v114q34 -8 55 -8q52 0 75.5 26t23.5 66
q0 31 -16 69.5t-49 81.5l123 62q47 -52 69.5 -109t22.5 -108q0 -57 -25 -104t-73.5 -75t-118.5 -28zM522 1170l-203 344h195l184 -344h-176z" />
    <glyph glyph-name="uni1EED" unicode="&#x1eed;" horiz-adv-x="1267" 
d="M535 -30q-131 0 -216.5 53t-127.5 138t-42 182v637h184v-598q0 -108 65.5 -174.5t180.5 -66.5q74 0 134 34t95.5 95.5t35.5 142.5v567h184v-980h-169v120q-61 -74 -142.5 -112t-181.5 -38zM1060 782q-20 0 -41.5 4t-45.5 9v114q34 -8 55 -8q52 0 75.5 26t23.5 66
q0 31 -16 69.5t-49 81.5l123 62q47 -52 69.5 -109t22.5 -108q0 -57 -25 -104t-73.5 -75t-118.5 -28zM512 1170q-35 68 -15.5 113t97.5 74q62 23 82 38.5t20 44.5q0 37 -37.5 58t-93.5 21q-48 0 -94 -10.5t-83 -30.5l-39 104q51 26 113.5 39t126.5 13q113 0 184 -46.5
t71 -120.5q0 -58 -29.5 -92.5t-107.5 -70.5q-63 -30 -76 -56t10 -78h-129z" />
    <glyph glyph-name="uni1EEF" unicode="&#x1eef;" horiz-adv-x="1267" 
d="M535 -30q-131 0 -216.5 53t-127.5 138t-42 182v637h184v-598q0 -108 65.5 -174.5t180.5 -66.5q74 0 134 34t95.5 95.5t35.5 142.5v567h184v-980h-169v120q-61 -74 -142.5 -112t-181.5 -38zM1060 782q-20 0 -41.5 4t-45.5 9v114q34 -8 55 -8q52 0 75.5 26t23.5 66
q0 31 -16 69.5t-49 81.5l123 62q47 -52 69.5 -109t22.5 -108q0 -57 -25 -104t-73.5 -75t-118.5 -28zM309 1198l-92 73q34 89 90.5 142t131.5 53q59 0 110.5 -26.5t98.5 -53t93 -26.5q43 0 75 33t52 94l91 -75q-28 -92 -85.5 -142t-130.5 -50q-59 0 -111.5 26t-100.5 52.5
t-93 26.5q-43 0 -75.5 -32.5t-53.5 -94.5z" />
    <glyph glyph-name="uhungarumlaut" unicode="&#x171;" horiz-adv-x="1187" 
d="M535 -30q-131 0 -216.5 53t-127.5 138t-42 182v637h184v-598q0 -108 65.5 -174.5t180.5 -66.5q74 0 134 34t95.5 95.5t35.5 142.5v567h184v-980h-169v120q-61 -74 -142.5 -112t-181.5 -38zM693 1170l181 344h181l-199 -344h-163zM310 1170l181 344h181l-199 -344h-163z
" />
    <glyph glyph-name="uni0217" unicode="&#x217;" horiz-adv-x="1187" 
d="M535 -30q-131 0 -216.5 53t-127.5 138t-42 182v637h184v-598q0 -108 65.5 -174.5t180.5 -66.5q74 0 134 34t95.5 95.5t35.5 142.5v567h184v-980h-169v120q-61 -74 -142.5 -112t-181.5 -38zM234 1170q-3 103 41 183t125 125.5t188 45.5q104 0 185 -46t125.5 -126
t42.5 -182h-158q5 99 -48.5 159.5t-146.5 60.5t-147 -60.5t-50 -159.5h-157z" />
    <glyph glyph-name="umacron" unicode="&#x16b;" horiz-adv-x="1187" 
d="M535 -30q-131 0 -216.5 53t-127.5 138t-42 182v637h184v-598q0 -108 65.5 -174.5t180.5 -66.5q74 0 134 34t95.5 95.5t35.5 142.5v567h184v-980h-169v120q-61 -74 -142.5 -112t-181.5 -38zM275 1230v136h626v-136h-626z" />
    <glyph glyph-name="uogonek" unicode="&#x173;" horiz-adv-x="1187" 
d="M845 -450q-101 0 -157 59t-55 144q1 86 50.5 151t132 107t182.5 59l30 -70q-75 -14 -130 -41t-85 -68.5t-32 -98.5q0 -43 21 -72.5t72 -29.5q28 0 55 8.5t48 23.5l54 -121q-42 -24 -89.5 -37.5t-96.5 -13.5zM535 -30q-131 0 -216.5 53t-127.5 138t-42 182v637h184v-598
q0 -108 65.5 -174.5t180.5 -66.5q74 0 134 34t95.5 95.5t35.5 142.5v567h184v-980h-169v120q-61 -74 -142.5 -112t-181.5 -38z" />
    <glyph glyph-name="uring" unicode="&#x16f;" horiz-adv-x="1187" 
d="M535 -30q-131 0 -216.5 53t-127.5 138t-42 182v637h184v-598q0 -108 65.5 -174.5t180.5 -66.5q74 0 134 34t95.5 95.5t35.5 142.5v567h184v-980h-169v120q-61 -74 -142.5 -112t-181.5 -38zM588 1103q-72 0 -131.5 32t-94.5 87t-35 124q0 68 35 123.5t94.5 88.5t131.5 33
q71 0 129.5 -33t94 -88.5t35.5 -123.5q0 -69 -35.5 -124t-94 -87t-129.5 -32zM588 1213q60 0 95.5 38.5t35.5 94.5t-35.5 94.5t-95.5 38.5t-96.5 -38.5t-36.5 -94.5t36.5 -94.5t96.5 -38.5z" />
    <glyph glyph-name="utilde" unicode="&#x169;" horiz-adv-x="1187" 
d="M535 -30q-131 0 -216.5 53t-127.5 138t-42 182v637h184v-598q0 -108 65.5 -174.5t180.5 -66.5q74 0 134 34t95.5 95.5t35.5 142.5v567h184v-980h-169v120q-61 -74 -142.5 -112t-181.5 -38zM309 1198l-92 73q34 89 90.5 142t131.5 53q59 0 110.5 -26.5t98.5 -53t93 -26.5
q43 0 75 33t52 94l91 -75q-28 -92 -85.5 -142t-130.5 -50q-59 0 -111.5 26t-100.5 52.5t-93 26.5q-43 0 -75.5 -32.5t-53.5 -94.5z" />
    <glyph glyph-name="v" unicode="v" horiz-adv-x="1018" 
d="M407 0l-374 980h204l293 -823h-32l288 823h198l-369 -980h-208z" />
    <glyph glyph-name="w" unicode="w" horiz-adv-x="1551" 
d="M346 0l-313 980h187l227 -766l246 766h186l229 -766l233 766h177l-313 -980h-194l-231 741l-240 -741h-194z" />
    <glyph glyph-name="wacute" unicode="&#x1e83;" horiz-adv-x="1551" 
d="M346 0l-313 980h187l227 -766l246 766h186l229 -766l233 766h177l-313 -980h-194l-231 741l-240 -741h-194zM678 1169l186 344h189l-204 -344h-171z" />
    <glyph glyph-name="wcircumflex" unicode="&#x175;" horiz-adv-x="1551" 
d="M346 0l-313 980h187l227 -766l246 766h186l229 -766l233 766h177l-313 -980h-194l-231 741l-240 -741h-194zM420 1169l273 344h178l260 -344h-183l-169 232l-178 -232h-181z" />
    <glyph glyph-name="wdieresis" unicode="&#x1e85;" horiz-adv-x="1551" 
d="M346 0l-313 980h187l227 -766l246 766h186l229 -766l233 766h177l-313 -980h-194l-231 741l-240 -741h-194zM571 1163q-49 0 -86 34.5t-37 87.5q0 35 17 62.5t45 43t61 15.5q50 0 86.5 -34t36.5 -87q0 -36 -17 -63.5t-45 -43t-61 -15.5zM981 1163q-49 0 -86 34.5
t-37 87.5q0 35 17 62.5t45 43t61 15.5q50 0 86.5 -34t36.5 -87q0 -36 -17 -63.5t-45 -43t-61 -15.5z" />
    <glyph glyph-name="wgrave" unicode="&#x1e81;" horiz-adv-x="1551" 
d="M346 0l-313 980h187l227 -766l246 766h186l229 -766l233 766h177l-313 -980h-194l-231 741l-240 -741h-194zM710 1169l-203 344h195l184 -344h-176z" />
    <glyph glyph-name="x" unicode="x" horiz-adv-x="1019" 
d="M33 -1l355 497l-334 484h232l227 -349l219 349h225l-324 -478l353 -502h-236l-244 368l-248 -367z" />
    <glyph glyph-name="y" unicode="y" horiz-adv-x="1031" 
d="M221 -449q-48 0 -95 11.5t-95 40.5l43 159q31 -20 67 -30t64 -10q74 0 115 36t66 110l39 112l-388 1000h202l290 -790l283 790h195l-429 -1136q-44 -116 -97.5 -179.5t-117.5 -88.5t-142 -25z" />
    <glyph glyph-name="yacute" unicode="&#xfd;" horiz-adv-x="1031" 
d="M221 -449q-48 0 -95 11.5t-95 40.5l43 159q31 -20 67 -30t64 -10q74 0 115 36t66 110l39 112l-388 1000h202l290 -790l283 790h195l-429 -1136q-44 -116 -97.5 -179.5t-117.5 -88.5t-142 -25zM417 1170l186 344h189l-204 -344h-171z" />
    <glyph glyph-name="ycircumflex" unicode="&#x177;" horiz-adv-x="1031" 
d="M221 -449q-48 0 -95 11.5t-95 40.5l43 159q31 -20 67 -30t64 -10q74 0 115 36t66 110l39 112l-388 1000h202l290 -790l283 790h195l-429 -1136q-44 -116 -97.5 -179.5t-117.5 -88.5t-142 -25zM160 1170l273 344h178l260 -344h-183l-169 232l-178 -232h-181z" />
    <glyph glyph-name="ydieresis" unicode="&#xff;" horiz-adv-x="1031" 
d="M221 -449q-48 0 -95 11.5t-95 40.5l43 159q31 -20 67 -30t64 -10q74 0 115 36t66 110l39 112l-388 1000h202l290 -790l283 790h195l-429 -1136q-44 -116 -97.5 -179.5t-117.5 -88.5t-142 -25zM310 1164q-49 0 -86 34.5t-37 87.5q0 35 17 62.5t45 43t61 15.5
q50 0 86.5 -34t36.5 -87q0 -36 -17 -63.5t-45 -43t-61 -15.5zM720 1164q-49 0 -86 34.5t-37 87.5q0 35 17 62.5t45 43t61 15.5q50 0 86.5 -34t36.5 -87q0 -36 -17 -63.5t-45 -43t-61 -15.5z" />
    <glyph glyph-name="uni1EF5" unicode="&#x1ef5;" horiz-adv-x="1031" 
d="M221 -449q-48 0 -95 11.5t-95 40.5l43 159q31 -20 67 -30t64 -10q74 0 115 36t66 110l39 112l-388 1000h202l290 -790l283 790h195l-429 -1136q-44 -116 -97.5 -179.5t-117.5 -88.5t-142 -25zM827 -493q-52 0 -90 34.5t-38 88.5t38 89t90 35q53 0 90.5 -35t37.5 -89
t-37.5 -88.5t-90.5 -34.5z" />
    <glyph glyph-name="ygrave" unicode="&#x1ef3;" horiz-adv-x="1031" 
d="M221 -449q-48 0 -95 11.5t-95 40.5l43 159q31 -20 67 -30t64 -10q74 0 115 36t66 110l39 112l-388 1000h202l290 -790l283 790h195l-429 -1136q-44 -116 -97.5 -179.5t-117.5 -88.5t-142 -25zM450 1170l-203 344h195l184 -344h-176z" />
    <glyph glyph-name="uni1EF7" unicode="&#x1ef7;" horiz-adv-x="1031" 
d="M221 -449q-48 0 -95 11.5t-95 40.5l43 159q31 -20 67 -30t64 -10q74 0 115 36t66 110l39 112l-388 1000h202l290 -790l283 790h195l-429 -1136q-44 -116 -97.5 -179.5t-117.5 -88.5t-142 -25zM440 1170q-35 68 -15.5 113t97.5 74q62 23 82 38.5t20 44.5q0 37 -37.5 58
t-93.5 21q-48 0 -94 -10.5t-83 -30.5l-39 104q51 26 113.5 39t126.5 13q113 0 184 -46.5t71 -120.5q0 -58 -29.5 -92.5t-107.5 -70.5q-63 -30 -76 -56t10 -78h-129z" />
    <glyph glyph-name="uni0233" unicode="&#x233;" horiz-adv-x="1031" 
d="M221 -449q-48 0 -95 11.5t-95 40.5l43 159q31 -20 67 -30t64 -10q74 0 115 36t66 110l39 112l-388 1000h202l290 -790l283 790h195l-429 -1136q-44 -116 -97.5 -179.5t-117.5 -88.5t-142 -25zM202 1230v136h626v-136h-626z" />
    <glyph glyph-name="uni1EF9" unicode="&#x1ef9;" horiz-adv-x="1031" 
d="M221 -449q-48 0 -95 11.5t-95 40.5l43 159q31 -20 67 -30t64 -10q74 0 115 36t66 110l39 112l-388 1000h202l290 -790l283 790h195l-429 -1136q-44 -116 -97.5 -179.5t-117.5 -88.5t-142 -25zM236 1198l-92 73q34 89 90.5 142t131.5 53q59 0 110.5 -26.5t98.5 -53
t93 -26.5q43 0 75 33t52 94l91 -75q-28 -92 -85.5 -142t-130.5 -50q-59 0 -111.5 26t-100.5 52.5t-93 26.5q-43 0 -75.5 -32.5t-53.5 -94.5z" />
    <glyph glyph-name="z" unicode="z" horiz-adv-x="958" 
d="M94 0v137l535 678h-526v165h752v-137l-527 -677h535v-166h-769z" />
    <glyph glyph-name="zacute" unicode="&#x17a;" horiz-adv-x="958" 
d="M94 0v137l535 678h-526v165h752v-137l-527 -677h535v-166h-769zM380 1170l186 344h189l-204 -344h-171z" />
    <glyph glyph-name="zcaron" unicode="&#x17e;" horiz-adv-x="958" 
d="M94 0v137l535 678h-526v165h752v-137l-527 -677h535v-166h-769zM385 1170l-262 344h183l170 -231l177 231h181l-272 -344h-177z" />
    <glyph glyph-name="zdotaccent" unicode="&#x17c;" horiz-adv-x="958" 
d="M94 0v137l535 678h-526v165h752v-137l-527 -677h535v-166h-769zM478 1165q-52 0 -90 35t-38 89t38 88.5t90 34.5q53 0 90.5 -34.5t37.5 -88.5t-37.5 -89t-90.5 -35z" />
    <glyph glyph-name="f.calt" horiz-adv-x="755" 
d="M260 0v1217q0 128 63.5 190.5t170.5 62.5q43 0 79 -6.5t67 -18.5l-32 -153q-38 16 -77 16q-48 0 -67.5 -28.5t-19.5 -85.5v-214h262v-156h-262v-824h-184zM54 824v156h234v-156h-234z" />
    <glyph glyph-name="j.calt" horiz-adv-x="502" 
d="M109 -450q-43 0 -79 6.5t-67 18.5l33 153q38 -16 76 -16q49 0 68 29t19 85v1154h184v-1177q0 -127 -63.5 -190t-170.5 -63zM251 1165q-52 0 -90 35t-38 89t38 88.5t90 34.5q53 0 90.5 -34.5t37.5 -88.5t-37.5 -89t-90.5 -35z" />
    <glyph glyph-name="uni0237.calt" horiz-adv-x="502" 
d="M109 -450q-43 0 -79 6.5t-67 18.5l33 153q38 -16 76 -16q49 0 68 29t19 85v1154h184v-1177q0 -127 -63.5 -190t-170.5 -63z" />
    <glyph glyph-name="jcircumflex.calt" horiz-adv-x="502" 
d="M109 -450q-43 0 -79 6.5t-67 18.5l33 153q38 -16 76 -16q49 0 68 29t19 85v1154h184v-1177q0 -127 -63.5 -190t-170.5 -63zM-67 1170l237 344h172l228 -344h-181l-137 232l-142 -232h-177z" />
    <glyph glyph-name="a.ss01" horiz-adv-x="1275" 
d="M576 -30q-148 0 -262 69t-178 186.5t-64 264.5q0 110 37 205t104 165.5t159.5 110t203.5 39.5q148 0 246 -62t153 -158l-27 -40v230h168v-980h-168v230l27 -39q-55 -96 -153 -158.5t-246 -62.5zM596 136q98 0 174 43.5t119.5 123t43.5 187.5q0 109 -43.5 188.5
t-119.5 122.5t-174 43t-174 -43t-120 -122.5t-44 -188.5q0 -108 44 -187.5t120 -123t174 -43.5z" />
    <glyph glyph-name="aacute.ss01" horiz-adv-x="1275" 
d="M576 -30q-148 0 -262 69t-178 186.5t-64 264.5q0 110 37 205t104 165.5t159.5 110t203.5 39.5q148 0 246 -62t153 -158l-27 -40v230h168v-980h-168v230l27 -39q-55 -96 -153 -158.5t-246 -62.5zM596 136q98 0 174 43.5t119.5 123t43.5 187.5q0 109 -43.5 188.5
t-119.5 122.5t-174 43t-174 -43t-120 -122.5t-44 -188.5q0 -108 44 -187.5t120 -123t174 -43.5zM508 1170l186 344h189l-204 -344h-171z" />
    <glyph glyph-name="abreve.ss01" horiz-adv-x="1275" 
d="M576 -30q-148 0 -262 69t-178 186.5t-64 264.5q0 110 37 205t104 165.5t159.5 110t203.5 39.5q148 0 246 -62t153 -158l-27 -40v230h168v-980h-168v230l27 -39q-55 -96 -153 -158.5t-246 -62.5zM596 136q98 0 174 43.5t119.5 123t43.5 187.5q0 109 -43.5 188.5
t-119.5 122.5t-174 43t-174 -43t-120 -122.5t-44 -188.5q0 -108 44 -187.5t120 -123t174 -43.5zM606 1160q-107 0 -188 46t-125 125.5t-41 182.5h157q-4 -98 50 -158.5t147 -60.5t146.5 60.5t48.5 158.5h158q2 -102 -42.5 -182t-125.5 -126t-185 -46z" />
    <glyph glyph-name="uni1EAF.ss01" horiz-adv-x="1275" 
d="M576 -30q-148 0 -262 69t-178 186.5t-64 264.5q0 110 37 205t104 165.5t159.5 110t203.5 39.5q148 0 246 -62t153 -158l-27 -40v230h168v-980h-168v230l27 -39q-55 -96 -153 -158.5t-246 -62.5zM596 136q98 0 174 43.5t119.5 123t43.5 187.5q0 109 -43.5 188.5
t-119.5 122.5t-174 43t-174 -43t-120 -122.5t-44 -188.5q0 -108 44 -187.5t120 -123t174 -43.5zM606 1160q-107 0 -188 46t-125 125.5t-41 182.5h157q-4 -98 50 -158.5t147 -60.5t146.5 60.5t48.5 158.5h158q2 -102 -42.5 -182t-125.5 -126t-185 -46zM508 1614l186 344h189
l-204 -344h-171z" />
    <glyph glyph-name="uni1EB7.ss01" horiz-adv-x="1275" 
d="M576 -30q-148 0 -262 69t-178 186.5t-64 264.5q0 110 37 205t104 165.5t159.5 110t203.5 39.5q148 0 246 -62t153 -158l-27 -40v230h168v-980h-168v230l27 -39q-55 -96 -153 -158.5t-246 -62.5zM596 136q98 0 174 43.5t119.5 123t43.5 187.5q0 109 -43.5 188.5
t-119.5 122.5t-174 43t-174 -43t-120 -122.5t-44 -188.5q0 -108 44 -187.5t120 -123t174 -43.5zM606 -493q-52 0 -90 34.5t-38 88.5t38 89t90 35q53 0 90.5 -35t37.5 -89t-37.5 -88.5t-90.5 -34.5zM606 1160q-107 0 -188 46t-125 125.5t-41 182.5h157q-4 -98 50 -158.5
t147 -60.5t146.5 60.5t48.5 158.5h158q2 -102 -42.5 -182t-125.5 -126t-185 -46z" />
    <glyph glyph-name="uni1EB1.ss01" horiz-adv-x="1275" 
d="M576 -30q-148 0 -262 69t-178 186.5t-64 264.5q0 110 37 205t104 165.5t159.5 110t203.5 39.5q148 0 246 -62t153 -158l-27 -40v230h168v-980h-168v230l27 -39q-55 -96 -153 -158.5t-246 -62.5zM596 136q98 0 174 43.5t119.5 123t43.5 187.5q0 109 -43.5 188.5
t-119.5 122.5t-174 43t-174 -43t-120 -122.5t-44 -188.5q0 -108 44 -187.5t120 -123t174 -43.5zM606 1160q-107 0 -188 46t-125 125.5t-41 182.5h157q-4 -98 50 -158.5t147 -60.5t146.5 60.5t48.5 158.5h158q2 -102 -42.5 -182t-125.5 -126t-185 -46zM540 1614l-203 344h195
l184 -344h-176z" />
    <glyph glyph-name="uni1EB3.ss01" horiz-adv-x="1275" 
d="M576 -30q-148 0 -262 69t-178 186.5t-64 264.5q0 110 37 205t104 165.5t159.5 110t203.5 39.5q148 0 246 -62t153 -158l-27 -40v230h168v-980h-168v230l27 -39q-55 -96 -153 -158.5t-246 -62.5zM596 136q98 0 174 43.5t119.5 123t43.5 187.5q0 109 -43.5 188.5
t-119.5 122.5t-174 43t-174 -43t-120 -122.5t-44 -188.5q0 -108 44 -187.5t120 -123t174 -43.5zM606 1160q-107 0 -188 46t-125 125.5t-41 182.5h157q-4 -98 50 -158.5t147 -60.5t146.5 60.5t48.5 158.5h158q2 -102 -42.5 -182t-125.5 -126t-185 -46zM530 1614
q-35 68 -15.5 113t97.5 74q62 23 82 38.5t20 44.5q0 37 -37.5 58t-93.5 21q-48 0 -94 -10.5t-83 -30.5l-39 104q51 26 113.5 39t126.5 13q113 0 184 -46.5t71 -120.5q0 -58 -29.5 -92.5t-107.5 -70.5q-63 -30 -76 -56t10 -78h-129z" />
    <glyph glyph-name="uni1EB5.ss01" horiz-adv-x="1275" 
d="M576 -30q-148 0 -262 69t-178 186.5t-64 264.5q0 110 37 205t104 165.5t159.5 110t203.5 39.5q148 0 246 -62t153 -158l-27 -40v230h168v-980h-168v230l27 -39q-55 -96 -153 -158.5t-246 -62.5zM596 136q98 0 174 43.5t119.5 123t43.5 187.5q0 109 -43.5 188.5
t-119.5 122.5t-174 43t-174 -43t-120 -122.5t-44 -188.5q0 -108 44 -187.5t120 -123t174 -43.5zM606 1160q-107 0 -188 46t-125 125.5t-41 182.5h157q-4 -98 50 -158.5t147 -60.5t146.5 60.5t48.5 158.5h158q2 -102 -42.5 -182t-125.5 -126t-185 -46zM327 1642l-92 73
q34 89 90.5 142t131.5 53q59 0 110.5 -26.5t98.5 -53t93 -26.5q43 0 75 33t52 94l91 -75q-28 -92 -85.5 -142t-130.5 -50q-59 0 -111.5 26t-100.5 52.5t-93 26.5q-43 0 -75.5 -32.5t-53.5 -94.5z" />
    <glyph glyph-name="acircumflex.ss01" horiz-adv-x="1275" 
d="M576 -30q-148 0 -262 69t-178 186.5t-64 264.5q0 110 37 205t104 165.5t159.5 110t203.5 39.5q148 0 246 -62t153 -158l-27 -40v230h168v-980h-168v230l27 -39q-55 -96 -153 -158.5t-246 -62.5zM596 136q98 0 174 43.5t119.5 123t43.5 187.5q0 109 -43.5 188.5
t-119.5 122.5t-174 43t-174 -43t-120 -122.5t-44 -188.5q0 -108 44 -187.5t120 -123t174 -43.5zM250 1170l273 344h178l260 -344h-183l-169 232l-178 -232h-181z" />
    <glyph glyph-name="uni1EA5.ss01" horiz-adv-x="1275" 
d="M576 -30q-148 0 -262 69t-178 186.5t-64 264.5q0 110 37 205t104 165.5t159.5 110t203.5 39.5q148 0 246 -62t153 -158l-27 -40v230h168v-980h-168v230l27 -39q-55 -96 -153 -158.5t-246 -62.5zM596 136q98 0 174 43.5t119.5 123t43.5 187.5q0 109 -43.5 188.5
t-119.5 122.5t-174 43t-174 -43t-120 -122.5t-44 -188.5q0 -108 44 -187.5t120 -123t174 -43.5zM250 1170l273 344h178l260 -344h-183l-169 232l-178 -232h-181zM889 1454l186 344h189l-204 -344h-171z" />
    <glyph glyph-name="uni1EAD.ss01" horiz-adv-x="1275" 
d="M576 -30q-148 0 -262 69t-178 186.5t-64 264.5q0 110 37 205t104 165.5t159.5 110t203.5 39.5q148 0 246 -62t153 -158l-27 -40v230h168v-980h-168v230l27 -39q-55 -96 -153 -158.5t-246 -62.5zM596 136q98 0 174 43.5t119.5 123t43.5 187.5q0 109 -43.5 188.5
t-119.5 122.5t-174 43t-174 -43t-120 -122.5t-44 -188.5q0 -108 44 -187.5t120 -123t174 -43.5zM606 -493q-52 0 -90 34.5t-38 88.5t38 89t90 35q53 0 90.5 -35t37.5 -89t-37.5 -88.5t-90.5 -34.5zM250 1170l273 344h178l260 -344h-183l-169 232l-178 -232h-181z" />
    <glyph glyph-name="uni1EA7.ss01" horiz-adv-x="1275" 
d="M576 -30q-148 0 -262 69t-178 186.5t-64 264.5q0 110 37 205t104 165.5t159.5 110t203.5 39.5q148 0 246 -62t153 -158l-27 -40v230h168v-980h-168v230l27 -39q-55 -96 -153 -158.5t-246 -62.5zM596 136q98 0 174 43.5t119.5 123t43.5 187.5q0 109 -43.5 188.5
t-119.5 122.5t-174 43t-174 -43t-120 -122.5t-44 -188.5q0 -108 44 -187.5t120 -123t174 -43.5zM250 1170l273 344h178l260 -344h-183l-169 232l-178 -232h-181zM891 1454l-203 344h195l184 -344h-176z" />
    <glyph glyph-name="uni1EA9.ss01" horiz-adv-x="1275" 
d="M576 -30q-148 0 -262 69t-178 186.5t-64 264.5q0 110 37 205t104 165.5t159.5 110t203.5 39.5q148 0 246 -62t153 -158l-27 -40v230h168v-980h-168v230l27 -39q-55 -96 -153 -158.5t-246 -62.5zM596 136q98 0 174 43.5t119.5 123t43.5 187.5q0 109 -43.5 188.5
t-119.5 122.5t-174 43t-174 -43t-120 -122.5t-44 -188.5q0 -108 44 -187.5t120 -123t174 -43.5zM250 1170l273 344h178l260 -344h-183l-169 232l-178 -232h-181zM912 1454q-35 68 -15.5 113t97.5 74q62 23 82 38.5t20 44.5q0 37 -37.5 58t-93.5 21q-48 0 -94 -10.5
t-83 -30.5l-39 104q51 26 113.5 39t126.5 13q113 0 184 -46.5t71 -120.5q0 -58 -29.5 -92.5t-107.5 -70.5q-63 -30 -76 -56t10 -78h-129z" />
    <glyph glyph-name="uni1EAB.ss01" horiz-adv-x="1275" 
d="M576 -30q-148 0 -262 69t-178 186.5t-64 264.5q0 110 37 205t104 165.5t159.5 110t203.5 39.5q148 0 246 -62t153 -158l-27 -40v230h168v-980h-168v230l27 -39q-55 -96 -153 -158.5t-246 -62.5zM596 136q98 0 174 43.5t119.5 123t43.5 187.5q0 109 -43.5 188.5
t-119.5 122.5t-174 43t-174 -43t-120 -122.5t-44 -188.5q0 -108 44 -187.5t120 -123t174 -43.5zM250 1170l273 344h178l260 -344h-183l-169 232l-178 -232h-181zM327 1672l-92 73q34 89 90.5 142t131.5 53q59 0 110.5 -26.5t98.5 -53t93 -26.5q43 0 75 33t52 94l91 -75
q-28 -92 -85.5 -142t-130.5 -50q-59 0 -111.5 26t-100.5 52.5t-93 26.5q-43 0 -75.5 -32.5t-53.5 -94.5z" />
    <glyph glyph-name="uni0201.ss01" horiz-adv-x="1275" 
d="M576 -30q-148 0 -262 69t-178 186.5t-64 264.5q0 110 37 205t104 165.5t159.5 110t203.5 39.5q148 0 246 -62t153 -158l-27 -40v230h168v-980h-168v230l27 -39q-55 -96 -153 -158.5t-246 -62.5zM596 136q98 0 174 43.5t119.5 123t43.5 187.5q0 109 -43.5 188.5
t-119.5 122.5t-174 43t-174 -43t-120 -122.5t-44 -188.5q0 -108 44 -187.5t120 -123t174 -43.5zM721 1170l-199 344h181l181 -344h-163zM338 1170l-199 344h181l181 -344h-163z" />
    <glyph glyph-name="adieresis.ss01" horiz-adv-x="1275" 
d="M576 -30q-148 0 -262 69t-178 186.5t-64 264.5q0 110 37 205t104 165.5t159.5 110t203.5 39.5q148 0 246 -62t153 -158l-27 -40v230h168v-980h-168v230l27 -39q-55 -96 -153 -158.5t-246 -62.5zM596 136q98 0 174 43.5t119.5 123t43.5 187.5q0 109 -43.5 188.5
t-119.5 122.5t-174 43t-174 -43t-120 -122.5t-44 -188.5q0 -108 44 -187.5t120 -123t174 -43.5zM401 1164q-49 0 -86 34.5t-37 87.5q0 35 17 62.5t45 43t61 15.5q50 0 86.5 -34t36.5 -87q0 -36 -17 -63.5t-45 -43t-61 -15.5zM811 1164q-49 0 -86 34.5t-37 87.5q0 35 17 62.5
t45 43t61 15.5q50 0 86.5 -34t36.5 -87q0 -36 -17 -63.5t-45 -43t-61 -15.5z" />
    <glyph glyph-name="uni1EA1.ss01" horiz-adv-x="1275" 
d="M576 -30q-148 0 -262 69t-178 186.5t-64 264.5q0 110 37 205t104 165.5t159.5 110t203.5 39.5q148 0 246 -62t153 -158l-27 -40v230h168v-980h-168v230l27 -39q-55 -96 -153 -158.5t-246 -62.5zM596 136q98 0 174 43.5t119.5 123t43.5 187.5q0 109 -43.5 188.5
t-119.5 122.5t-174 43t-174 -43t-120 -122.5t-44 -188.5q0 -108 44 -187.5t120 -123t174 -43.5zM606 -493q-52 0 -90 34.5t-38 88.5t38 89t90 35q53 0 90.5 -35t37.5 -89t-37.5 -88.5t-90.5 -34.5z" />
    <glyph glyph-name="agrave.ss01" horiz-adv-x="1275" 
d="M576 -30q-148 0 -262 69t-178 186.5t-64 264.5q0 110 37 205t104 165.5t159.5 110t203.5 39.5q148 0 246 -62t153 -158l-27 -40v230h168v-980h-168v230l27 -39q-55 -96 -153 -158.5t-246 -62.5zM596 136q98 0 174 43.5t119.5 123t43.5 187.5q0 109 -43.5 188.5
t-119.5 122.5t-174 43t-174 -43t-120 -122.5t-44 -188.5q0 -108 44 -187.5t120 -123t174 -43.5zM540 1170l-203 344h195l184 -344h-176z" />
    <glyph glyph-name="uni1EA3.ss01" horiz-adv-x="1275" 
d="M576 -30q-148 0 -262 69t-178 186.5t-64 264.5q0 110 37 205t104 165.5t159.5 110t203.5 39.5q148 0 246 -62t153 -158l-27 -40v230h168v-980h-168v230l27 -39q-55 -96 -153 -158.5t-246 -62.5zM596 136q98 0 174 43.5t119.5 123t43.5 187.5q0 109 -43.5 188.5
t-119.5 122.5t-174 43t-174 -43t-120 -122.5t-44 -188.5q0 -108 44 -187.5t120 -123t174 -43.5zM530 1170q-35 68 -15.5 113t97.5 74q62 23 82 38.5t20 44.5q0 37 -37.5 58t-93.5 21q-48 0 -94 -10.5t-83 -30.5l-39 104q51 26 113.5 39t126.5 13q113 0 184 -46.5t71 -120.5
q0 -58 -29.5 -92.5t-107.5 -70.5q-63 -30 -76 -56t10 -78h-129z" />
    <glyph glyph-name="uni0203.ss01" horiz-adv-x="1275" 
d="M576 -30q-148 0 -262 69t-178 186.5t-64 264.5q0 110 37 205t104 165.5t159.5 110t203.5 39.5q148 0 246 -62t153 -158l-27 -40v230h168v-980h-168v230l27 -39q-55 -96 -153 -158.5t-246 -62.5zM596 136q98 0 174 43.5t119.5 123t43.5 187.5q0 109 -43.5 188.5
t-119.5 122.5t-174 43t-174 -43t-120 -122.5t-44 -188.5q0 -108 44 -187.5t120 -123t174 -43.5zM252 1170q-3 103 41 183t125 125.5t188 45.5q104 0 185 -46t125.5 -126t42.5 -182h-158q5 99 -48.5 159.5t-146.5 60.5t-147 -60.5t-50 -159.5h-157z" />
    <glyph glyph-name="amacron.ss01" horiz-adv-x="1275" 
d="M576 -30q-148 0 -262 69t-178 186.5t-64 264.5q0 110 37 205t104 165.5t159.5 110t203.5 39.5q148 0 246 -62t153 -158l-27 -40v230h168v-980h-168v230l27 -39q-55 -96 -153 -158.5t-246 -62.5zM596 136q98 0 174 43.5t119.5 123t43.5 187.5q0 109 -43.5 188.5
t-119.5 122.5t-174 43t-174 -43t-120 -122.5t-44 -188.5q0 -108 44 -187.5t120 -123t174 -43.5zM293 1230v136h626v-136h-626z" />
    <glyph glyph-name="aogonek.ss01" horiz-adv-x="1275" 
d="M934 -450q-102 0 -157.5 59t-55.5 144q2 86 51 151t131.5 107t182.5 59l30 -70q-75 -14 -129.5 -41t-85 -68.5t-31.5 -98.5q-1 -43 20.5 -72.5t71.5 -29.5q29 0 55.5 8.5t48.5 23.5l53 -121q-41 -24 -88.5 -37.5t-96.5 -13.5zM576 -30q-148 0 -262 69t-178 186.5
t-64 264.5q0 110 37 205t104 165.5t159.5 110t203.5 39.5q148 0 246 -62t153 -158l-27 -40v230h168v-980h-168v230l27 -39q-55 -96 -153 -158.5t-246 -62.5zM596 136q98 0 174 43.5t119.5 123t43.5 187.5q0 109 -43.5 188.5t-119.5 122.5t-174 43t-174 -43t-120 -122.5
t-44 -188.5q0 -108 44 -187.5t120 -123t174 -43.5z" />
    <glyph glyph-name="aring.ss01" horiz-adv-x="1275" 
d="M576 -30q-148 0 -262 69t-178 186.5t-64 264.5q0 110 37 205t104 165.5t159.5 110t203.5 39.5q148 0 246 -62t153 -158l-27 -40v230h168v-980h-168v230l27 -39q-55 -96 -153 -158.5t-246 -62.5zM596 136q98 0 174 43.5t119.5 123t43.5 187.5q0 109 -43.5 188.5
t-119.5 122.5t-174 43t-174 -43t-120 -122.5t-44 -188.5q0 -108 44 -187.5t120 -123t174 -43.5zM606 1103q-72 0 -131.5 32t-94.5 87t-35 124q0 68 35 123.5t94.5 88.5t131.5 33q71 0 129.5 -33t94 -88.5t35.5 -123.5q0 -69 -35.5 -124t-94 -87t-129.5 -32zM606 1213
q60 0 95.5 38.5t35.5 94.5t-35.5 94.5t-95.5 38.5t-96.5 -38.5t-36.5 -94.5t36.5 -94.5t96.5 -38.5z" />
    <glyph glyph-name="aringacute.ss01" horiz-adv-x="1275" 
d="M576 -30q-148 0 -262 69t-178 186.5t-64 264.5q0 110 37 205t104 165.5t159.5 110t203.5 39.5q148 0 246 -62t153 -158l-27 -40v230h168v-980h-168v230l27 -39q-55 -96 -153 -158.5t-246 -62.5zM596 136q98 0 174 43.5t119.5 123t43.5 187.5q0 109 -43.5 188.5
t-119.5 122.5t-174 43t-174 -43t-120 -122.5t-44 -188.5q0 -108 44 -187.5t120 -123t174 -43.5zM606 1103q-72 0 -131.5 32t-94.5 87t-35 124q0 68 35 123.5t94.5 88.5t131.5 33q71 0 129.5 -33t94 -88.5t35.5 -123.5q0 -69 -35.5 -124t-94 -87t-129.5 -32zM606 1213
q60 0 95.5 38.5t35.5 94.5t-35.5 94.5t-95.5 38.5t-96.5 -38.5t-36.5 -94.5t36.5 -94.5t96.5 -38.5zM508 1684l186 344h189l-204 -344h-171z" />
    <glyph glyph-name="atilde.ss01" horiz-adv-x="1275" 
d="M576 -30q-148 0 -262 69t-178 186.5t-64 264.5q0 110 37 205t104 165.5t159.5 110t203.5 39.5q148 0 246 -62t153 -158l-27 -40v230h168v-980h-168v230l27 -39q-55 -96 -153 -158.5t-246 -62.5zM596 136q98 0 174 43.5t119.5 123t43.5 187.5q0 109 -43.5 188.5
t-119.5 122.5t-174 43t-174 -43t-120 -122.5t-44 -188.5q0 -108 44 -187.5t120 -123t174 -43.5zM327 1198l-92 73q34 89 90.5 142t131.5 53q59 0 110.5 -26.5t98.5 -53t93 -26.5q43 0 75 33t52 94l91 -75q-28 -92 -85.5 -142t-130.5 -50q-59 0 -111.5 26t-100.5 52.5
t-93 26.5q-43 0 -75.5 -32.5t-53.5 -94.5z" />
    <glyph glyph-name="ae.ss01" horiz-adv-x="1979" 
d="M576 -30q-148 0 -262 69t-178 186.5t-64 264.5q0 110 37 205t104 165.5t159.5 110t203.5 39.5q140 0 234.5 -57t151.5 -143l-30 -45v215h141v-215l-38 44q71 95 176.5 148t229.5 53q156 0 266.5 -73.5t162.5 -199.5t32 -284h-796q-3 -98 40 -171.5t124.5 -114.5
t192.5 -41q81 0 159 26t139 77l78 -137q-48 -39 -111.5 -66.5t-133.5 -41.5t-137 -14q-137 0 -243.5 52.5t-173.5 147.5l33 44v-214h-141v212l30 -44q-57 -85 -151.5 -141.5t-234.5 -56.5zM596 136q98 0 174 43.5t119.5 123t43.5 187.5q0 109 -43.5 188.5t-119.5 122.5
t-174 43t-174 -43t-120 -122.5t-44 -188.5q0 -108 44 -187.5t120 -123t174 -43.5zM1116 596h605q2 124 -74.5 193.5t-211.5 69.5q-133 0 -222.5 -69.5t-96.5 -193.5z" />
    <glyph glyph-name="aeacute.ss01" horiz-adv-x="1979" 
d="M576 -30q-148 0 -262 69t-178 186.5t-64 264.5q0 110 37 205t104 165.5t159.5 110t203.5 39.5q140 0 234.5 -57t151.5 -143l-30 -45v215h141v-215l-38 44q71 95 176.5 148t229.5 53q156 0 266.5 -73.5t162.5 -199.5t32 -284h-796q-3 -98 40 -171.5t124.5 -114.5
t192.5 -41q81 0 159 26t139 77l78 -137q-48 -39 -111.5 -66.5t-133.5 -41.5t-137 -14q-137 0 -243.5 52.5t-173.5 147.5l33 44v-214h-141v212l30 -44q-57 -85 -151.5 -141.5t-234.5 -56.5zM596 136q98 0 174 43.5t119.5 123t43.5 187.5q0 109 -43.5 188.5t-119.5 122.5
t-174 43t-174 -43t-120 -122.5t-44 -188.5q0 -108 44 -187.5t120 -123t174 -43.5zM1116 596h605q2 124 -74.5 193.5t-211.5 69.5q-133 0 -222.5 -69.5t-96.5 -193.5zM919 1170l186 344h189l-204 -344h-171z" />
    <glyph glyph-name="g.ss01" horiz-adv-x="1274" 
d="M584 -450q-95 0 -191 19t-183 62l49 157q79 -37 160 -55t159 -18q177 0 270.5 87t93.5 229v213l26 -39q-54 -97 -151 -158.5t-244 -61.5q-150 0 -263 68.5t-176 184.5t-63 260q0 107 36 200t102.5 163.5t158.5 109.5t205 39q147 0 244 -61t151 -158l-26 -40v230h173v-904
q0 -248 -133.5 -387.5t-397.5 -139.5zM595 149q98 0 174.5 43t119.5 121t43 185q0 106 -43 184.5t-119.5 121.5t-174.5 43q-99 0 -175 -43t-119.5 -121.5t-43.5 -184.5q0 -107 43.5 -185t119.5 -121t175 -43z" />
    <glyph glyph-name="gbreve.ss01" horiz-adv-x="1274" 
d="M584 -450q-95 0 -191 19t-183 62l49 157q79 -37 160 -55t159 -18q177 0 270.5 87t93.5 229v213l26 -39q-54 -97 -151 -158.5t-244 -61.5q-150 0 -263 68.5t-176 184.5t-63 260q0 107 36 200t102.5 163.5t158.5 109.5t205 39q147 0 244 -61t151 -158l-26 -40v230h173v-904
q0 -248 -133.5 -387.5t-397.5 -139.5zM595 149q98 0 174.5 43t119.5 121t43 185q0 106 -43 184.5t-119.5 121.5t-174.5 43q-99 0 -175 -43t-119.5 -121.5t-43.5 -184.5q0 -107 43.5 -185t119.5 -121t175 -43zM595 1160q-107 0 -188 46t-125 125.5t-41 182.5h157
q-4 -98 50 -158.5t147 -60.5t146.5 60.5t48.5 158.5h158q2 -102 -42.5 -182t-125.5 -126t-185 -46z" />
    <glyph glyph-name="gcaron.ss01" horiz-adv-x="1274" 
d="M584 -450q-95 0 -191 19t-183 62l49 157q79 -37 160 -55t159 -18q177 0 270.5 87t93.5 229v213l26 -39q-54 -97 -151 -158.5t-244 -61.5q-150 0 -263 68.5t-176 184.5t-63 260q0 107 36 200t102.5 163.5t158.5 109.5t205 39q147 0 244 -61t151 -158l-26 -40v230h173v-904
q0 -248 -133.5 -387.5t-397.5 -139.5zM595 149q98 0 174.5 43t119.5 121t43 185q0 106 -43 184.5t-119.5 121.5t-174.5 43q-99 0 -175 -43t-119.5 -121.5t-43.5 -184.5q0 -107 43.5 -185t119.5 -121t175 -43zM501 1170l-262 344h183l170 -231l177 231h181l-272 -344h-177z
" />
    <glyph glyph-name="gcircumflex.ss01" horiz-adv-x="1274" 
d="M584 -450q-95 0 -191 19t-183 62l49 157q79 -37 160 -55t159 -18q177 0 270.5 87t93.5 229v213l26 -39q-54 -97 -151 -158.5t-244 -61.5q-150 0 -263 68.5t-176 184.5t-63 260q0 107 36 200t102.5 163.5t158.5 109.5t205 39q147 0 244 -61t151 -158l-26 -40v230h173v-904
q0 -248 -133.5 -387.5t-397.5 -139.5zM595 149q98 0 174.5 43t119.5 121t43 185q0 106 -43 184.5t-119.5 121.5t-174.5 43q-99 0 -175 -43t-119.5 -121.5t-43.5 -184.5q0 -107 43.5 -185t119.5 -121t175 -43zM239 1170l273 344h178l260 -344h-183l-169 232l-178 -232h-181z
" />
    <glyph glyph-name="uni0123.ss01" horiz-adv-x="1274" 
d="M584 -450q-95 0 -191 19t-183 62l49 157q79 -37 160 -55t159 -18q177 0 270.5 87t93.5 229v213l26 -39q-54 -97 -151 -158.5t-244 -61.5q-150 0 -263 68.5t-176 184.5t-63 260q0 107 36 200t102.5 163.5t158.5 109.5t205 39q147 0 244 -61t151 -158l-26 -40v230h173v-904
q0 -248 -133.5 -387.5t-397.5 -139.5zM595 149q98 0 174.5 43t119.5 121t43 185q0 106 -43 184.5t-119.5 121.5t-174.5 43q-99 0 -175 -43t-119.5 -121.5t-43.5 -184.5q0 -107 43.5 -185t119.5 -121t175 -43zM599 1227q-60 0 -97.5 40t-37.5 105q0 58 26.5 112t78.5 104
t129 96l63 -78q-59 -28 -109 -68t-64 -79q37 2 67 -12t48 -41t18 -63q0 -51 -34.5 -83.5t-87.5 -32.5z" />
    <glyph glyph-name="gdotaccent.ss01" horiz-adv-x="1274" 
d="M584 -450q-95 0 -191 19t-183 62l49 157q79 -37 160 -55t159 -18q177 0 270.5 87t93.5 229v213l26 -39q-54 -97 -151 -158.5t-244 -61.5q-150 0 -263 68.5t-176 184.5t-63 260q0 107 36 200t102.5 163.5t158.5 109.5t205 39q147 0 244 -61t151 -158l-26 -40v230h173v-904
q0 -248 -133.5 -387.5t-397.5 -139.5zM595 149q98 0 174.5 43t119.5 121t43 185q0 106 -43 184.5t-119.5 121.5t-174.5 43q-99 0 -175 -43t-119.5 -121.5t-43.5 -184.5q0 -107 43.5 -185t119.5 -121t175 -43zM595 1165q-52 0 -90 35t-38 89t38 88.5t90 34.5q53 0 90.5 -34.5
t37.5 -88.5t-37.5 -89t-90.5 -35z" />
    <glyph glyph-name="ordfeminine" unicode="&#xaa;" horiz-adv-x="791" 
d="M317 702v0q-102 0 -166.5 55.5t-64.5 149.5q0 70 49 121t155.5 73t276.5 6l3 -99q-120 16 -198 8.5t-116 -35t-38 -69.5q0 -47 36.5 -72.5t97.5 -25.5q78 0 130 41t52 107v172q0 64 -41.5 102.5t-133.5 38.5q-52 0 -102.5 -16t-93.5 -47l-40 102q60 42 126.5 60t130.5 18
q141 0 217 -64t76 -193v-413h-129v77q-35 -49 -95.5 -73t-131.5 -24z" />
    <glyph glyph-name="ordmasculine" unicode="&#xba;" horiz-adv-x="847" 
d="M423 702q-103 0 -184 47t-127.5 124.5t-46.5 170.5q0 91 46.5 169t127.5 125t184 47q104 0 185 -46.5t127.5 -124.5t46.5 -170t-46.5 -170t-127.5 -125t-185 -47zM423 828q62 0 111 26.5t77 75t28 114.5q0 99 -61.5 157t-154.5 58q-63 0 -111 -26t-76 -74.5t-28 -114.5
q0 -99 61 -157.5t154 -58.5z" />
    <glyph glyph-name="ordfeminine.ss01" horiz-adv-x="899" 
d="M403 702q-99 0 -175 44.5t-119.5 122t-43.5 175.5q0 97 43.5 174.5t119.5 122t175 44.5t165 -40.5t101 -104.5l-21 -29v154h127v-643h-127v156l21 -31q-35 -62 -101 -103.5t-165 -41.5zM421 828q93 0 153.5 58.5t60.5 157.5t-60.5 157t-153.5 58q-92 0 -152.5 -58
t-60.5 -157t60.5 -157.5t152.5 -58.5z" />
    <glyph glyph-name="uni0410" unicode="&#x410;" horiz-adv-x="1366" 
d="M26 0l551 1400h195l568 -1400h-212l-139 351h-624l-133 -351h-206zM418 515h516l-264 652z" />
    <glyph glyph-name="uni0411" unicode="&#x411;" horiz-adv-x="1252" 
d="M188 0v1400h856v-168h-668v-419h269q222 0 357.5 -103.5t135.5 -302.5q0 -131 -58.5 -221.5t-169 -138t-267.5 -47.5h-455zM376 154h264q147 0 226 64t79 186q0 117 -79.5 186.5t-218.5 69.5h-271v-506z" />
    <glyph glyph-name="uni0412" unicode="&#x412;" horiz-adv-x="1252" 
d="M188 0v1400h460q197 0 319.5 -89.5t122.5 -263.5q0 -67 -33 -128.5t-84.5 -107.5t-106.5 -65q115 -34 193.5 -127t78.5 -231q0 -113 -56.5 -200t-161 -137.5t-247.5 -50.5h-485zM376 154h263q155 0 230.5 60t75.5 184q0 121 -76.5 184.5t-238.5 63.5h-254v-492zM376 794
h241q87 0 152 28t100.5 80.5t35.5 126.5q0 106 -75.5 162t-215.5 56h-238v-453z" />
    <glyph glyph-name="uni0413" unicode="&#x413;" horiz-adv-x="1019" 
d="M188 0v1400h771v-173h-583v-1227h-188z" />
    <glyph glyph-name="uni0403" unicode="&#x403;" horiz-adv-x="1019" 
d="M188 0v1400h771v-173h-583v-1227h-188zM473 1573l193 323h194l-212 -323h-175z" />
    <glyph glyph-name="uni0490" unicode="&#x490;" horiz-adv-x="1019" 
d="M782 1227v531h177v-531h-177zM188 0v1400h771v-173h-583v-1227h-188z" />
    <glyph glyph-name="uni04F6" unicode="&#x4f6;" horiz-adv-x="1019" 
d="M421 -357v357h-145v173h322v-530h-177zM188 0v1400h771v-173h-583v-1227h-188z" />
    <glyph glyph-name="uni0492" unicode="&#x492;" horiz-adv-x="1119" 
d="M268 0v1400h771v-173h-583v-1227h-188zM133 631v143h870v-143h-870z" />
    <glyph glyph-name="uni0494" unicode="&#x494;" horiz-adv-x="1316" 
d="M188 0v1400h846v-171h-658v-1229h-188zM838 -286l-87 140q103 45 170.5 119.5t100.5 165t33 184.5q0 128 -52.5 210t-144.5 121.5t-211 39.5q-87 0 -170.5 -16.5t-171.5 -52.5v162q97 39 189 56t176 17q173 0 302 -61t200.5 -179.5t71.5 -288.5q0 -125 -44 -246
t-134 -218.5t-228 -152.5z" />
    <glyph glyph-name="uni0414" unicode="&#x414;" horiz-adv-x="1580" 
d="M1114 0v1227h-589v-254q0 -259 -23.5 -433t-72.5 -282t-128 -166t-192 -85l-68 149q91 21 149.5 65t92 132t47 238t13.5 382v427h959v-1400h-188zM41 -357v513l142 -9l76 26h1265v-530h-177v357h-1129v-357h-177z" />
    <glyph glyph-name="uni0415" unicode="&#x415;" horiz-adv-x="1210" 
d="M188 0v1400h878v-168h-690v-417h601v-161h-601v-485h696v-169h-884z" />
    <glyph glyph-name="uni0400" unicode="&#x400;" horiz-adv-x="1210" 
d="M188 0v1400h878v-168h-690v-417h601v-161h-601v-485h696v-169h-884zM551 1573l-210 323h200l191 -323h-181z" />
    <glyph glyph-name="uni0401" unicode="&#x401;" horiz-adv-x="1210" 
d="M188 0v1400h878v-168h-690v-417h601v-161h-601v-485h696v-169h-884zM408 1568q-51 0 -89 34.5t-38 86.5q0 34 17.5 61t46.5 42.5t63 15.5q50 0 88.5 -33.5t38.5 -85.5q0 -35 -17.5 -62.5t-46.5 -43t-63 -15.5zM831 1568q-51 0 -89 34.5t-38 86.5q0 34 17 61t46 42.5
t64 15.5q50 0 88 -33.5t38 -85.5q0 -35 -17.5 -62.5t-46.5 -43t-62 -15.5z" />
    <glyph glyph-name="uni0416" unicode="&#x416;" horiz-adv-x="1965" 
d="M1680 0l-518 746l458 654h217l-459 -653l531 -747h-229zM55 0l529 738l-454 662h224l446 -654l-523 -746h-222zM889 0v664h-233v164h233v572h188v-572h231v-164h-231v-664h-188z" />
    <glyph glyph-name="uni0417" unicode="&#x417;" horiz-adv-x="1207" 
d="M559 -30q-153 0 -280 41t-220 117l95 153q71 -66 174 -103t219 -37q108 0 187 31.5t122 88.5t44 134q0 122 -78.5 185t-245.5 63h-271v157h256q90 0 156.5 28t103 80.5t36.5 125.5q0 71 -36 120.5t-104.5 75t-164.5 25.5q-102 0 -193 -32t-159 -92l-93 139
q86 77 206 118.5t258 41.5q146 0 252.5 -44.5t164 -128t57.5 -198.5q0 -68 -33 -132t-84.5 -112t-106.5 -70q117 -35 195 -127t77 -233q-1 -114 -68 -208t-186.5 -150.5t-279.5 -56.5z" />
    <glyph glyph-name="uni0418" unicode="&#x418;" horiz-adv-x="1487" 
d="M188 0v1400h187v-1086l745 1086h178v-1400h-187v1093l-747 -1093h-176z" />
    <glyph glyph-name="uni0419" unicode="&#x419;" horiz-adv-x="1487" 
d="M188 0v1400h187v-1086l745 1086h178v-1400h-187v1093l-747 -1093h-176zM743 1580q-107 0 -188 46t-125 125.5t-41 182.5h157q-4 -98 50 -158.5t147 -60.5t146.5 60.5t48.5 158.5h158q2 -102 -42.5 -182t-125.5 -126t-185 -46z" />
    <glyph glyph-name="uni040D" unicode="&#x40d;" horiz-adv-x="1487" 
d="M188 0v1400h187v-1086l745 1086h178v-1400h-187v1093l-747 -1093h-176zM676 1573l-210 323h200l191 -323h-181z" />
    <glyph glyph-name="uni041A" unicode="&#x41a;" horiz-adv-x="1365" 
d="M1057 0l-577 744l509 656h230l-510 -654l591 -746h-243zM188 0v1400h188v-569h258v-173h-258v-658h-188z" />
    <glyph glyph-name="uni040C" unicode="&#x40c;" horiz-adv-x="1365" 
d="M1057 0l-577 744l509 656h230l-510 -654l591 -746h-243zM188 0v1400h188v-569h258v-173h-258v-658h-188zM568 1573l193 323h194l-212 -323h-175z" />
    <glyph glyph-name="uni041B" unicode="&#x41b;" horiz-adv-x="1480" 
d="M131 -22l-76 173q67 21 115 52.5t81 84.5t52 140t27.5 219t8.5 321v432h953v-1400h-188v1227h-583v-254q0 -218 -13 -375t-41.5 -264t-74 -176t-110.5 -111t-151 -69z" />
    <glyph glyph-name="uni041C" unicode="&#x41c;" horiz-adv-x="1814" 
d="M188 0v1400h183l584 -945h-72l564 945h178v-1400h-184l2 1144l37 -12l-500 -817h-145l-506 817l29 12l2 -1144h-172z" />
    <glyph glyph-name="uni041D" unicode="&#x41d;" horiz-adv-x="1473" 
d="M188 0v1400h188v-569h720v569h188v-1400h-188v658h-720v-658h-188z" />
    <glyph glyph-name="uni041E" unicode="&#x41e;" horiz-adv-x="1668" 
d="M834 -30q-157 0 -290.5 55.5t-233 154.5t-154.5 232t-55 288q0 156 55 289t154.5 232t233 154t290.5 55q156 0 289 -56t233 -156t155.5 -232.5t55.5 -285.5q0 -155 -55.5 -288t-155.5 -232t-233 -154.5t-289 -55.5zM834 149q113 0 210.5 39t170.5 111.5t114.5 174.5
t41.5 226q0 167 -71.5 291t-193.5 192.5t-272 68.5q-113 0 -210.5 -39.5t-171 -112t-114.5 -174t-41 -226.5q0 -166 71.5 -290t193.5 -192.5t272 -68.5z" />
    <glyph glyph-name="uni041F" unicode="&#x41f;" horiz-adv-x="1473" 
d="M188 0v1400h1096v-1400h-188v1227h-720v-1227h-188z" />
    <glyph glyph-name="uni0420" unicode="&#x420;" horiz-adv-x="1252" 
d="M188 0v1400h489q147 0 259 -50t175.5 -144.5t63.5 -226.5q0 -135 -59 -228t-171 -141.5t-272 -48.5h-297v-561h-188zM376 726h303q147 0 227.5 62t80.5 187q0 122 -82.5 190t-223.5 68h-305v-507z" />
    <glyph glyph-name="uni0421" unicode="&#x421;" horiz-adv-x="1394" 
d="M822 -30q-217 0 -379.5 90.5t-252 255t-89.5 384.5q0 159 53 292.5t150 231.5t229.5 152t289.5 54q155 0 271 -38.5t200 -109.5l-100 -154q-68 61 -158 91t-199 30q-123 0 -223 -38t-170.5 -109.5t-108.5 -172.5t-38 -227q0 -174 67.5 -297t191.5 -187.5t293 -64.5
q109 0 209.5 32.5t188.5 106.5l88 -160q-103 -81 -230.5 -121.5t-282.5 -40.5z" />
    <glyph glyph-name="uni0422" unicode="&#x422;" horiz-adv-x="1108" 
d="M460 0v1227h-401v173h990v-173h-401v-1227h-188z" />
    <glyph glyph-name="uni0423" unicode="&#x423;" horiz-adv-x="1259" 
d="M210 -22l-79 174q111 28 202.5 84t168.5 147t141 223l391 794h217l-427 -839q-67 -133 -135.5 -232t-142 -168.5t-156.5 -114t-180 -68.5zM622 458l-531 942h230l426 -772z" />
    <glyph glyph-name="uni040E" unicode="&#x40e;" horiz-adv-x="1259" 
d="M210 -22l-79 174q111 28 202.5 84t168.5 147t141 223l391 794h217l-427 -839q-67 -133 -135.5 -232t-142 -168.5t-156.5 -114t-180 -68.5zM622 458l-531 942h230l426 -772zM693 1580q-107 0 -188 46t-125 125.5t-41 182.5h157q-4 -98 50 -158.5t147 -60.5t146.5 60.5
t48.5 158.5h158q2 -102 -42.5 -182t-125.5 -126t-185 -46z" />
    <glyph glyph-name="uni0424" unicode="&#x424;" horiz-adv-x="1680" 
d="M749 -60v178q-193 4 -341.5 76t-232.5 202.5t-84 311.5q0 180 84 311t232.5 203.5t341.5 76.5v176h181v-176q194 -4 342.5 -76.5t232.5 -203.5t84 -311q0 -181 -84 -311.5t-232.5 -202.5t-342.5 -76v-178h-181zM749 281v855q-144 -4 -248.5 -56.5t-161.5 -147t-57 -224.5
t57 -224.5t161.5 -147t248.5 -55.5zM930 281q144 3 249.5 55.5t162 147t56.5 224.5t-56.5 224.5t-162 147t-249.5 56.5v-855z" />
    <glyph glyph-name="uni0425" unicode="&#x425;" horiz-adv-x="1324" 
d="M61 0l461 719l-435 681h224l347 -545l373 545h216l-461 -687l476 -713h-225l-387 581l-371 -581h-218z" />
    <glyph glyph-name="uni0427" unicode="&#x427;" horiz-adv-x="1361" 
d="M985 0v583q-92 -24 -179.5 -38t-189.5 -14q-162 0 -275.5 52t-173 162.5t-59.5 288.5v366h188v-338q0 -195 87.5 -275t253.5 -80q105 0 186.5 11t161.5 30v652h188v-1400h-188z" />
    <glyph glyph-name="uni0426" unicode="&#x426;" horiz-adv-x="1543" 
d="M188 0v1400h188v-1227h700v1227h188v-1400h-1076zM1309 -357v357h-145v173h322v-530h-177z" />
    <glyph glyph-name="uni0428" unicode="&#x428;" horiz-adv-x="2162" 
d="M188 0v1400h188v-1227h612v1227h188v-1227h610v1227h188v-1400h-1786z" />
    <glyph glyph-name="uni0429" unicode="&#x429;" horiz-adv-x="2252" 
d="M2019 -357v357h-145v173h322v-530h-177zM188 0v1400h188v-1227h612v1227h188v-1227h610v1227h188v-1400h-1786z" />
    <glyph glyph-name="uni040F" unicode="&#x40f;" horiz-adv-x="1453" 
d="M188 0v1400h188v-1227h700v1227h188v-1400h-1076zM648 -357v450h177v-450h-177z" />
    <glyph glyph-name="uni042C" unicode="&#x42c;" horiz-adv-x="1252" 
d="M188 0v1400h188v-561h301q146 0 258.5 -50t176 -144.5t63.5 -226.5q0 -101 -33 -179t-97.5 -131.5t-157.5 -80.5t-214 -27h-485zM376 165h303q147 0 227.5 62t80.5 187q0 122 -82.5 190t-223.5 68h-305v-507z" />
    <glyph glyph-name="uni042B" unicode="&#x42b;" horiz-adv-x="1743" 
d="M188 0v1400h188v-561h291q146 0 258.5 -50t176 -144.5t63.5 -226.5q0 -101 -33 -179t-97.5 -131.5t-157.5 -80.5t-214 -27h-475zM376 165h293q147 0 227.5 62t80.5 187q0 122 -82.5 190t-223.5 68h-295v-507zM1366 0v1400h188v-1400h-188z" />
    <glyph glyph-name="uni042A" unicode="&#x42a;" horiz-adv-x="1523" 
d="M460 1227h-401v173h589zM460 0v1400h188v-561h300q147 0 259 -50t175.5 -144.5t63.5 -226.5q0 -101 -33 -179t-97.5 -131.5t-157.5 -80.5t-214 -27h-484zM648 165h303q146 0 226.5 62t80.5 187q0 122 -82 190t-223 68h-305v-507z" />
    <glyph glyph-name="uni0409" unicode="&#x409;" horiz-adv-x="2127" 
d="M131 -22l-76 173q67 21 115 52.5t81 84.5t52 140t27.5 219t8.5 321v432h913l-188 -173h-543v-254q0 -218 -13 -375t-41.5 -264t-74 -176t-110.5 -111t-151 -69zM1252 155h303q146 0 226.5 61.5t80.5 184.5q0 121 -82 188.5t-223 67.5h-305v-502zM1064 0v1400h188v-576
h300q147 0 259 -49t175.5 -141t63.5 -221q0 -134 -58.5 -225.5t-170.5 -139.5t-273 -48h-484z" />
    <glyph glyph-name="uni040A" unicode="&#x40a;" horiz-adv-x="2120" 
d="M1056 0l2 1400h188l-2 -1245h303q147 0 227.5 61.5t80.5 184.5q0 121 -82.5 188.5t-223.5 67.5h-1214v167h1210q146 0 258.5 -49t176 -141t63.5 -221q0 -134 -59 -225.5t-171 -139.5t-272 -48h-485zM188 0v1400h188v-1400h-188z" />
    <glyph glyph-name="uni0405" unicode="&#x405;" horiz-adv-x="1249" 
d="M633 -30q-141 0 -275 39.5t-226 113.5l94 147q52 -43 118 -73t140 -46t150 -16q149 0 239.5 58t90.5 170q0 82 -60.5 139t-225.5 104l-152 45q-192 56 -281 147t-89 228q0 92 37 166t104 127.5t158.5 82t200.5 28.5q135 0 251.5 -39.5t192.5 -105.5l-97 -141
q-45 38 -103 65.5t-124 42t-134 14.5q-91 0 -160.5 -26.5t-108 -78t-38.5 -124.5q0 -53 25 -92.5t87 -72.5t171 -65l162 -48q187 -55 275 -144.5t88 -234.5q0 -122 -59.5 -214.5t-173.5 -144t-277 -51.5z" />
    <glyph glyph-name="uni0404" unicode="&#x404;" horiz-adv-x="1394" 
d="M822 -30q-163 0 -295.5 52t-228 148.5t-146.5 230.5t-51 299q0 159 53 292.5t150 231.5t229.5 152t289.5 54q155 0 271 -38.5t200 -109.5l-98 -150q-69 63 -160.5 94t-202.5 31q-124 0 -225 -39t-172.5 -111t-110 -174.5t-38.5 -230.5q0 -177 68 -301t193.5 -190
t296.5 -66q111 0 213.5 33.5t190.5 108.5l86 -155q-103 -81 -230.5 -121.5t-282.5 -40.5zM243 657v156h829v-156h-829z" />
    <glyph glyph-name="uni042D" unicode="&#x42d;" horiz-adv-x="1394" 
d="M582 -30q-145 0 -281.5 40.5t-241.5 123.5l95 151q92 -73 202.5 -106t228.5 -33q160 0 277.5 64t181.5 190.5t64 314.5q0 174 -65 295t-181 184t-270 63q-118 0 -217.5 -31.5t-176.5 -94.5l-92 139q87 75 213 117.5t280 42.5q208 0 364.5 -89t243.5 -250t87 -375
q0 -171 -51.5 -309t-146 -235.5t-225 -149.5t-289.5 -52zM323 657v156h829v-156h-829z" />
    </font>
</defs>
</svg>
